osu file format v14

[General]
AudioFilename: audio.mp3
AudioLeadIn: 0
PreviewTime: -1
Countdown: 0
SampleSet: Soft
StackLeniency: 0.3
Mode: 0
LetterboxInBreaks: 0
WidescreenStoryboard: 1

[Editor]
Bookmarks: 62564,81655,108922,110291,178473,203018,224836,249382,254836,276655,323018
DistanceSpacing: 1.2
BeatDivisor: 4
GridSize: 32
TimelineZoom: 1.7

[Metadata]
Title:Swelling
TitleUnicode:Swelling
Artist:Sennzai
ArtistUnicode:Sennzai
Creator:Topu
Version:Malignant
Source:【C95/女性Vo】Sennzai 3rd Solo Album『Fleurix』XFD【冬コミ】
Tags:psyqui 【c95/女性vo】sennzai 3rd solo album『fleurix』xfd【冬コミ】 sennzai psyqui tv size anime size 女性ボーカル cross×beats
BeatmapID:1923483
BeatmapSetID:921093

[Difficulty]
HPDrainRate:5
CircleSize:4
OverallDifficulty:6
ApproachRate:9
SliderMultiplier:1.5
SliderTickRate:1

[Events]
//Background and Video events
0,0,"71386313_p0.jpg",0,0
//Break Periods
//Storyboard Layer 0 (Background)
//Storyboard Layer 1 (Fail)
//Storyboard Layer 2 (Pass)
//Storyboard Layer 3 (Foreground)
//Storyboard Sound Samples

[TimingPoints]
18923,681.818181818182,4,1,0,50,1,0
21650,-66.6666666666667,4,1,0,50,0,0
24377,-83.3333333333333,4,1,0,50,0,0
27104,-58.8235294117647,4,1,0,50,0,0
29150,-200,4,1,0,50,0,0
29661,-200,4,1,0,5,0,0
29832,-71.4285714285714,4,1,0,50,0,0
32559,-52.6315789473684,4,1,0,50,0,0
34604,-200,4,1,0,50,0,0
35116,-200,4,1,0,5,0,0
35286,-62.5,4,1,0,50,0,0
40741,-55.5555555555556,4,1,0,50,0,0
45513,-200,4,1,0,50,0,0
46025,-200,4,1,0,5,0,0
46195,-55.5555555555556,4,1,0,50,0,0
50968,-200,4,1,0,50,0,0
51479,-200,4,1,0,5,0,0
51650,-50,4,1,0,50,0,0
56423,-66.6666666666667,4,1,0,50,0,0
56763,-100,4,1,0,50,0,0
57104,-33.3333333333333,4,1,0,50,0,0
57786,-66.6666666666667,4,1,0,50,0,0
58127,-33.3333333333333,4,1,0,50,0,0
58809,-66.6666666666667,4,1,0,50,0,0
59150,-100,4,1,0,50,0,0
59491,-50,4,1,0,50,0,0
59832,-33.3333333333333,4,1,0,50,0,0
60513,-66.6666666666667,4,1,0,50,0,0
60854,-33.3333333333333,4,1,0,50,0,0
61536,-66.6666666666667,4,1,0,50,0,0
61877,-200,4,1,0,50,0,0
62388,-200,4,1,0,5,0,0
62559,-50,4,1,0,50,0,0
64093,-62.5,4,1,0,50,0,0
64434,-83.3333333333333,4,1,0,50,0,0
65286,-45.4545454545455,4,1,0,50,0,0
66479,-71.4285714285714,4,1,0,50,0,0
66991,-90.9090909090909,4,1,0,50,0,0
67332,-58.8235294117647,4,1,0,50,0,0
67673,-43.4782608695652,4,1,0,50,0,0
68013,-34.4827586206897,4,1,0,50,0,0
68695,-50,4,1,0,50,0,0
72104,-166.666666666667,4,1,0,50,0,0
72445,-125,4,1,0,50,0,0
72786,-83.3333333333333,4,1,0,50,0,0
73127,-71.4285714285714,4,1,0,50,0,0
73468,-55.5555555555556,4,1,0,50,0,0
74661,-100,4,1,0,50,0,0
75173,-125,4,1,0,50,0,0
75513,-142.857142857143,4,1,0,50,0,0
75854,-166.666666666667,4,1,0,50,0,0
77388,-66.6666666666667,4,1,0,50,0,0
77900,-83.3333333333333,4,1,0,50,0,0
78241,-71.4285714285714,4,1,0,50,0,0
78923,-62.5,4,1,0,50,0,0
80116,-55.5555555555556,4,1,0,50,0,0
80627,-100,4,1,0,50,0,0
80968,-66.6666666666667,4,1,0,50,0,0
81309,-50,4,1,0,50,0,0
81650,340.909090909091,4,1,0,50,1,0
83695,-133.333333333333,4,1,0,20,0,1
83865,-133.333333333333,4,1,0,5,0,1
84036,-66.6666666666667,4,1,0,50,0,1
84206,-66.6666666666667,4,1,0,5,0,1
84377,-44.4444444444445,4,1,0,50,0,0
86081,-62.5,4,1,0,50,0,0
86337,-62.5,4,1,0,5,0,0
86422,-45.4545454545455,4,1,0,50,0,0
86678,-45.4545454545455,4,1,0,5,0,0
86763,-35.7142857142857,4,1,0,50,0,0
87019,-35.7142857142857,4,1,0,5,0,0
87104,-44.4444444444445,4,1,0,50,0,0
88297,-58.8235294117647,4,1,0,50,0,0
88979,-34.4827586206897,4,1,0,50,0,0
89490,-44.4444444444445,4,1,0,50,0,0
89746,-44.4444444444445,4,1,0,5,0,0
89831,-35.0877192982456,4,1,0,50,0,0
90087,-35.0877192982456,4,1,0,5,0,0
90172,-35.0877192982456,4,1,0,50,0,0
90343,-39.2156862745098,4,1,0,50,0,0
90854,-66.6666666666667,4,1,0,50,0,0
91110,-66.6666666666667,4,1,0,5,0,0
91195,-52.6315789473684,4,1,0,50,0,0
91451,-52.6315789473684,4,1,0,5,0,0
91536,-52.6315789473684,4,1,0,50,0,0
91706,-50,4,1,0,50,0,0
92047,-37.037037037037,4,1,0,50,0,0
92900,-58.8235294117647,4,1,0,50,0,0
93155,-58.8235294117647,4,1,0,5,0,0
93240,-37.037037037037,4,1,0,50,0,0
93752,-50,4,1,0,50,0,0
94093,-38.4615384615385,4,1,0,50,0,0
94434,-32.258064516129,4,1,0,50,0,0
95286,-41.6666666666667,4,1,0,50,0,0
95542,-41.6666666666667,4,1,0,5,0,0
95627,-38.4615384615385,4,1,0,50,0,0
95882,-38.4615384615385,4,1,0,5,0,0
95968,-35.7142857142857,4,1,0,50,0,0
96223,-35.7142857142857,4,1,0,5,0,0
96309,-33.3333333333333,4,1,0,50,0,0
96564,-33.3333333333333,4,1,0,5,0,0
96650,-33.3333333333333,4,1,0,50,0,0
96905,-33.3333333333333,4,1,0,5,0,0
96990,-33.3333333333333,4,1,0,50,0,0
97246,-33.3333333333333,4,1,0,5,0,0
97331,-50,4,1,0,50,0,0
97587,-50,4,1,0,5,0,0
97672,-40,4,1,0,50,0,0
97928,-40,4,1,0,5,0,0
98013,-33.3333333333333,4,1,0,50,0,0
98269,-33.3333333333333,4,1,0,5,0,0
98354,-33.3333333333333,4,1,0,50,0,0
98695,-40,4,1,0,50,0,0
99206,-37.037037037037,4,1,0,50,0,0
99547,-32.258064516129,4,1,0,50,0,0
100229,-43.4782608695652,4,1,0,50,0,0
100570,-50,4,1,0,50,0,0
101081,-38.4615384615385,4,1,0,50,0,0
101337,-38.4615384615385,4,1,0,5,0,0
101422,-34.4827586206897,4,1,0,50,0,0
101678,-34.4827586206897,4,1,0,5,0,0
101763,-45.4545454545455,4,1,0,50,0,0
102019,-45.4545454545455,4,1,0,5,0,0
102104,-40,4,1,0,50,0,0
102360,-40,4,1,0,5,0,0
102445,-40,4,1,0,50,0,0
102615,-50,4,1,0,50,0,0
103809,-55.5555555555556,4,1,0,50,0,0
104150,-62.5,4,1,0,50,0,0
104405,-62.5,4,1,0,5,0,0
104490,-62.5,4,1,0,50,0,0
106025,-83.3333333333333,4,1,0,50,0,0
106195,-100,4,1,0,50,0,0
108752,-100,4,1,0,25,0,0
109263,-100,4,2,0,25,0,0
110286,-55.5555555555556,4,2,0,25,0,0
111138,-83.3333333333333,4,2,0,25,0,0
111309,-55.5555555555556,4,2,0,25,0,0
112161,-100,4,2,0,25,0,0
112672,-55.5555555555556,4,2,0,25,0,0
113013,-83.3333333333333,4,2,0,25,0,0
113184,-55.5555555555556,4,2,0,25,0,0
113354,-50,4,2,0,25,0,0
203013,681.818181818182,4,1,0,50,1,0
254831,340.909090909091,4,1,0,50,1,0
323013,681.818181818182,4,1,0,50,1,0
338694,689.655172413793,4,1,0,50,1,0
339383,681.818181818182,4,1,0,50,1,0
340746,714.285714285714,4,1,0,50,1,0
341460,769.230769230769,4,1,0,50,1,0
342229,750,4,1,0,50,1,0
344479,833.333333333333,4,1,0,50,1,0
345312,810.810810810811,4,1,0,50,1,0

[Colours]
Combo1 : 236,200,196
Combo2 : 200,26,26

[HitObjects]
286,129,18922,6,0,B|275:157|275:157|275:184|296:215,1,75
377,299,19434,1,0,0:0:0:0:
377,299,19604,2,0,L|377:235,1,37.5
245,310,19945,1,0,0:0:0:0:
279,292,20116,1,0,0:0:0:0:
295,266,20286,1,0,0:0:0:0:
295,248,20457,1,0,0:0:0:0:
277,202,20627,2,0,P|278:222|298:247,1,37.5
154,340,20968,5,0,0:0:0:0:
154,340,21309,2,0,L|83:336,1,37.5
154,340,21650,6,0,B|186:308|178:268|178:268|160:238,1,112.500004291535
30,194,22161,1,0,0:0:0:0:
35,216,22332,2,0,L|108:208,1,56.2500021457673
202,190,22672,1,0,0:0:0:0:
185,224,22843,1,0,0:0:0:0:
185,250,23013,1,0,0:0:0:0:
199,267,23184,1,0,0:0:0:0:
255,309,23354,2,0,P|235:285|188:274,1,56.2500021457673
54,331,23695,1,0,0:0:0:0:
53,330,24377,6,0,B|80:336|80:336|108:328|128:292,1,89.9999972534181
107,206,24888,1,0,0:0:0:0:
121,217,25059,2,0,L|137:136,1,44.999998626709
50,135,25400,1,0,0:0:0:0:
229,139,25570,1,0,0:0:0:0:
243,117,25741,1,0,0:0:0:0:
245,99,25911,1,0,0:0:0:0:
236,46,26082,2,0,P|231:67|239:90,1,44.999998626709
393,149,26422,5,0,0:0:0:0:
393,149,26763,2,0,L|378:79,1,44.999998626709
393,149,27104,6,0,B|430:186|421:234|421:234|400:270,1,127.50000243187
275,238,27616,1,0,0:0:0:0:
354,338,27786,2,0,B|300:337|274:296|274:296|264:255,1,127.50000243187
436,215,28298,1,0,0:0:0:0:
351,239,28468,2,0,B|360:169,1,63.7500012159348
458,114,28809,1,0,0:0:0:0:
253,163,28979,1,0,0:0:0:0:
345,17,29150,6,0,L|340:76,1,56.25
253,163,29832,6,0,B|283:185|319:185|319:185|380:140,1,104.999996795654
340,73,30343,1,0,0:0:0:0:
308,269,30513,2,0,L|323:335,1,52.4999983978272
236,352,30854,1,0,0:0:0:0:
172,301,31025,1,0,0:0:0:0:
90,302,31195,1,0,0:0:0:0:
61,226,31366,1,0,0:0:0:0:
168,163,31536,2,0,P|142:157|117:164,1,52.4999983978272
281,231,31877,6,0,L|266:141,1,52.4999983978272
324,103,32218,1,0,0:0:0:0:
251,313,32388,1,0,0:0:0:0:
465,352,32559,6,0,B|415:322|363:338|363:338|345:349|334:371,1,142.49999619484
339,364,33070,1,0,0:0:0:0:
104,318,33241,2,0,B|154:288|206:304|206:304|223:316|235:337,1,142.49999619484
236,332,33752,1,0,0:0:0:0:
430,210,33923,2,0,B|373:196|328:228|328:228|314:245|311:268,1,142.49999619484
314,260,34434,1,0,0:0:0:0:
430,210,34604,6,0,P|442:179|442:139,1,56.25
355,253,35286,6,0,P|296:262|246:295,1,120
246,295,35798,1,0,0:0:0:0:
436,161,35968,2,0,B|446:194|446:194|430:237,1,60
166,121,36309,2,0,P|224:130|274:163,1,120
274,163,36820,1,0,0:0:0:0:
176,275,36991,2,0,B|166:243|166:243|183:203,1,60
372,108,37332,1,0,0:0:0:0:
352,291,37673,1,0,0:0:0:0:
429,266,37843,1,0,0:0:0:0:
412,344,38013,6,0,B|367:359|332:324|285:348,1,120
293,344,38525,1,0,0:0:0:0:
399,207,38695,2,0,L|391:282,1,60
178,309,39036,1,0,0:0:0:0:
180,222,39207,1,0,0:0:0:0:
269,188,39377,1,0,0:0:0:0:
324,266,39548,1,0,0:0:0:0:
399,207,39718,2,0,P|376:177|376:127,1,60
368,105,40059,5,0,0:0:0:0:
330,182,40229,1,0,0:0:0:0:
238,94,40400,1,0,0:0:0:0:
185,243,40570,1,0,0:0:0:0:
114,70,40741,6,0,B|130:101|130:101|122:157,2,67.4999979400635
87,282,41252,1,0,0:0:0:0:
17,212,41423,2,0,L|122:194,1,67.4999979400635
218,319,41763,6,0,B|184:308|184:308|153:317,2,67.4999979400635
160,239,42275,1,0,0:0:0:0:
286,376,42445,2,0,L|303:275,1,67.4999979400635
218,319,42786,1,0,0:0:0:0:
449,198,42957,1,0,0:0:0:0:
386,245,43127,1,0,0:0:0:0:
459,277,43298,1,0,0:0:0:0:
388,146,43468,6,0,B|404:115|404:115|454:89,2,67.4999979400635
386,245,43979,2,0,B|352:234|352:234|318:189,1,67.4999979400635
333,208,44320,1,0,0:0:0:0:
468,307,44491,6,0,B|442:330|442:330|386:338,2,67.4999979400635
298,335,45002,1,0,0:0:0:0:
394,351,45173,1,0,0:0:0:0:
209,364,45343,1,0,0:0:0:0:
282,207,45513,6,0,L|289:277,1,56.25
222,339,46195,6,0,B|211:310|211:310|212:273,2,67.4999979400635
309,353,46707,1,0,0:0:0:0:
130,178,46877,2,0,L|139:259,1,67.4999979400635
354,199,47218,2,0,B|319:190|319:190|281:203,2,67.4999979400635
296,290,47729,1,0,0:0:0:0:
251,122,47900,2,0,L|258:54,1,67.4999979400635
258,54,48241,1,0,0:0:0:0:
178,337,48582,5,0,0:0:0:0:
93,271,48752,1,0,0:0:0:0:
168,191,48923,2,0,B|180:224|180:224|170:272,2,67.4999979400635
80,349,49434,2,0,L|66:251,1,67.4999979400635
70,282,49775,1,0,0:0:0:0:
185,347,49945,2,0,B|217:350|217:350|248:334,2,67.4999979400635
102,140,50457,5,0,0:0:0:0:
27,258,50627,1,0,0:0:0:0:
82,374,50798,1,0,0:0:0:0:
208,270,50968,6,0,L|144:266,1,56.25
208,270,51650,6,0,B|245:265|245:265|306:283,2,75
268,355,52161,1,0,0:0:0:0:
329,167,52332,2,0,P|351:200|364:244,1,75
427,326,52673,6,0,B|390:336|390:336|353:331,2,75
447,142,53184,1,0,0:0:0:0:
466,240,53354,2,0,L|455:158,1,75
447,142,53695,1,0,0:0:0:0:
314,32,53866,1,0,0:0:0:0:
287,108,54036,1,0,0:0:0:0:
321,188,54207,1,0,0:0:0:0:
269,270,54377,6,0,B|303:282|303:282|341:275,2,75
419,244,54888,2,0,P|424:282|409:327,1,75
416,317,55229,1,0,0:0:0:0:
196,264,55400,6,0,B|235:258|235:258|269:270,2,75
207,351,55911,1,0,0:0:0:0:
332,208,56082,1,0,0:0:0:0:
145,176,56252,1,0,0:0:0:0:
219,255,56423,6,0,P|236:230|235:192,1,56.2500021457673
234,168,56763,6,0,P|232:187|238:204,1,37.5
378,317,57104,6,0,P|326:289|269:294,2,112.500004291535
461,248,57616,1,0,0:0:0:0:
175,267,57786,6,0,B|171:296|171:296|187:337,1,56.2500021457673
91,114,58127,6,0,P|145:123|187:159,2,112.500004291535
83,33,58638,1,0,0:0:0:0:
250,221,58809,6,0,B|230:242|230:242|188:256,1,56.2500021457673
168,259,59150,6,0,P|189:251|214:252,1,37.5
372,311,59491,6,0,P|334:295|265:314,1,75
282,86,59832,6,0,P|296:139|281:192,2,112.500004291535
367,48,60343,1,0,0:0:0:0:
220,259,60513,6,0,B|240:276|240:276|269:283,1,56.2500021457673
375,280,60854,6,0,P|321:266|268:282,2,112.500004291535
454,183,61366,1,0,0:0:0:0:
168,264,61536,6,0,B|165:290|165:290|176:317,1,56.2500021457673
206,364,61877,6,0,P|191:333|162:307,1,56.25
89,253,62559,6,0,B|124:255|124:255|152:224,2,75
176,317,63070,1,0,0:0:0:0:
308,310,63241,1,0,0:0:0:0:
176,317,63411,1,0,0:0:0:0:
259,200,63582,5,0,0:0:0:0:
424,244,63752,2,0,P|384:245|343:228,1,75
277,301,64093,6,0,P|257:265|257:230,1,60
162,219,64434,6,0,P|185:186|211:172,1,44.999998626709
351,233,64775,1,0,0:0:0:0:
255,246,64945,1,0,0:0:0:0:
189,184,65116,1,0,0:0:0:0:
293,79,65286,6,0,B|288:108|263:128|263:128|301:184|249:253,1,165.000005035401
152,204,65798,1,0,0:0:0:0:
264,228,65968,1,0,0:0:0:0:
152,204,66138,1,0,0:0:0:0:
83,318,66309,5,0,0:0:0:0:
180,296,66479,2,0,P|109:299|81:321,1,104.999996795654
54,238,66991,6,0,P|81:275|88:304,1,41.2500012588501
162,176,67332,6,0,P|168:232|157:267,1,63.7500012159348
312,170,67673,6,0,P|275:251|233:292,1,86.2500016450882
465,272,68013,6,0,P|392:324|324:331,1,108.750003318787
78,270,68354,1,0,0:0:0:0:
175,237,68525,1,0,0:0:0:0:
279,248,68695,2,0,B|298:263|300:293|300:293|334:235,1,75
358,168,69036,1,0,0:0:0:0:
226,129,69207,1,0,0:0:0:0:
116,218,69377,5,0,0:0:0:0:
280,249,69548,1,0,0:0:0:0:
116,218,69718,1,0,0:0:0:0:
201,327,69888,1,0,0:0:0:0:
382,328,70059,2,0,B|324:312|283:362|198:328,1,150
49,232,70570,1,0,0:0:0:0:
47,233,70655,1,0,0:0:0:0:
47,233,70741,2,0,B|103:212|148:258|230:216,2,150
203,282,71763,5,0,0:0:0:0:
199,292,71934,1,0,0:0:0:0:
194,304,72104,6,0,P|196:315|200:326,1,22.4999993133545
116,238,72445,6,0,P|111:253|110:268,1,30
297,281,72786,6,0,P|287:243|281:233,1,44.999998626709
348,177,73127,6,0,P|322:142|311:134,1,52.4999983978272
102,133,73468,6,0,B|137:172|192:120|240:166,1,134.999995880127
229,157,74150,1,0,0:0:0:0:
79,281,74491,5,0,0:0:0:0:
222,331,74661,2,0,P|182:327|137:341,1,75
79,356,75173,6,0,P|107:358|134:349,1,30
198,250,75513,6,0,P|212:250|226:251,1,26.2499991989136
309,329,75854,6,0,P|323:329|337:327,1,22.4999993133545
443,344,76195,5,0,0:0:0:0:
225,316,76366,1,0,0:0:0:0:
443,344,76536,1,0,0:0:0:0:
225,316,76707,1,0,0:0:0:0:
308,241,76877,5,0,0:0:0:0:
123,269,77048,1,0,0:0:0:0:
249,171,77218,5,0,0:0:0:0:
377,182,77388,2,0,P|310:155|244:165,1,112.500004291535
294,31,77900,6,0,P|290:81|270:97,1,44.999998626709
152,206,78241,2,0,P|181:203|214:221,1,52.4999983978272
265,348,78582,1,0,0:0:0:0:
202,211,78752,1,0,0:0:0:0:
265,348,78923,6,0,P|258:278|287:243,1,120
145,100,79434,1,0,0:0:0:0:
202,211,79604,2,0,P|184:137|161:126,1,60
71,120,79945,5,0,0:0:0:0:
327,133,80116,2,0,P|240:160|177:144,1,134.999995880127
200,127,80627,6,0,P|182:166|188:186,1,37.5
112,199,80968,6,0,P|161:240|192:239,1,56.2500021457673
169,318,81309,6,0,P|221:281|228:251,1,75
224,273,81650,5,0,0:0:0:0:
90,35,81820,6,0,L|77:100,1,37.5
140,211,81990,2,0,L|136:142,1,37.5
183,96,82161,1,0,0:0:0:0:
183,96,82246,1,0,0:0:0:0:
183,96,82331,2,0,L|246:79,1,37.5
309,202,82502,6,0,B|275:214|275:214|237:203,1,75
396,228,82843,2,0,L|391:266,1,37.5
366,102,83013,1,0,0:0:0:0:
366,102,83098,1,0,0:0:0:0:
366,102,83184,2,0,L|359:65,1,37.5
192,135,83354,5,0,0:0:0:0:
255,135,83695,6,0,B|231:147|231:147|202:140,1,56.2500021457673
369,133,84036,6,0,B|317:110|317:110|266:131,1,112.500004291535
22,226,84377,6,0,B|36:211|63:210|63:210|109:282|201:214,1,168.750006437302
176,212,84718,5,0,0:0:0:0:
223,337,84888,1,0,0:0:0:0:
248,153,85059,5,0,0:0:0:0:
146,295,85229,1,0,0:0:0:0:
141,51,85400,5,0,0:0:0:0:
266,250,85570,2,0,B|300:262|327:326|327:326|338:284|400:262,1,168.750006437302
395,265,85911,1,0,0:0:0:0:
167,283,86081,6,0,P|116:243|186:260,1,180
50,331,86422,6,0,P|29:211|182:120,1,247.500007553101
292,37,86763,6,0,B|310:94|265:147|265:147|149:143|96:44,1,314.999990386963
374,162,87104,6,0,B|362:222|397:274|397:274|455:215|435:167,1,168.750006437302
432,77,87445,5,0,0:0:0:0:
262,44,87615,1,0,0:0:0:0:
92,144,87786,5,0,0:0:0:0:
338,102,87956,1,0,0:0:0:0:
486,217,88127,5,0,0:0:0:0:
223,154,88297,2,0,B|192:195|205:250|205:250|266:277,1,127.50000243187
352,203,88638,1,0,0:0:0:0:
242,264,88809,1,0,0:0:0:0:
405,335,88979,6,0,B|435:357|479:340|479:340|504:264|432:209,1,217.500006637573
288,331,89320,1,0,0:0:0:0:
257,144,89490,6,0,P|201:102|256:157,1,253.125009655953
308,58,89831,6,0,B|244:13|167:1|99:71|99:71|77:98|36:104|36:104|30:157,1,320.625003057718
33,133,90172,1,0,0:0:0:0:
98,269,90343,6,0,B|96:301|51:319|51:319|5:248|35:192,1,191.249997446537
60,35,90684,1,0,0:0:0:0:
98,269,90854,6,0,B|140:287|179:261|179:261|219:236|283:270,1,168.750006437302
260,259,91195,6,0,B|277:295|267:349|267:349|334:355|386:264,1,213.749994292259
371,278,91536,1,0,0:0:0:0:
168,177,91706,6,0,P|148:141|188:178,1,150
117,260,92047,6,0,P|58:157|102:29,1,202.500000772476
77,66,92388,1,0,0:0:0:0:
224,312,92559,1,0,0:0:0:0:
350,199,92729,1,0,0:0:0:0:
39,292,92900,6,0,B|61:294|84:325|84:325|147:257|241:314,1,191.250003647804
224,312,93240,6,0,B|223:342|268:370|268:370|328:315|299:231,1,202.500000772476
133,257,93581,5,0,0:0:0:0:
426,207,93752,2,0,B|363:183|330:212|330:212|297:242|231:221,1,150
39,273,94093,6,0,B|107:317|183:267|183:267|262:311,1,194.999991073609
90,61,94434,6,0,P|37:150|130:198,1,232.500001773834
145,182,94775,1,0,0:0:0:0:
248,69,94945,1,0,0:0:0:0:
285,220,95115,1,0,0:0:0:0:
145,182,95286,6,0,B|242:116|315:182|315:182|357:217|409:176,1,269.999991760254
407,176,95627,6,0,B|381:143|440:94|440:94|527:160|449:276,1,292.499986610413
440,281,95968,6,0,B|323:246|266:334|266:334|215:274|251:180,1,314.999990386963
292,26,96309,6,0,P|277:140|268:23,1,337.500012874604
431,123,96650,6,0,P|311:226|146:183,1,337.500012874604
151,202,96990,6,0,B|165:254|133:312|133:312|22:248|51:115,1,337.500012874604
62,108,97331,6,0,P|124:60|29:75,1,225
212,219,97672,6,0,P|133:145|255:143,1,281.25
275,340,98013,6,0,P|360:236|236:297,1,337.500012874604
275,340,98354,5,0,0:0:0:0:
248,127,98525,1,0,0:0:0:0:
160,251,98695,2,0,B|207:279|252:256|252:256|306:232|385:269,1,187.5
358,258,99036,5,0,0:0:0:0:
160,251,99206,2,0,B|119:227|79:249|79:249|92:321|182:333,1,202.500000772476
220,191,99547,6,0,B|134:130|40:178|40:178|2:152,1,232.500001773834
112,257,99888,1,0,0:0:0:0:
138,42,100059,1,0,0:0:0:0:
239,220,100229,6,0,P|323:253|404:182,1,172.500003290176
387,135,100570,6,0,P|360:228|385:288,1,150
389,293,100911,5,0,0:0:0:0:
246,167,101081,2,0,P|149:154|248:199,1,292.499986610413
231,58,101422,6,0,P|132:63|80:259,1,326.25000995636
93,269,101763,6,0,B|158:220|209:273|209:273|262:324|352:270,1,247.500007553101,0|0,0:0|0:0,2:0:0:0:
339,268,102104,6,0,B|319:320|371:366|371:366|468:300|432:198,1,281.25
238,243,102445,5,0,0:0:0:0:
498,130,102615,2,0,P|427:162|447:229,1,150
491,296,102956,2,0,B|423:325|380:287|380:287|345:279|316:314,1,150
276,339,103297,2,0,P|262:268|308:212,1,150
348,288,103638,1,0,0:0:0:0:
95,255,103809,6,0,B|124:241|158:253|158:253|197:266|227:256,1,134.999995880127
230,268,104064,1,0,0:0:0:0:
233,277,104150,6,0,B|217:213|274:169|274:169|318:196|305:231,1,180
307,212,104490,5,0,0:0:0:0:
351,10,104661,1,0,0:0:0:0:
351,10,105002,1,0,0:0:0:0:
305,340,105513,5,0,0:0:0:0:
240,249,105684,1,0,0:0:0:0:
435,175,106025,6,0,L|427:227,1,44.999998626709
425,236,106195,6,0,P|368:188|289:189,1,150
285,192,106706,5,0,0:0:0:0:
256,192,106792,12,0,108752,0:0:0:0:
38,123,109263,6,0,L|30:159,1,37.5
98,311,109434,1,0,0:0:0:0:
96,294,109519,1,0,0:0:0:0:
93,278,109604,2,0,L|85:216,1,37.5
61,63,109775,2,0,L|69:113,1,37.5
77,114,109945,1,0,0:0:0:0:
95,122,110030,1,0,0:0:0:0:
115,126,110115,1,0,0:0:0:0:
136,125,110200,1,0,0:0:0:0:
155,118,110286,6,0,B|206:101|243:135|243:135|225:197,1,134.999995880127
185,21,110627,1,0,0:0:0:0:
159,287,110797,1,0,0:0:0:0:
161,280,110882,1,0,0:0:0:0:
162,274,110968,1,0,0:0:0:0:
141,191,111138,6,0,P|119:200|104:216,1,44.999998626709
243,272,111309,6,0,P|218:208|157:188,1,134.999995880127
217,354,111650,1,0,0:0:0:0:
251,97,111820,1,0,0:0:0:0:
253,104,111905,1,0,0:0:0:0:
254,110,111991,1,0,0:0:0:0:
65,249,112161,5,0,0:0:0:0:
77,263,112246,1,0,0:0:0:0:
93,272,112331,1,0,0:0:0:0:
111,275,112416,1,0,0:0:0:0:
132,272,112502,2,0,L|145:217,1,37.5
148,362,112672,6,0,P|216:332|236:257,1,134.999995880127
127,223,113013,6,0,P|146:239|204:242,1,44.999998626709
106,146,113184,6,0,P|111:202|161:241,1,67.4999979400635
236,84,113354,6,0,P|157:86|105:148,1,150
