osu file format v14

[General]
AudioFilename: audio.mp3
AudioLeadIn: 0
PreviewTime: 59427
Countdown: 1
SampleSet: Soft
StackLeniency: 0.7
Mode: 0
LetterboxInBreaks: 0
WidescreenStoryboard: 1

[Editor]
Bookmarks: 83311
DistanceSpacing: 1
BeatDivisor: 6
GridSize: 4
TimelineZoom: 1.3

[Metadata]
Title:Koyoi mofumofu!!
TitleUnicode:今宵mofumofu!!
Artist:Senko-san (CV: Azumi Waki) & Shiro-sama (CV: Maaya Uchida)
ArtistUnicode:仙狐さん(CV: 和氣 あず未)と白さま(CV: 内田 真礼)
Creator:AlexLovesYou
Version:Hard~
Source:世話やきキツネの仙狐さん
Tags:op opening anime senko san sewayaki kitsune helpful fox tv size bubbleman is better than karthy swing kawaii cute legal loli FBI avoided we did it boys
BeatmapID:2059438
BeatmapSetID:981485

[Difficulty]
HPDrainRate:4
CircleSize:3.5
OverallDifficulty:5
ApproachRate:7.5
SliderMultiplier:1.3
SliderTickRate:1

[Events]
//Background and Video events
0,0,"sewayaki-kitsune-no-senko-san-animal-ears-lying-down-wink-cute-fag-senko-san-32497.jpeg",0,0
//Break Periods
//Storyboard Layer 0 (Background)
//Storyboard Layer 1 (Fail)
//Storyboard Layer 2 (Pass)
//Storyboard Layer 3 (Foreground)
//Storyboard Sound Samples

[TimingPoints]
147,582.52427184466,4,1,0,100,1,0
1312,-80,4,2,1,65,0,0
1603,-80,4,2,1,5,0,0
1894,-80,4,2,1,65,0,0
2185,-80,4,2,1,5,0,0
2477,-80,4,2,1,65,0,0
7137,-66.6666666666667,4,2,1,65,0,0
7719,-66.6666666666667,4,2,1,65,0,0
8302,-66.6666666666667,4,2,1,65,0,0
8884,-66.6666666666667,4,2,1,65,0,0
9467,-66.6666666666667,4,2,1,65,0,0
10632,-66.6666666666667,4,2,1,85,0,0
11759,291.26213592233,4,1,0,100,1,0
11759,-100,4,2,1,100,0,0
21084,582.52427184466,4,1,0,100,1,0
21084,-100,4,2,1,100,0,0
23414,-100,4,2,1,100,0,0
25744,-100,4,2,1,100,0,0
25889,-100,4,2,1,50,0,0
26035,-100,4,2,1,100,0,0
26472,-100,4,2,1,50,0,0
26617,-100,4,2,1,100,0,0
28074,-100,4,2,1,100,0,0
29234,291.26213592233,4,1,0,100,1,0
29234,-100,4,2,1,100,0,0
29525,-100,4,2,1,100,0,0
29816,-100,4,2,1,100,0,0
30107,-100,4,2,1,100,0,0
30400,582.52427184466,4,1,0,100,1,0
30400,-100,4,2,1,100,0,0
35205,-100,4,2,1,50,0,0
35351,-100,4,2,1,100,0,0
35788,-100,4,2,1,50,0,0
35933,-100,4,2,1,100,0,0
38555,-100,4,2,1,100,0,0
39137,-100,4,2,1,100,0,0
39429,-100,4,2,1,100,0,0
39719,291.26213592233,4,1,0,100,1,0
39719,-100,4,2,1,100,0,0
40107,-100,4,2,1,50,0,0
40204,-100,4,2,1,100,0,0
40689,-100,4,2,1,50,0,0
40786,-100,4,2,1,100,0,0
42728,-100,4,2,1,50,0,0
42825,-100,4,2,1,100,0,0
45544,-100,4,2,1,100,0,0
45835,-100,4,2,1,100,0,0
57631,-100,4,2,1,100,0,0
58553,-100,4,2,1,100,0,0
59524,-133.333333333333,4,2,1,100,0,0
60107,-100,4,2,1,100,0,0
60689,-100,4,2,1,100,0,1
61078,-100,4,2,1,50,0,1
61175,-100,4,2,1,100,0,1
62534,-100,4,2,1,50,0,1
62631,-100,4,2,1,100,0,1
62825,-100,4,2,1,50,0,1
62922,-100,4,2,1,100,0,1
63796,-100,4,2,1,50,0,1
63893,-100,4,2,1,100,0,1
64087,-100,4,2,1,50,0,1
64185,-100,4,2,1,100,0,1
65058,-100,4,2,1,100,0,1
65350,-100,4,2,1,100,0,1
65544,-100,4,2,1,100,0,1
65835,-100,4,2,1,100,0,1
66223,-100,4,2,1,100,0,1
66515,-100,4,2,1,100,0,1
66709,-100,4,2,1,100,0,1
67000,-100,4,2,1,100,0,1
67388,-100,4,2,1,100,0,1
67680,-100,4,2,1,100,0,1
68456,-100,4,2,1,100,0,1
68748,-100,4,2,1,100,0,1
69718,-100,4,2,1,100,0,1
70010,-100,4,2,1,100,0,1
74379,-100,4,2,1,100,0,1
74670,-100,4,2,1,100,0,1
74864,-100,4,2,1,100,0,1
75155,-100,4,2,1,100,0,1
75544,-100,4,2,1,100,0,1
75835,-100,4,2,1,100,0,1
76029,-100,4,2,1,100,0,1
76320,-100,4,2,1,100,0,1
79039,-100,4,2,1,100,0,1
79330,-100,4,2,1,100,0,1
82243,-100,4,2,1,100,0,0
83699,-100,4,2,1,100,0,0

[Colours]
Combo1 : 250,239,27
Combo2 : 255,13,13
Combo3 : 250,128,5
Combo4 : 255,140,198

[HitObjects]
92,286,1312,6,0,P|167:299|206:286,1,108.333333333333,0|0,0:0|0:0,0:0:0:0:
228,246,1894,2,0,P|249:170|234:124,1,108.333333333333,0|0,0:0|0:0,0:0:0:0:
286,110,2477,6,0,P|329:129|372:121,1,81.25,4|0,0:1|0:0,0:0:0:0:
409,59,3059,2,0,P|442:98|443:151,1,81.25,0|0,0:0|0:0,0:0:0:0:
422,204,3642,1,0,0:0:0:0:
340,207,3933,2,0,L|348:268,1,40.625,0|0,0:0|0:0,0:0:0:0:
157,326,4807,6,0,L|146:267,1,54.1666666666667,4|0,0:1|0:0,0:0:0:0:
148,245,5098,1,0,0:0:0:0:
156,191,5292,1,0,0:0:0:0:
164,165,5389,2,0,L|225:130,1,54.1666666666667
237,141,5680,1,0,0:0:0:0:
331,198,5972,2,0,L|420:196,1,81.25,0|0,0:0|0:0,0:0:0:0:
442,120,6554,2,0,L|353:122,1,81.25,0|0,0:0|0:0,0:0:0:0:
299,45,7137,6,0,P|257:80|251:131,1,97.50000371933,4|0,0:1|0:0,0:0:0:0:
161,76,7719,2,0,P|145:128|169:174,1,97.50000371933,0|0,0:0|0:0,0:0:0:0:
246,215,8302,2,0,P|281:271|268:330,1,97.50000371933,4|0,0:1|0:0,0:0:0:0:
375,280,8884,2,0,P|372:345|328:387,1,97.50000371933,0|0,0:0|0:0,0:0:0:0:
258,375,9467,6,0,P|210:346|154:344,1,97.50000371933,4|0,0:0|0:0,0:0:0:0:
122,353,9952,1,0,0:0:0:0:
143,309,10049,2,0,P|166:258|167:206,1,97.50000371933,2|0,3:2|0:0,0:0:0:0:
166,119,10632,5,0,0:0:0:0:
220,154,10826,2,0,P|250:169|305:176,1,65.0000024795533
311,165,11117,2,0,P|358:168|388:183,1,65.0000024795533
389,203,11409,1,0,0:0:0:0:
314,284,11759,6,0,L|225:338,1,86.6666666666667,8|0,0:0|0:0,0:0:0:0:
201,348,12050,1,0,0:0:0:0:
149,278,12244,2,0,L|123:237,1,43.3333333333333
190,183,12535,2,0,L|164:142,1,43.3333333333333,0|0,0:0|0:0,0:0:0:0:
127,69,12826,1,0,0:0:0:0:
105,31,12924,6,0,L|23:107,1,86.6666666666667,4|0,0:1|0:0,0:0:0:0:
35,132,13215,2,0,L|98:190,1,86.6666666666667,0|0,0:0|0:0,0:0:0:0:
35,352,13797,1,0,0:0:0:0:
153,296,14089,6,0,P|213:282|259:285,1,86.6666666666667,8|0,0:0|0:0,0:0:0:0:
274,304,14380,2,0,P|317:302|358:290,1,86.6666666666667,0|0,0:0|0:0,0:0:0:0:
393,264,14671,1,0,0:0:0:0:
337,197,14865,2,0,L|300:152,1,43.3333333333333,0|0,0:0|0:0,0:0:0:0:
389,129,15157,1,0,0:0:0:0:
389,129,15254,6,0,P|355:86|300:76,1,86.6666666666667,4|0,0:1|0:0,0:0:0:0:
283,82,15545,2,0,P|244:64|220:28,1,86.6666666666667,0|0,0:0|0:0,0:0:0:0:
62,100,16127,1,0,0:0:0:0:
175,163,16419,6,0,P|216:208|225:258,1,86.6666666666667,8|0,0:0|0:0,0:0:0:0:
220,274,16710,2,0,P|236:313|268:342,1,86.6666666666667,0|0,0:0|0:0,0:0:0:0:
310,354,17001,1,0,0:0:0:0:
391,325,17195,1,0,0:0:0:0:
391,281,17292,1,0,0:0:0:0:
330,218,17487,1,0,0:0:0:0:
330,218,17584,6,0,P|308:159|325:108,1,86.6666666666667,4|0,0:1|0:0,0:0:0:0:
332,99,17875,1,0,0:0:0:0:
255,58,18069,2,0,B|192:109|254:123|167:181,1,130,0|0,0:0|0:0,0:0:0:0:
149,184,18458,1,0,0:0:0:0:
49,100,18749,6,0,P|37:132|41:162,1,43.3333333333333,8|0,0:0|0:0,0:0:0:0:
49,176,18943,2,0,P|54:261|36:300,1,130
5,329,19331,1,0,0:0:0:0:
86,359,19525,2,0,L|135:377,1,43.3333333333333,0|0,0:0|0:0,0:0:0:0:
172,300,19817,1,0,0:0:0:0:
213,287,19914,6,0,L|299:264,1,86.6666666666667,4|0,0:1|0:0,0:0:0:0:
308,187,20205,2,0,L|394:210,1,86.6666666666667,0|0,0:0|0:0,0:0:0:0:
307,57,20788,1,4,0:0:0:0:
269,111,21084,6,0,P|223:142|126:132,1,130,4|0,0:1|0:0,0:0:0:0:
48,61,22249,2,0,P|21:135|54:210,1,130,0|0,0:0|0:0,0:0:0:0:
153,233,23414,2,0,P|191:286|195:361,1,130,0|0,0:0|0:0,0:0:0:0:
46,247,24579,2,0,P|103:151|199:138,1,195,4|0,0:1|0:0,0:0:0:0:
229,163,25744,6,0,P|273:185|301:182,1,65
339,188,26326,2,0,P|381:190|408:203,1,65,0|0,0:0|0:0,0:0:0:0:
429,233,26909,2,0,P|415:293|433:361,1,130,0|0,0:0|0:0,0:0:0:0:
332,255,28074,2,0,B|262:234|297:284|194:251,1,130,4|0,0:1|0:0,0:0:0:0:
126,225,28948,1,0,0:0:0:0:
169,146,29234,5,2,0:0:0:0:
249,103,29525,1,2,0:0:0:0:
352,90,29816,1,2,0:0:0:0:
454,108,30107,1,2,0:0:0:0:
389,181,30400,6,0,B|325:235|392:228|308:295,1,130,4|0,0:1|0:0,0:0:0:0:
261,169,31565,2,0,P|206:202|179:272,1,130,0|0,0:0|0:0,0:0:0:0:
110,370,32730,2,0,L|99:233,1,130,0|0,0:0|0:0,0:0:0:0:
6,330,33895,2,0,L|17:193,1,130,4|0,0:1|0:0,0:0:0:0:
117,117,35060,6,0,P|201:96|255:106,1,130,0|0,0:0|0:0,0:0:0:0:
195,223,36225,2,0,P|259:227|320:208,1,130,0|0,0:0|0:0,0:0:0:0:
384,94,37390,2,0,P|442:154|447:216,1,130,4|0,0:1|0:0,0:0:0:0:
370,300,38555,2,0,L|356:217,1,65,4|0,0:1|0:0,0:0:0:0:
299,210,39137,2,0,L|323:164,1,43.3333333333333,2|0,0:0|0:0,0:0:0:0:
293,151,39429,2,0,L|334:111,1,43.3333333333333,2|0,0:0|0:0,0:0:0:0:
358,78,39719,6,0,P|281:55|219:65,1,130,6|0,0:0|0:0,0:0:0:0:
173,123,40204,1,0,0:0:0:0:
185,164,40301,2,0,P|204:235|190:297,1,130,0|0,0:0|0:0,0:0:0:0:
121,241,40786,1,0,0:0:0:0:
121,241,40884,2,0,P|74:322|23:351,1,130,4|0,0:1|0:0,0:0:0:0:
27,256,41369,2,0,P|45:170|123:131,1,173.333333333333,0|0,0:0|0:0,0:0:0:0:
226,199,42049,6,0,L|321:208,1,86.6666666666667,4|0,0:0|0:0,0:0:0:0:
351,189,42340,2,0,L|437:180,1,86.6666666666667,0|0,0:0|0:0,0:0:0:0:
480,175,42631,1,0,0:0:0:0:
394,272,42922,1,0,0:0:0:0:
481,272,43117,1,0,0:0:0:0:
481,272,43214,6,0,P|457:328|419:355,1,86.6666666666667,4|0,0:1|0:0,0:0:0:0:
396,355,43505,2,0,L|297:335,1,86.6666666666667,0|0,0:0|0:0,0:0:0:0:
287,301,43796,2,0,L|188:281,1,86.6666666666667,0|0,0:0|0:0,0:0:0:0:
182,245,44087,2,0,L|83:225,1,86.6666666666667,0|0,0:0|0:0,0:0:0:0:
75,189,44379,5,2,0:0:0:0:
191,131,44670,1,2,0:0:0:0:
284,221,44961,1,2,0:0:0:0:
400,163,45252,1,2,0:0:0:0:
305,120,45544,6,0,P|363:73|435:74,1,130,4|0,0:1|0:0,0:0:0:0:
496,171,46126,1,0,0:0:0:0:
397,256,46418,1,0,0:0:0:0:
480,355,46709,2,0,L|490:300,3,43.3333333333333,4|0|0|0,0:0|0:0|0:0|0:0,0:0:0:0:
386,242,47291,2,0,L|376:187,3,43.3333333333333,4|0|0|0,0:0|0:0|0:0|0:0,0:0:0:0:
294,299,47874,6,0,P|308:254|303:203,1,86.6666666666667,4|0,0:0|0:0,0:0:0:0:
293,173,48165,1,2,0:0:0:0:
229,240,48359,2,0,P|208:302|266:383,1,173.333333333333,4|0,0:0|0:0,0:0:0:0:
104,335,49039,6,0,P|125:266|119:205,1,130,4|0,0:0|0:0,0:0:0:0:
33,64,49621,1,0,0:0:0:0:
42,233,49913,1,0,0:0:0:0:
98,135,50107,1,0,0:0:0:0:
98,135,50204,6,0,P|146:102|191:94,1,86.6666666666667,4|0,0:1|0:0,0:0:0:0:
229,98,50495,1,0,0:0:0:0:
183,200,50689,2,0,P|276:189|356:221,1,173.333333333333
411,330,51369,6,0,P|465:256|466:194,1,130,4|0,0:0|0:0,0:0:0:0:
434,130,51854,1,0,0:0:0:0:
434,130,51952,2,0,P|395:104|344:93,1,86.6666666666667,0|0,0:0|0:0,0:0:0:0:
301,102,52243,1,0,0:0:0:0:
197,58,52437,1,0,0:0:0:0:
177,110,52534,6,0,P|168:180|205:242,1,130,4|0,0:1|0:0,0:0:0:0:
298,310,53019,2,0,P|307:240|238:161,1,173.333333333333,0|0,0:0|0:0,0:0:0:0:
94,325,53699,6,0,L|238:351,1,130,8|0,0:0|0:0,0:0:0:0:
329,383,54185,2,0,L|456:359,1,130,6|0,0:0|0:0,0:0:0:0:
510,344,54573,1,0,0:0:0:0:
474,178,54864,2,0,P|448:251|392:300,1,130,8|0,0:0|0:0,0:0:0:0:
368,183,55350,2,0,P|394:110|450:61,1,130,6|0,0:0|0:0,0:0:0:0:
482,52,55738,1,0,0:0:0:0:
319,6,56029,5,2,0:0:0:0:
216,140,56320,1,2,0:0:0:0:
64,64,56612,1,2,0:0:0:0:
138,215,56903,1,2,0:0:0:0:
28,343,57194,6,0,L|124:316,1,86.6666666666667,4|0,0:0|0:0,0:0:0:0:
165,304,57485,1,0,0:0:0:0:
269,347,57680,2,0,B|366:326|366:326|294:219|389:132,1,303.333333333333,4|0,0:0|0:0,0:0:0:0:
437,237,58553,6,0,L|475:104,1,130,2|0,0:0|0:0,0:0:0:0:
439,65,58942,1,2,0:0:0:0:
341,202,59233,1,2,0:0:0:0:
285,87,59524,2,0,P|238:171|248:280,1,195.00000743866,4|2,3:1|0:0,0:0:0:0:
77,38,60689,6,0,P|99:105|83:177,1,130,4|0,0:0|0:0,0:0:0:0:
13,313,61272,1,0,0:0:0:0:
153,220,61563,1,0,0:0:0:0:
289,318,61854,2,0,P|357:332|432:317,1,130,4|0,0:1|0:0,0:0:0:0:
351,166,62437,2,0,L|288:256,1,86.6666666666667,0|0,0:0|0:0,0:0:0:0:
245,231,62728,2,0,L|182:321,1,86.6666666666667,0|0,0:0|0:0,0:0:0:0:
152,265,63019,6,0,P|133:200|150:125,1,130,6|0,0:0|0:0,0:0:0:0:
250,65,63602,1,0,0:0:0:0:
121,48,63893,1,0,0:0:0:0:
208,144,64185,6,0,P|307:189|454:143,1,260,4|0,0:1|0:0,0:0:0:0:
382,261,65058,1,0,0:0:0:0:
453,309,65252,1,0,0:0:0:0:
453,309,65350,2,0,P|397:344|328:329,1,130,2|0,0:0|0:0,0:0:0:0:
250,374,65835,2,0,P|240:314|312:229,1,173.333333333333,4|0,0:0|0:0,0:0:0:0:
256,159,66418,1,0,0:0:0:0:
256,159,66515,6,0,P|200:188|152:188,1,86.6666666666667,2|0,0:0|0:0,0:0:0:0:
135,180,66806,1,0,0:0:0:0:
80,247,67000,2,0,P|46:162|94:103,1,173.333333333333,4|0,0:0|0:0,0:0:0:0:
207,44,67680,6,0,L|293:86,1,86.6666666666667,2|0,0:0|0:0,0:0:0:0:
324,65,67971,2,0,L|410:107,1,86.6666666666667,2|0,0:0|0:0,0:0:0:0:
444,94,68262,1,0,0:0:0:0:
419,176,68456,1,0,0:0:0:0:
450,292,68748,6,0,P|382:333|297:322,1,130,0|0,0:0|0:0,0:0:0:0:
297,310,69136,1,0,0:0:0:0:
219,205,69427,2,0,L|188:151,2,43.3333333333333,10|2|2,0:0|0:0|0:0,0:0:0:0:
183,180,69718,2,0,L|157:144,2,43.3333333333333,2|2|2,0:0|0:0|0:0,0:0:0:0:
145,202,70010,6,0,B|74:237|74:237|112:298|198:306,1,216.666666666667,6|0,0:0|0:0,0:0:0:0:
230,295,70592,1,0,0:0:0:0:
343,359,70884,2,0,P|322:290|328:258,1,86.6666666666667,0|0,0:0|0:0,0:0:0:0:
339,236,71175,1,4,0:1:0:0:
460,281,71466,2,0,P|458:237|440:198,1,86.6666666666667,0|0,0:0|0:0,0:0:0:0:
409,168,71757,1,0,0:0:0:0:
485,62,72049,1,0,0:0:0:0:
360,98,72340,6,0,P|286:86|220:47,1,130,4|0,0:0|0:0,0:0:0:0:
113,51,72922,1,0,0:0:0:0:
139,158,73214,1,0,0:0:0:0:
37,100,73505,2,0,P|58:222|180:274,1,260,4|0,0:1|0:0,0:0:0:0:
238,217,74282,1,0,0:0:0:0:
353,279,74573,1,0,0:0:0:0:
349,235,74670,6,0,L|340:140,1,86.6666666666667,2|0,0:0|0:0,0:0:0:0:
430,243,75155,2,0,L|448:99,1,130,4|0,0:0|0:0,0:0:0:0:
451,70,75544,1,0,0:0:0:0:
335,128,75835,6,0,P|283:141|223:121,1,86.6666666666667,2|0,0:0|0:0,0:0:0:0:
218,108,76126,1,0,0:0:0:0:
261,33,76320,2,0,P|194:22|132:73,1,130,4|0,0:0|0:0,0:0:0:0:
126,93,76709,1,0,0:0:0:0:
33,184,77000,6,0,L|137:175,1,86.6666666666667,2|0,0:0|0:0,0:0:0:0:
142,213,77291,2,0,L|246:204,1,86.6666666666667,2|0,0:0|0:0,0:0:0:0:
267,224,77583,1,0,0:0:0:0:
216,294,77777,1,0,0:0:0:0:
343,316,78068,6,0,P|343:252|365:184,1,130,4|0,0:1|0:0,0:0:0:0:
390,156,78456,1,0,0:0:0:0:
464,280,78748,2,0,L|476:224,2,43.3333333333333,0|0|0,0:0|0:0|0:0,0:0:0:0:
477,201,79039,2,0,L|473:139,2,43.3333333333333,8|2|2,0:0|0:0|0:0,0:0:0:0:
468,113,79330,6,0,P|425:73|373:67,1,86.6666666666667,4|0,0:0|0:0,0:0:0:0:
356,75,79621,2,0,P|315:60|287:28,1,86.6666666666667,0|0,0:0|0:0,0:0:0:0:
255,58,79913,2,0,P|247:115|259:165,1,86.6666666666667,0|0,0:0|0:0,0:0:0:0:
294,149,80204,2,0,L|262:265,1,86.6666666666667,4|0,0:1|0:0,0:0:0:0:
314,228,80495,2,0,P|368:213|416:227,1,86.6666666666667,0|0,0:0|0:0,0:0:0:0:
433,241,80786,5,0,0:0:0:0:
365,296,80981,1,0,0:0:0:0:
365,296,81078,2,0,P|308:313|261:295,1,86.6666666666667,4|0,0:1|0:0,0:0:0:0:
242,292,81369,2,0,P|199:287|159:303,1,86.6666666666667,0|0,0:0|0:0,0:0:0:0:
160,260,81660,2,0,L|183:176,1,86.6666666666667,2|0,0:0|0:0,0:0:0:0:
193,133,81952,1,2,0:0:0:0:
146,59,82146,1,0,0:0:0:0:
146,59,82243,1,4,0:0:0:0:
256,192,82340,12,0,83408,0:0:0:0:
157,277,83699,5,4,0:1:0:0:
279,232,83990,2,0,P|291:170|267:115,1,86.6666666666667,2|0,0:0|0:0,0:0:0:0:
263,110,84282,1,2,0:0:0:0:
376,173,84573,2,0,P|364:235|388:290,1,86.6666666666667,2|0,0:0|0:0,0:0:0:0:
392,295,84865,1,4,0:0:0:0:
78,63,85738,1,0,0:0:0:0:
182,139,86029,6,0,P|97:200|58:202,1,130,4|0,0:0|0:0,0:0:0:0:
38,281,86515,1,2,0:0:0:0:
38,281,86612,1,4,0:0:0:0:
