osu file format v14

[General]
AudioFilename: audio.mp3
AudioLeadIn: 0
PreviewTime: 60071
Countdown: 0
SampleSet: Soft
StackLeniency: 0.4
Mode: 0
LetterboxInBreaks: 0
WidescreenStoryboard: 1

[Editor]
Bookmarks: 21624,61236
DistanceSpacing: 1
BeatDivisor: 3
GridSize: 32
TimelineZoom: 1.7

[Metadata]
Title:Koyoi mofumofu!! (TV Size)
TitleUnicode:今宵mofumofu!! (TV Size)
Artist:Senko (CV: Waki Azumi), Shiro (CV: Uchida Maaya)
ArtistUnicode:仙狐 (CV: 和氣あず未), シロ (CV: 内田真礼)
Creator:iljaaz
Version:Shizuku's Hard
Source:世話やきキツネの仙狐さん
Tags:Kowari Shizuku- anime japanese Meddlesome Kitsune Senko-san
BeatmapID:1991303
BeatmapSetID:953714

[Difficulty]
HPDrainRate:4
CircleSize:3.5
OverallDifficulty:7
ApproachRate:8.3
SliderMultiplier:1.44
SliderTickRate:1

[Events]
//Background and Video events
0,0,"awuuuuuuuuuuuuu.jpg",0,0
Video,85,"video.mp4"
//Break Periods
//Storyboard Layer 0 (Background)
//Storyboard Layer 1 (Fail)
//Storyboard Layer 2 (Pass)
//Storyboard Layer 3 (Foreground)
//Storyboard Sound Samples

[TimingPoints]
645,291.26213592233,4,2,0,43,1,0
1810,-133.333333333333,4,2,1,43,0,0
2683,-133.333333333333,4,2,2,43,0,0
2975,-133.333333333333,4,2,1,43,0,0
3751,-133.333333333333,4,2,2,43,0,0
3848,-133.333333333333,4,2,1,43,0,0
4722,-133.333333333333,4,2,2,43,0,0
5305,-133.333333333333,4,2,1,43,0,0
7052,-133.333333333333,4,2,2,43,0,0
7635,-100,4,2,1,43,0,0
9382,-100,4,2,2,43,0,0
9673,-100,4,2,1,43,0,0
10839,-100,4,2,2,43,0,0
11324,-100,4,2,3,43,0,0
12295,-100,4,2,4,43,0,0
12489,-100,4,2,1,43,0,0
12878,-100,4,2,4,43,0,0
13072,-100,4,2,1,43,0,0
13169,-100,4,2,4,43,0,0
13460,-100,4,2,1,43,0,0
14043,-100,4,2,5,43,0,0
14237,-100,4,2,2,43,0,0
14334,-100,4,2,1,43,0,0
14916,-100,4,2,6,43,0,0
15208,-100,4,2,4,43,0,0
15402,-100,4,2,1,43,0,0
15790,-100,4,2,6,43,0,0
16081,-100,4,2,1,43,0,0
16373,-100,4,2,5,43,0,0
16664,-100,4,2,1,43,0,0
16858,-100,4,2,2,43,0,0
16955,-100,4,2,1,43,0,0
17441,-100,4,2,2,43,0,0
17538,-100,4,2,4,43,0,0
17732,-100,4,2,1,43,0,0
17829,-100,4,2,6,43,0,0
18023,-100,4,2,1,43,0,0
18703,-100,4,2,5,43,0,0
18897,-100,4,2,2,43,0,0
18994,-100,4,2,1,43,0,0
19479,-100,4,2,2,43,0,0
19576,-100,4,2,1,43,0,0
19868,-100,4,2,4,43,0,0
20062,-100,4,2,1,43,0,0
20450,-100,4,2,4,43,0,0
21033,-100,4,2,2,43,0,0
21324,-83.3333333333333,4,2,1,43,0,0
21421,-83.3333333333333,4,2,2,43,0,0
21518,-83.3333333333333,4,2,5,43,0,0
21615,-125,4,2,4,43,0,0
22780,-125,4,2,2,43,0,0
23071,-125,4,2,1,43,0,0
23363,-125,4,2,2,43,0,0
23654,-125,4,2,1,43,0,0
23945,-125,4,2,3,43,0,0
24236,-125,4,2,1,43,0,0
24528,-125,4,2,2,43,0,0
24819,-125,4,2,1,43,0,0
26276,-125,4,2,3,43,0,0
26567,-125,4,2,1,43,0,0
26761,-125,4,2,2,43,0,0
27149,-125,4,2,1,43,0,0
27441,-125,4,2,2,43,0,0
27732,-125,4,2,1,43,0,0
28023,-125,4,2,2,43,0,0
28314,-125,4,2,1,43,0,0
28606,-125,4,2,3,43,0,0
28897,-125,4,2,1,43,0,0
29188,-125,4,2,2,43,0,0
29479,-125,4,2,1,43,0,0
30062,-100,4,2,1,43,0,0
30353,-83.3333333333333,4,2,1,43,0,0
30644,-71.4285714285714,4,2,2,43,0,0
30936,-125,4,2,1,43,0,0
31227,-125,4,2,4,43,0,0
32004,-125,4,2,1,43,0,0
32392,-125,4,2,5,43,0,0
32683,-125,4,2,6,43,0,0
33266,-125,4,2,1,43,0,0
33557,-125,4,2,4,43,0,0
34431,-125,4,2,2,43,0,0
35013,-125,4,2,5,43,0,0
35305,-125,4,2,4,43,0,0
35596,-125,4,2,1,43,0,0
35887,-125,4,2,4,43,0,0
36469,-125,4,2,7,43,0,0
36761,-125,4,2,1,43,0,0
37344,-125,4,2,5,43,0,0
37635,-125,4,2,4,43,0,0
37926,-125,4,2,1,43,0,0
38217,-125,4,2,4,43,0,0
39091,-125,4,2,2,43,0,0
39285,-125,4,2,5,43,0,0
39674,-125,4,2,4,43,0,0
39965,-90.9090909090909,4,2,6,43,0,0
40256,-100,4,2,1,43,0,0
40547,-100,4,2,4,43,0,0
41033,-100,4,2,1,43,0,0
41130,-100,4,2,4,43,0,0
41421,-100,4,2,5,43,0,0
41615,-100,4,2,1,43,0,0
41712,-100,4,2,4,43,0,0
41907,-100,4,2,1,43,0,0
42004,-100,4,2,2,43,0,0
42295,-100,4,2,3,43,0,0
42586,-100,4,2,1,43,0,0
42878,-100,4,2,5,43,0,0
43072,-100,4,2,1,43,0,0
43363,-100,4,2,2,43,0,0
43460,-100,4,2,4,43,0,0
43751,-125,4,2,1,43,0,0
44043,-76.9230769230769,4,2,4,43,0,0
44334,-76.9230769230769,4,2,2,43,0,0
44528,-76.9230769230769,4,2,1,43,0,0
44625,-100,4,2,4,43,0,0
44819,-100,4,2,1,43,0,0
44916,-100,4,2,3,43,0,0
45207,-100,4,2,4,43,0,0
45984,-100,4,2,1,43,0,0
46081,-100,4,2,3,43,0,0
46372,-100,4,2,4,43,0,0
46955,-100,4,2,8,43,0,0
47246,-100,4,2,5,43,0,0
47538,-100,4,2,1,43,0,0
47732,-100,4,2,2,43,0,0
47829,-100,4,2,5,43,0,0
48121,-100,4,2,1,43,0,0
48314,-100,4,2,2,43,0,0
48411,-100,4,2,3,43,0,0
48606,-100,4,2,2,43,0,0
48702,-100,4,2,1,43,0,0
48994,-100,4,2,2,43,0,0
49285,-100,4,2,5,43,0,0
49382,-100,4,2,1,43,0,0
50159,-100,4,2,6,43,0,0
50353,-100,4,2,1,43,0,0
50450,-100,4,2,6,43,0,0
50742,-100,4,2,1,43,0,0
50936,-100,4,2,2,43,0,0
51033,-100,4,2,1,43,0,0
51227,-100,4,2,2,43,0,0
51324,-100,4,2,3,43,0,0
51615,-100,4,2,2,43,0,0
51907,-100,4,2,1,43,0,0
52489,-100,4,2,6,43,0,0
52683,-100,4,2,2,43,0,0
52780,-100,4,2,1,43,0,0
53654,-100,4,2,3,43,0,0
53945,-100,4,2,1,43,0,0
54722,-76.9230769230769,4,2,1,43,0,0
55013,-76.9230769230769,4,2,2,43,0,0
55111,-125,4,2,1,43,0,0
55887,-76.9230769230769,4,2,4,43,0,0
56276,-125,4,2,4,43,0,0
56567,-100,4,2,1,43,0,0
56858,-83.3333333333333,4,2,9,43,0,0
57149,-71.4285714285714,4,2,1,43,0,0
57343,-71.4285714285714,4,2,2,43,0,0
57441,-62.5,4,2,10,43,0,0
57732,-83.3333333333333,4,2,1,43,0,0
58023,-83.3333333333333,4,2,8,43,0,0
58314,-83.3333333333333,4,2,2,43,0,0
58508,-83.3333333333333,4,2,1,43,0,0
58897,-83.3333333333333,4,2,4,43,0,0
59091,-62.5,4,2,5,43,0,0
59382,-62.5,4,2,2,43,0,0
59479,-83.3333333333333,4,2,5,43,0,0
59771,-71.4285714285714,4,2,11,43,0,0
60062,-100,4,2,1,43,0,0
61227,-76.9230769230769,4,2,7,50,0,1
61518,-76.9230769230769,4,2,4,50,0,1
61810,-76.9230769230769,4,2,1,50,0,1
62004,-76.9230769230769,4,2,2,50,0,1
62101,-76.9230769230769,4,2,4,50,0,1
62392,-76.9230769230769,4,2,1,50,0,1
62683,-76.9230769230769,4,2,5,50,0,1
62878,-76.9230769230769,4,2,2,50,0,1
62975,-76.9230769230769,4,2,1,50,0,1
63169,-76.9230769230769,4,2,2,50,0,1
63266,-76.9230769230769,4,2,4,50,0,1
63557,-76.9230769230769,4,2,1,50,0,1
63848,-76.9230769230769,4,2,4,50,0,1
64140,-76.9230769230769,4,2,1,50,0,1
64334,-76.9230769230769,4,2,2,50,0,1
64431,-76.9230769230769,4,2,4,50,0,1
64722,-76.9230769230769,4,2,1,50,0,1
65013,-76.9230769230769,4,2,5,50,0,1
65208,-76.9230769230769,4,2,4,50,0,1
65304,-76.9230769230769,4,2,5,50,0,1
65499,-76.9230769230769,4,2,4,50,0,1
65887,-76.9230769230769,4,2,1,50,0,1
66178,-76.9230769230769,4,2,4,50,0,1
66373,-76.9230769230769,4,2,1,50,0,1
66761,-76.9230769230769,4,2,5,50,0,1
67344,-76.9230769230769,4,2,4,50,0,1
67538,-76.9230769230769,4,2,1,50,0,1
67926,-76.9230769230769,4,2,5,50,0,1
68217,-76.9230769230769,4,2,1,50,0,1
68508,-76.9230769230769,4,2,4,50,0,1
68800,-76.9230769230769,4,2,1,50,0,1
69091,-76.9230769230769,4,2,5,50,0,1
69285,-76.9230769230769,4,2,1,50,0,1
69382,-76.9230769230769,4,2,2,50,0,1
69674,-76.9230769230769,4,2,6,50,0,1
69965,-76.9230769230769,4,2,2,50,0,1
70062,-76.9230769230769,4,2,1,50,0,1
70159,-76.9230769230769,4,2,2,50,0,1
70256,-100,4,2,1,50,0,1
70547,-76.9230769230769,4,2,7,50,0,1
70838,-76.9230769230769,4,2,5,50,0,1
71324,-76.9230769230769,4,2,2,50,0,1
71421,-76.9230769230769,4,2,4,50,0,1
71712,-76.9230769230769,4,2,1,50,0,1
72003,-76.9230769230769,4,2,4,50,0,1
72295,-76.9230769230769,4,2,1,50,0,1
72489,-76.9230769230769,4,2,2,50,0,1
72586,-76.9230769230769,4,2,4,50,0,1
72878,-76.9230769230769,4,2,1,50,0,1
73169,-76.9230769230769,4,2,4,50,0,1
73460,-76.9230769230769,4,2,1,50,0,1
73654,-76.9230769230769,4,2,2,50,0,1
73751,-76.9230769230769,4,2,4,50,0,1
74043,-76.9230769230769,4,2,1,50,0,1
74334,-76.9230769230769,4,2,5,50,0,1
74528,-76.9230769230769,4,2,4,50,0,1
74625,-76.9230769230769,4,2,5,50,0,1
75110,-76.9230769230769,4,2,4,50,0,1
75208,-76.9230769230769,4,2,1,50,0,1
75790,-76.9230769230769,4,2,5,50,0,1
75984,-76.9230769230769,4,2,2,50,0,1
76373,-76.9230769230769,4,2,1,50,0,1
76955,-76.9230769230769,4,2,5,50,0,1
77538,-76.9230769230769,4,2,1,50,0,1
77829,-76.9230769230769,4,2,2,50,0,1
78023,-76.9230769230769,4,2,1,50,0,1
78120,-76.9230769230769,4,2,4,50,0,1
78314,-76.9230769230769,4,2,1,50,0,1
78411,-76.9230769230769,4,2,2,50,0,1
78606,-76.9230769230769,4,2,1,50,0,1
78994,-76.9230769230769,4,2,6,50,0,1
79479,-76.9230769230769,4,2,2,50,0,1
79577,-76.9230769230769,4,2,1,50,0,1
80353,-76.9230769230769,4,2,2,50,0,1
80450,-76.9230769230769,4,2,1,50,0,1
82772,-76.9230769230769,4,2,1,50,0,0
82780,-100,4,2,6,50,0,0
83363,-100,4,2,3,50,0,0
83653,-100,4,2,5,50,0,0
83945,-100,4,2,4,50,0,0
84237,-100,4,2,1,50,0,0
84528,-100,4,2,2,50,0,0
84722,-100,4,2,1,50,0,0
85111,-100,4,2,2,50,0,0
85208,-100,4,2,1,50,0,0
87732,-100,4,2,1,5,0,0

[Colours]
Combo1 : 255,55,55
Combo2 : 255,169,128
Combo3 : 255,255,119

[HitObjects]
495,314,1810,6,0,P|397:351|309:294,1,216.000008239746,0|0,2:0|2:0,2:0:0:0:
261,191,2683,2,0,L|268:151,2,36.0000013732911,2|2|2,2:0|2:0|2:0,2:0:0:0:
249,221,2975,6,0,P|200:243|147:233,1,108.000004119873,2|0,1:2|2:0,2:0:0:0:
52,163,3557,2,0,L|32:270,1,108.000004119873,0|2,2:0|2:0,2:0:0:0:
148,233,4140,2,0,L|168:126,1,108.000004119873,2|0,2:0|2:0,2:0:0:0:
134,55,4625,1,0,2:0:0:0:
134,55,4722,2,0,P|178:79|242:68,1,108.000004119873,2|0,2:0|2:0,2:0:0:0:
341,21,5305,6,0,L|448:39,1,108.000004119873,2|0,2:0|2:0,2:0:0:0:
465,156,5887,2,0,L|358:174,1,108.000004119873,2|0,2:0|2:0,2:0:0:0:
319,243,6373,1,0,2:0:0:0:
319,243,6470,2,0,P|302:294|302:351,1,108.000004119873,2|2,2:0|2:0,2:0:0:0:
225,370,6955,1,0,2:0:0:0:
225,370,7052,2,0,L|117:355,1,108.000004119873,2|2,2:0|2:0,2:0:0:0:
79,162,7635,6,0,B|36:244|90:300|172:273|161:180,1,240,2|0,1:2|2:0,2:0:0:0:
172,128,8217,2,0,B|185:175|232:182|259:143|259:143|281:188|343:179|350:126,1,240,2|0,2:0|2:0,2:0:0:0:
373,176,8800,2,0,B|362:269|444:296|498:240|455:158,1,240,2|0,1:2|2:0,2:0:0:0:
438,108,9382,2,0,P|380:84|304:116,1,144,2|0,2:0|2:0,2:0:0:0:
251,260,9965,6,0,L|106:238,1,144,2|0,1:2|3:0,2:0:0:0:
58,145,10450,1,8,2:0:0:0:
58,145,10547,2,0,L|9:153,2,48,0|0|0,1:0|2:0|3:0,2:0:0:0:
97,110,10839,2,0,L|146:118,2,48,8|0|0,2:0|2:0|2:0,2:0:0:0:
87,58,11130,6,0,P|128:42|181:46,1,96,8|10,1:3|2:0,2:0:0:0:
229,59,11421,2,0,L|239:12,2,48,10|0|0,2:0|2:0|2:0,2:0:0:0:
261,100,11712,2,0,P|304:119|352:117,1,96,10|0,2:0|2:0,2:0:0:0:
401,97,12004,2,0,L|375:204,1,96,14|0,2:3|2:0,2:0:0:0:
408,233,12295,6,0,P|330:226|266:282,1,144,2|4,1:2|2:3,2:0:0:0:
176,383,12878,2,0,P|116:345|46:354,1,144,10|4,2:0|2:3,2:0:0:0:
35,249,13363,1,0,2:0:0:0:
35,249,13460,2,0,L|27:153,1,96,4|0,2:3|2:0,2:0:0:0:
73,128,13751,2,0,L|65:32,1,96,0|0,1:0|2:0,2:0:0:0:
114,13,14043,2,0,P|173:48|246:37,1,144,10|2,2:0|2:0,2:0:0:0:
348,18,14528,1,2,2:0:0:0:
348,18,14625,6,0,P|326:88|317:160,1,144,2|4,1:3|2:3,2:0:0:0:
398,225,15111,1,0,2:0:0:0:
398,225,15208,2,0,P|395:279|381:320,1,96,10|4,2:0|2:3,2:0:0:0:
328,316,15499,2,0,P|279:340|237:348,1,96,0|0,2:0|1:0,2:0:0:0:
197,315,15790,6,0,P|135:285|62:297,1,144,4|0,2:3|1:0,2:0:0:0:
35,194,16276,1,0,2:0:0:0:
35,194,16373,2,0,P|59:126|68:54,1,144,10|0,2:0|2:0,2:0:0:0:
168,22,16858,1,0,3:0:0:0:
168,22,16955,6,0,P|217:62|297:43,1,144,2|4,1:2|2:3,2:0:0:0:
394,19,17441,1,4,1:3:0:0:
394,19,17538,2,0,P|373:75|366:115,1,96,14|4,2:0|2:3,2:0:0:0:
375,162,17829,1,4,2:3:0:0:
416,258,18023,1,4,2:3:0:0:
416,258,18120,6,0,P|366:246|314:242,1,96,2|0,2:0|2:0,2:0:0:0:
282,277,18411,2,0,P|232:289|180:293,1,96,0|0,1:0|2:0,2:0:0:0:
149,255,18703,2,0,P|140:179|126:113,1,144,10|2,2:0|2:0,2:0:0:0:
202,39,19188,1,2,2:0:0:0:
202,39,19285,6,0,P|263:89|365:67,1,144,2|0,1:2|1:0,2:0:0:0:
412,28,19771,1,0,2:0:0:0:
412,28,19868,2,0,L|425:126,1,96,14|8,2:0|2:3,2:0:0:0:
456,164,20159,2,0,L|443:262,1,96,4|0,2:3|1:0,2:0:0:0:
449,311,20450,5,12,2:0:0:0:
346,287,20644,1,0,2:0:0:0:
346,287,20742,1,0,2:0:0:0:
253,337,20936,1,0,2:0:0:0:
253,337,21033,2,0,P|197:344|149:326,1,96,8|8,2:0|2:3,2:0:0:0:
77,296,21324,2,0,P|140:283|191:225,1,115.199996484375,0|2,2:0|2:0,2:0:0:0:
179,237,21615,6,0,L|168:119,1,115.2,6|0,3:2|2:0,2:0:0:0:
127,29,22198,2,0,L|245:40,1,115.2,0|0,3:0|2:0,2:0:0:0:
298,119,22780,2,0,L|416:108,1,115.2,2|0,3:2|2:0,2:0:0:0:
506,79,23363,2,0,L|495:197,1,115.2,2|2,3:2|2:0,2:0:0:0:
475,295,23848,1,0,2:0:0:0:
475,295,23945,6,0,P|411:278|366:293,1,115.2,2|0,3:2|2:0,2:0:0:0:
287,239,24528,2,0,P|232:254|178:236,1,115.2,2|0,3:2|2:0,2:0:0:0:
89,328,25013,1,0,2:0:0:0:
89,328,25111,2,0,B|128:230|50:248|88:138,1,192,4|0,3:0|2:0,2:0:0:0:
78,101,25693,2,0,P|135:111|185:87,1,115.2,0|0,3:0|2:0,2:0:0:0:
280,2,26276,6,0,P|345:14|389:37,1,115.2,6|4,3:2|2:3,2:0:0:0:
445,98,26761,1,4,2:3:0:0:
445,98,26858,1,4,3:0:0:0:
379,206,27149,1,0,2:0:0:0:
414,328,27441,6,0,P|362:302|306:298,1,115.2,6|0,3:2|2:0,2:0:0:0:
239,190,28023,2,0,P|189:220|134:229,1,115.2,6|0,3:2|2:0,2:0:0:0:
53,258,28509,1,0,2:0:0:0:
53,258,28606,6,0,L|37:143,1,115.2,6|0,3:2|2:0,2:0:0:0:
107,38,29188,2,0,L|222:54,1,115.2,0|4,3:0|2:3,2:0:0:0:
292,99,29674,1,4,2:3:0:0:
292,99,29771,6,0,P|339:99|394:77,1,76.8,6|0,3:2|2:0,2:0:0:0:
407,107,30062,2,0,P|377:156|330:189,1,96,6|0,3:2|2:0,2:0:0:0:
307,204,30353,2,0,P|350:250|405:272,1,115.199996484375,6|0,3:2|2:0,2:0:0:0:
423,308,30644,2,0,P|368:353|301:368,1,134.399995898438,6|0,3:2|2:0,2:0:0:0:
278,337,30936,6,0,P|224:310|162:320,1,115.2,4|2,1:3|2:3,2:0:0:0:
55,368,31518,2,0,L|42:254,1,115.2,14|2,2:0|2:3,2:0:0:0:
100,192,32004,1,0,3:0:0:0:
100,192,32101,2,0,P|116:142|105:77,1,115.2,6|2,1:2|1:3,2:0:0:0:
217,20,32683,2,0,P|207:76|223:130,1,115.2,14|4,2:0|2:3,2:0:0:0:
293,179,33169,1,0,2:0:0:0:
293,179,33266,6,0,P|352:166|407:160,1,115.2,4|2,1:3|2:3,2:0:0:0:
487,257,33848,2,0,L|476:333,1,76.8,14|0,2:0|2:0,2:0:0:0:
469,375,34140,1,2,2:3:0:0:
388,328,34334,1,0,2:0:0:0:
388,328,34431,2,0,P|328:316|274:324,1,115.2,4|0,1:3|1:0,2:0:0:0:
164,374,35013,1,10,2:0:0:0:
55,307,35305,1,2,2:3:0:0:
108,223,35499,1,0,2:0:0:0:
108,223,35596,6,0,P|107:153|94:106,1,115.2,2|2,1:2|2:3,2:0:0:0:
142,39,36081,1,0,2:0:0:0:
142,39,36178,2,0,P|192:61|252:66,1,115.2,14|6,2:0|2:3,2:0:0:0:
334,21,36664,1,0,2:0:0:0:
334,21,36761,2,0,L|344:137,1,115.2,4|0,1:3|1:0,2:0:0:0:
393,210,37246,1,0,2:0:0:0:
393,210,37344,2,0,P|397:280|387:307,1,76.8,14|0,2:0|2:0,2:0:0:0:
369,318,37635,2,0,P|334:315|281:335,1,76.8,4|0,2:3|2:0,2:0:0:0:
265,356,37926,6,0,P|208:370|145:335,1,115.2,4|2,1:3|2:3,2:0:0:0:
73,352,38411,1,0,2:0:0:0:
73,352,38509,2,0,P|81:290|88:221,1,115.2,14|2,2:0|2:3,2:0:0:0:
75,153,38994,1,0,2:0:0:0:
75,153,39091,6,0,P|85:105|97:69,1,76.8,4|2,1:3|2:3,2:0:0:0:
122,47,39382,1,8,2:0:0:0:
189,115,39577,1,8,2:0:0:0:
189,115,39674,2,0,P|229:120|265:113,1,76.8,6|0,1:2|2:0,2:0:0:0:
285,103,39965,2,0,L|257:236,1,105.600003222656,4|0,1:3|2:0,2:0:0:0:
232,249,40256,6,0,P|300:224|372:238,1,144,4|14,1:3|2:0,2:0:0:0:
448,373,40839,1,0,2:0:0:0:
353,326,41033,1,4,2:3:0:0:
353,326,41130,2,0,P|294:337|257:360,1,96,2|0,2:0|2:0,2:0:0:0:
213,336,41421,2,0,P|157:335|106:300,1,96,6|0,1:3|2:0,2:0:0:0:
86,278,41712,1,10,2:0:0:0:
130,181,41907,1,4,2:3:0:0:
130,181,42004,2,0,L|115:32,1,144,2|2,2:0|2:0,2:0:0:0:
272,20,42586,5,2,1:3:0:0:
364,70,42780,1,0,2:0:0:0:
364,70,42878,2,0,P|414:80|461:67,1,96,6|0,1:2|2:0,2:0:0:0:
507,85,43169,2,0,P|497:172|463:219,1,144,0|2,2:0|2:0,2:0:0:0:
358,217,43751,2,0,L|368:296,1,76.8,0|0,1:0|2:0,2:0:0:0:
379,311,44043,2,0,B|242:292|326:348|189:326,1,187.199991430664,14|4,2:0|1:3,2:0:0:0:
102,369,44528,1,0,3:0:0:0:
108,358,44625,2,0,P|121:302|103:226,1,96,6|0,1:2|3:0,2:0:0:0:
93,237,44916,6,0,P|89:173|86:86,3,144,6|2|2|2,1:2|2:0|2:0|2:0,2:0:0:0:
185,27,45984,1,0,3:0:0:0:
199,49,46081,2,0,P|197:111|192:200,2,144,6|2|2,1:2|2:0|2:0,2:0:0:0:
299,120,46955,2,0,P|388:129|417:113,1,96,14|0,2:3|2:0,2:0:0:0:
421,108,47246,5,2,1:2:0:0:
466,207,47441,1,4,2:3:0:0:
466,207,47538,2,0,P|446:275|439:322,1,96,4|4,2:3|2:3,2:0:0:0:
448,346,47829,1,6,1:2:0:0:
343,302,48024,1,4,2:3:0:0:
343,302,48121,2,0,P|274:318|229:336,1,96,4|0,2:3|2:0,2:0:0:0:
232,340,48411,6,0,B|158:351|188:298|90:313,1,144,2|8,1:2|2:0,2:0:0:0:
38,237,48897,1,2,2:0:0:0:
36,224,48994,2,0,P|63:158|60:82,1,144,8|2,2:0|2:0,2:0:0:0:
54,73,49382,1,0,3:0:0:0:
49,64,49479,1,0,3:0:0:0:
43,55,49577,6,0,P|89:68|136:67,1,96,2|0,1:2|2:0,2:0:0:0:
177,33,49868,2,0,L|277:28,1,96,6|0,2:0|1:0,2:0:0:0:
319,52,50159,2,0,L|414:56,1,96,10|4,2:0|2:3,2:0:0:0:
466,45,50450,2,0,P|467:92|454:138,1,96,10|0,2:3|2:0,2:0:0:0:
414,174,50742,1,6,2:0:0:0:
444,274,50936,1,0,3:0:0:0:
444,274,51033,2,0,P|391:270|345:290,1,96,0|0,1:0|3:0,2:0:0:0:
316,324,51324,2,0,L|147:295,1,144,14|8,2:0|2:3,2:0:0:0:
75,339,51810,5,0,2:0:0:0:
75,339,51907,2,0,P|59:278|68:186,1,144,2|4,1:2|2:3,2:0:0:0:
84,94,52392,1,0,2:0:0:0:
84,94,52489,2,0,B|166:101|130:148|209:159,1,144,10|0,2:0|2:0,2:0:0:0:
290,93,52975,1,0,1:0:0:0:
290,93,53072,2,0,P|336:74|382:78,1,96,2|0,2:0|2:0,2:0:0:0:
424,107,53363,1,6,1:2:0:0:
357,189,53557,1,0,2:0:0:0:
357,189,53654,2,0,P|331:257|337:347,1,144,14|6,2:0|2:0,2:0:0:0:
231,362,54140,1,0,3:0:0:0:
231,362,54237,6,0,L|75:328,1,144,2|0,1:3|1:0,2:0:0:0:
32,184,54722,2,0,B|137:200|97:114|203:133,1,187.199991430664,12|0,2:3|1:0,2:0:0:0:
237,156,55111,2,0,L|264:69,1,76.8,8|0,2:0|2:0,2:0:0:0:
256,40,55402,5,2,2:0:0:0:
355,82,55596,1,0,2:0:0:0:
355,82,55693,1,0,1:0:0:0:
480,10,55887,2,0,B|496:115|410:75|429:181,1,187.199991430664,8|0,2:3|1:0,2:0:0:0:
457,210,56276,2,0,P|468:248|468:286,1,76.8,8|0,2:0|2:0,2:0:0:0:
450,334,56567,6,0,P|402:320|353:318,1,96,2|0,1:2|2:0,2:0:0:0:
314,282,56858,2,0,P|270:321|210:341,1,115.199996484375,12|0,2:3|2:0,2:0:0:0:
175,374,57149,2,0,P|140:301|79:266,1,134.399995898438,0|2,1:0|2:0,2:0:0:0:
27,276,57441,2,0,P|81:207|76:101,1,153.6,14|0,2:3|2:0,2:0:0:0:
79,116,57732,6,0,P|138:135|219:112,1,115.199996484375,4|0,1:3|2:0,2:0:0:0:
212,106,58023,1,12,2:3:0:0:
303,18,58217,2,0,L|331:192,1,172.799994726563,0|0,2:0|3:0,2:0:0:0:
374,234,58606,2,0,P|361:277|357:302,2,57.5999982421876,0|0|0,3:0|2:0|3:0,2:0:0:0:
402,215,58897,1,2,1:3:0:0:
442,384,59091,6,0,P|347:318|231:361,1,230.4,14|0,2:0|1:0,2:0:0:0:
209,380,59479,6,0,P|153:362|94:358,1,115.199996484375,14|0,2:0|2:0,2:0:0:0:
45,373,59771,2,0,P|19:306|20:241,1,134.399995898438,14|0,2:3|2:0,2:0:0:0:
34,205,60062,6,0,B|105:197|166:252|166:252|174:168|244:125,1,288,14|10,2:0|2:0,2:0:0:0:
233,132,61227,6,0,P|295:167|414:146,1,187.199991430664,6|14,1:2|2:0,2:0:0:0:
504,75,61712,1,0,2:0:0:0:
504,75,61810,2,0,P|495:141|486:201,1,124.79999428711,4|0,1:3|1:0,2:0:0:0:
505,257,62101,2,0,P|443:251|392:285,1,124.79999428711,14|0,2:0|2:0,2:0:0:0:
366,340,62392,6,0,B|263:364|297:293|186:319,1,187.199991430664,2|10,1:2|2:0,2:0:0:0:
34,205,62975,2,0,B|-13:139|21:82|21:82|47:100|47:132,1,187.199991430664,2|10,2:0|2:0,2:0:0:0:
145,51,63460,1,0,2:0:0:0:
145,51,63557,6,0,B|259:35|206:96|339:76,1,187.199991430664,6|10,1:2|2:0,2:0:0:0:
422,156,64043,1,0,2:0:0:0:
422,156,64140,2,0,P|394:213|391:274,1,124.79999428711,6|0,1:2|1:0,2:0:0:0:
411,332,64431,2,0,L|283:312,1,124.79999428711,8|0,0:0|0:0,0:0:0:0:
233,343,64722,6,0,B|265:244|208:253|233:160,2,187.199991430664,6|10|2,1:2|2:0|2:0,2:0:0:0:
109,361,65499,1,2,1:2:0:0:
109,361,65596,2,0,P|92:295|94:236,1,124.79999428711,10|2,2:0|2:0,2:0:0:0:
68,185,65887,6,0,P|149:209|234:157,1,187.199991430664,4|2,1:3|3:2,2:0:0:0:
261,37,66373,2,0,B|371:64|304:119|410:142,1,187.199991430664,4|0,1:3|3:0,2:0:0:0:
407,141,66761,2,0,P|403:199|397:266,1,124.79999428711,2|0,3:2|3:0,2:0:0:0:
435,314,67052,6,0,B|328:304|371:366|265:375,1,187.199991430664,4|0,1:3|2:0,2:0:0:0:
158,342,67538,2,0,P|132:251|171:170,1,187.199991430664,4|0,1:3|3:0,2:0:0:0:
229,152,67926,2,0,P|280:181|343:172,1,124.79999428711,2|0,3:2|2:0,2:0:0:0:
401,195,68217,6,0,P|456:122|451:31,1,187.199991430664,6|10,1:2|2:0,2:0:0:0:
327,29,68703,1,0,2:0:0:0:
327,29,68800,2,0,P|260:38|202:47,1,124.79999428711,4|0,1:3|1:0,2:0:0:0:
144,26,69091,1,10,2:0:0:0:
100,142,69285,6,0,B|196:131|165:203|274:193,1,187.199991430664,0|0,2:0|2:0,2:0:0:0:
331,170,69674,2,0,P|350:232|333:287,1,124.79999428711,14|0,2:0|2:0,2:0:0:0:
278,351,69965,1,2,3:2:0:0:
244,335,70062,1,0,3:0:0:0:
206,337,70159,1,0,3:0:0:0:
175,354,70256,2,0,L|166:306,2,48,2|0|0,3:2|3:0|3:0,3:0:0:0:
85,267,70547,6,0,B|189:287|155:213|264:234,2,187.199991430664,6|10|2,1:2|0:2|1:2,2:0:0:0:
16,151,71324,1,0,1:0:0:0:
16,151,71421,2,0,P|10:84|34:29,1,124.79999428711,10|0,2:0|2:0,2:0:0:0:
90,11,71712,6,0,B|195:-16|170:58|270:31,1,187.199991430664,2|10,1:2|2:0,2:0:0:0:
392,5,72198,1,0,1:0:0:0:
392,5,72295,2,0,P|357:82|366:182,1,187.199991430664,2|8,2:0|0:0,2:0:0:0:
485,26,72878,6,0,P|495:117|459:203,1,187.199991430664,2|8,1:2|0:0,2:0:0:0:
410,318,73363,1,0,2:0:0:0:
410,318,73460,2,0,P|354:293|288:297,1,124.79999428711,6|0,1:2|1:0,2:0:0:0:
245,337,73751,2,0,P|183:339|126:314,1,124.79999428711,10|0,0:2|1:0,2:0:0:0:
85,267,74043,6,0,B|72:161|139:203|126:91,2,187.199991430664,6|10|2,1:2|2:0|2:0,2:0:0:0:
204,230,74819,2,0,B|237:193|291:206|291:206|313:251|375:246,1,187.199991430664,2|2,1:2|2:0,2:0:0:0:
425,223,75208,6,0,P|417:291|408:357,1,124.79999428711,4|0,1:3|2:0,2:0:0:0:
409,346,75499,1,8,2:0:0:0:
288,314,75693,2,0,B|180:305|219:373|113:360,1,187.199991430664,4|0,1:3|3:0,2:0:0:0:
113,360,76081,1,0,3:0:0:0:
46,253,76276,1,0,3:0:0:0:
46,253,76373,6,0,P|53:188|60:129,1,124.79999428711,4|0,1:3|2:0,2:0:0:0:
62,119,76664,1,8,2:0:0:0:
150,30,76858,2,0,P|220:84|324:62,1,187.199991430664,4|0,1:3|3:0,2:0:0:0:
312,70,77246,2,0,P|319:134|324:195,1,124.79999428711,0|0,3:0|2:0,2:0:0:0:
297,251,77538,6,0,B|401:235|374:308|479:289,1,187.199991430664,6|0,1:2|3:0,2:0:0:0:
511,170,78023,1,0,1:0:0:0:
511,170,78120,2,0,P|507:104|502:42,1,124.79999428711,10|0,2:0|1:0,2:0:0:0:
500,35,78411,1,0,1:0:0:0:
375,19,78606,6,0,B|270:1|299:70|196:46,1,187.199991430664,6|0,1:2|3:0,2:0:0:0:
143,12,78994,2,0,P|79:5|30:44,1,124.79999428711,14|0,2:0|2:0,2:0:0:0:
9,97,79285,2,0,P|18:160|69:197,1,124.79999428711,14|0,2:0|2:0,2:0:0:0:
102,246,79577,2,0,L|85:323,2,62.3999971435548,0|0|0,3:0|3:0|3:0,2:0:0:0:
161,228,79868,6,0,B|273:213|230:286|336:270,1,187.199991430664,2|0,1:2|2:0,2:0:0:0:
476,235,80353,1,8,2:0:0:0:
476,235,80450,1,0,1:0:0:0:
452,48,80742,6,0,P|399:112|396:212,2,187.199991430664,4|0|0,2:3|1:0|2:0,2:0:0:0:
327,45,81518,1,0,0:0:0:0:
327,45,81615,2,0,P|273:75|211:69,1,124.79999428711,2|0,1:2|2:0,2:0:0:0:
150,54,81907,2,0,L|130:177,1,124.79999428711,0|0,2:0|3:0,2:0:0:0:
122,239,82198,2,0,L|59:249,3,62.3999971435548,0|0|0|0,1:0|3:0|3:0|1:0,2:0:0:0:
272,352,82683,1,0,2:0:0:0:
272,352,82780,6,0,B|325:291|406:328|406:328|472:309|494:206|463:148|400:147|368:197|386:241,1,432,14|2,2:0|2:3,2:0:0:0:
491,111,83945,2,0,P|448:93|399:91,1,96,4|0,2:3|2:0,2:0:0:0:
350,93,84237,6,0,P|286:122|211:102,1,144,2|0,1:2|3:0,2:0:0:0:
89,38,84819,2,0,L|72:134,1,96,2|0,1:2|3:0,2:0:0:0:
49,175,85111,2,0,P|25:183|6:197,2,48,0|0|0,3:0|3:0|3:0,2:0:0:0:
96,166,85402,6,0,B|231:175|146:266|289:285,1,240,2|0,1:2|2:0,2:0:0:0:
334,272,85984,2,0,B|352:193|305:214|319:133,1,144
426,35,86567,6,0,B|285:70|323:-17|192:6,1,240,6|0,1:2|1:0,2:0:0:0:
152,89,87149,2,0,B|321:108|257:13|425:34,1,288,14|0,2:0|2:0,2:0:0:0:
