osu file format v14

[General]
AudioFilename: audio.mp3
AudioLeadIn: 0
PreviewTime: 52564
Countdown: 0
SampleSet: Soft
StackLeniency: 0.7
Mode: 3
LetterboxInBreaks: 0
SpecialStyle: 0
WidescreenStoryboard: 0

[Editor]
Bookmarks: 11557,24890,38223,70445
DistanceSpacing: 0.7
BeatDivisor: 6
GridSize: 32
TimelineZoom: 1.6

[Metadata]
Title:Moffumofu DE Yoi no Ja yo (TV Size)
TitleUnicode:もっふもふ DE よいのじゃよ (TV Size)
Artist:Senko (CV: Waki Azumi)
ArtistUnicode:仙狐 (CV: 和氣あず未)
Creator:Faputa
Version:Hard
Source:世話やきキツネの仙狐さん
Tags:Dudehacker Sewayaki Kitsune No Senko-san Japanese Anime ending ed furry kemono mimi cute girl
BeatmapID:2163902
BeatmapSetID:1034542

[Difficulty]
HPDrainRate:8
CircleSize:4
OverallDifficulty:8
ApproachRate:5
SliderMultiplier:1.4
SliderTickRate:1

[Events]
//Background and Video events
0,0,"furry.jpg",0,0
Video,0,"superairconanimation.mp4"
//Break Periods
//Storyboard Layer 0 (Background)
//Storyboard Layer 1 (Fail)
//Storyboard Layer 2 (Pass)
//Storyboard Layer 3 (Foreground)
//Storyboard Layer 4 (Overlay)
//Storyboard Sound Samples
Sample,56731,0,"closedhat.wav",70
Sample,58953,0,"closedhat.wav",70
Sample,65157,0,"closedhat.wav",70
Sample,65712,0,"closedhat.wav",70
Sample,67934,0,"closedhat.wav",70
Sample,74508,0,"closedhat.wav",70
Sample,76731,0,"closedhat.wav",70
Sample,80712,0,"closedhat.wav",70
Sample,81268,0,"closedhat.wav",70
Sample,83397,0,"closedhat.wav",70
Sample,84045,0,"closedhat.wav",70
Sample,85157,0,"closedhat.wav",70
Sample,85619,0,"closedhat.wav",70

[TimingPoints]
435,555.555555555556,4,2,1,70,1,0
52657,555.555555555556,4,2,1,70,1,1
87101,-100,4,2,1,70,0,0

[HitObjects]
64,192,435,128,0,990:0:0:0:0:
192,192,435,1,0,0:0:0:0:
320,192,990,128,0,1546:0:0:0:0:
448,192,990,1,0,0:0:0:0:
192,192,1268,1,0,0:0:0:0:
448,192,1546,128,0,2101:0:0:0:0:
192,192,2101,128,0,2657:0:0:0:0:
64,192,2379,1,0,0:0:0:0:
320,192,2657,128,0,3212:0:0:0:0:
448,192,2657,1,0,0:0:0:0:
64,192,2935,1,0,0:0:0:0:
192,192,3212,1,0,0:0:0:0:
64,192,3490,128,0,4370:0:0:0:0:
448,192,3768,1,0,0:0:0:0:
320,192,4046,1,0,0:0:0:0:
448,192,4370,1,0,0:0:0:0:
192,192,4601,1,0,0:0:0:0:
320,192,4601,128,0,4740:0:0:0:0:
320,192,4879,128,0,5157:0:0:0:0:
448,192,4879,1,0,0:0:0:0:
192,192,5157,128,0,5296:0:0:0:0:
64,192,5435,128,0,5573:0:0:0:0:
320,192,5435,1,0,0:0:0:0:
64,192,5712,128,0,6546:0:0:0:0:
192,192,5712,1,0,0:0:0:0:
320,192,6546,1,0,0:0:0:0:
192,192,6823,1,0,0:0:0:0:
320,192,7101,128,0,7379:0:0:0:0:
448,192,7101,1,0,0:0:0:0:
64,192,7379,1,0,0:0:0:0:
192,192,7379,128,0,7657:0:0:0:0:
320,192,7657,128,0,7935:0:0:0:0:
448,192,7657,1,0,0:0:0:0:
64,192,7935,128,0,9323:0:0:0:0:
448,192,8212,1,0,0:0:0:0:
320,192,8490,1,0,0:0:0:0:
192,192,8768,1,0,0:0:0:0:
192,192,9046,1,0,0:0:0:0:
448,192,9323,1,0,0:0:0:0:
192,192,9601,1,0,0:0:0:0:
320,192,9879,1,0,0:0:0:0:
64,192,10157,1,0,0:0:0:0:
192,192,10435,1,0,0:0:0:40:snare.wav
448,192,10435,1,0,0:0:0:0:
192,192,10620,1,0,0:0:0:40:snare.wav
448,192,10620,1,0,0:0:0:0:
320,192,10805,1,0,0:0:0:40:snare.wav
64,192,10897,1,0,0:0:0:40:snare.wav
192,192,10897,1,0,0:0:0:0:
320,192,10990,1,0,0:0:0:40:snare.wav
448,192,10990,1,0,0:0:0:0:
320,192,11175,1,0,0:0:0:40:snare.wav
448,192,11175,1,0,0:0:0:0:
64,192,11268,1,4,0:0:0:0:
192,192,11546,1,4,0:0:0:0:
320,192,11546,1,0,0:0:0:70:windchime.wav
448,192,11546,1,0,0:0:0:0:
64,192,11823,1,0,0:0:0:70:closedhat.wav
192,192,12101,1,8,0:0:0:0:
320,192,12101,1,4,0:0:0:0:
448,192,12379,1,0,0:0:0:70:closedhat.wav
192,192,12518,1,0,0:0:0:0:
64,192,12657,1,4,0:0:0:0:
448,192,12657,1,0,0:0:0:0:
320,192,12796,1,0,0:0:0:0:
448,192,12935,1,0,0:0:0:70:closedhat.wav
192,192,13073,1,0,0:0:0:0:
64,192,13212,1,8,0:0:0:0:
320,192,13212,1,4,0:0:0:0:
64,192,13397,1,0,0:0:0:0:
192,192,13490,1,0,0:0:0:70:closedhat.wav
448,192,13675,1,0,0:0:0:0:
64,192,13768,1,4,0:0:0:0:
192,192,13768,1,0,0:0:0:0:
448,192,13907,1,0,0:0:0:0:
320,192,14046,1,0,0:0:0:70:closedhat.wav
192,192,14185,1,0,0:0:0:0:
64,192,14323,1,8,0:0:0:0:
448,192,14323,1,4,0:0:0:0:
192,192,14601,1,0,0:0:0:70:closedhat.wav
448,192,14740,1,0,0:0:0:0:
64,192,14879,1,4,0:0:0:0:
192,192,14879,1,0,0:0:0:0:
320,192,15064,1,0,0:0:0:0:
448,192,15157,1,0,0:0:0:70:closedhat.wav
192,192,15296,1,0,0:0:0:0:
64,192,15435,1,8,0:0:0:0:
320,192,15435,1,4,0:0:0:0:
192,192,15620,1,0,0:0:0:70:closedhat.wav
320,192,15712,1,0,0:0:0:70:closedhat.wav
448,192,15897,1,0,0:0:0:70:closedhat.wav
64,192,15990,1,4,0:0:0:0:
192,192,15990,1,0,0:0:0:0:
448,192,16268,1,0,0:0:0:70:closedhat.wav
320,192,16407,1,0,0:0:0:0:
64,192,16546,1,8,0:0:0:0:
448,192,16546,1,4,0:0:0:0:
192,192,16685,1,0,0:0:0:0:
448,192,16823,1,0,0:0:0:70:closedhat.wav
320,192,16962,1,0,0:0:0:0:
64,192,17101,1,4,0:0:0:0:
192,192,17101,1,0,0:0:0:0:
320,192,17240,1,0,0:0:0:0:
64,192,17379,1,0,0:0:0:70:closedhat.wav
320,192,17518,1,0,0:0:0:0:
448,192,17587,1,0,0:0:0:0:
64,192,17657,1,12,0:0:0:0:
192,192,17657,128,0,17935:0:0:0:70:triangle.wav
448,192,17842,1,0,0:0:0:70:closedhat.wav
320,192,17935,1,0,0:0:0:70:closedhat.wav
320,192,18212,128,4,18490:0:0:0:0:
448,192,18212,1,0,0:0:0:0:
64,192,18490,128,0,18629:0:0:0:70:closedhat.wav
192,192,18490,1,0,0:0:0:0:
448,192,18629,128,0,18768:0:0:0:0:
64,192,18768,1,8,0:0:0:0:
192,192,18768,128,4,19046:0:0:0:0:
320,192,19046,1,0,0:0:0:70:closedhat.wav
448,192,19046,128,0,19185:0:0:0:0:
64,192,19185,128,0,19323:0:0:0:0:
320,192,19323,128,4,19601:0:0:0:0:
448,192,19323,1,0,0:0:0:0:
64,192,19601,1,0,0:0:0:70:closedhat.wav
192,192,19601,128,0,19740:0:0:0:0:
448,192,19740,128,0,19879:0:0:0:0:
64,192,19879,128,8,20064:0:0:0:0:
192,192,19879,1,4,0:0:0:0:
320,192,20064,1,0,0:0:0:70:closedhat.wav
448,192,20064,128,0,20342:0:0:0:0:
64,192,20157,1,0,0:0:0:70:closedhat.wav
320,192,20342,1,0,0:0:0:70:closedhat.wav
64,192,20435,1,4,0:0:0:0:
192,192,20435,1,0,0:0:0:0:
320,192,20712,1,0,0:0:0:70:closedhat.wav
448,192,20851,1,0,0:0:0:0:
64,192,20990,1,8,0:0:0:0:
192,192,20990,1,4,0:0:0:0:
448,192,21129,1,0,0:0:0:0:
320,192,21268,1,0,0:0:0:70:closedhat.wav
320,192,21546,1,4,0:0:0:0:
448,192,21546,128,0,21823:0:0:0:0:
64,192,21823,128,0,21962:0:0:0:70:closedhat.wav
192,192,21823,1,0,0:0:0:0:
320,192,21962,128,0,22101:0:0:0:0:
192,192,22101,1,8,0:0:0:0:
448,192,22101,128,4,22286:0:0:0:0:
64,192,22286,128,0,22657:0:0:0:70:closedhat.wav
320,192,22379,1,0,0:0:0:70:closedhat.wav
192,192,22657,1,4,0:0:0:0:
448,192,22657,1,0,0:0:0:0:
320,192,22935,1,0,0:0:0:70:closedhat.wav
64,192,23212,1,8,0:0:0:0:
192,192,23212,1,4,0:0:0:0:
448,192,23490,1,0,0:0:0:70:closedhat.wav
192,192,23629,1,0,0:0:0:0:
64,192,23768,1,4,0:0:0:0:
320,192,23768,1,0,0:0:0:0:
448,192,23953,1,0,0:0:0:0:
192,192,24046,1,0,0:0:0:70:closedhat.wav
64,192,24231,1,0,0:0:0:0:
192,192,24323,1,8,0:0:0:0:
320,192,24323,1,4,0:0:0:0:
448,192,24509,1,0,0:0:0:70:closedhat.wav
64,192,24601,1,0,0:0:0:70:closedhat.wav
320,192,24786,1,0,0:0:0:70:closedhat.wav
192,192,24879,1,4,0:0:0:0:
448,192,24879,1,0,0:0:0:0:
192,192,25157,128,0,25435:0:0:0:0:
64,192,25157,1,0,0:0:0:70:closedhat.wav
320,192,25435,1,8,0:0:0:0:
448,192,25435,128,4,25712:0:0:0:0:
192,192,25712,128,0,25851:0:0:0:0:
64,192,25712,1,0,0:0:0:70:closedhat.wav
320,192,25851,128,0,25990:0:0:0:0:
192,192,25990,128,4,26268:0:0:0:0:
448,192,25990,1,0,0:0:0:0:
320,192,26268,128,0,26407:0:0:0:70:closedhat.wav
448,192,26268,1,0,0:0:0:0:
64,192,26407,128,0,26546:0:0:0:0:
192,192,26546,1,8,0:0:0:0:
320,192,26546,128,4,26823:0:0:0:0:
448,192,26685,1,0,0:0:0:0:
64,192,26823,128,0,27101:0:0:0:70:closedhat.wav
192,192,26823,1,0,0:0:0:0:
320,192,27101,1,4,0:0:0:0:
448,192,27101,1,0,0:0:0:0:
192,192,27240,1,0,0:0:0:0:
320,192,27379,1,0,0:0:0:70:closedhat.wav
448,192,27379,128,0,27472:0:0:0:0:
64,192,27518,1,0,0:0:0:0:
192,192,27657,1,8,0:0:0:0:
320,192,27657,1,4,0:0:0:0:
448,192,27796,1,0,0:0:0:0:
64,192,27935,128,0,28027:0:0:0:70:closedhat.wav
192,192,27935,1,0,0:0:0:0:
448,192,28073,1,0,0:0:0:0:
64,192,28212,1,4,0:0:0:0:
320,192,28212,1,0,0:0:0:0:
448,192,28305,128,0,28490:0:0:0:0:
192,192,28397,1,0,0:0:0:0:
64,192,28490,128,0,28629:0:0:0:70:closedhat.wav
320,192,28629,128,0,28768:0:0:0:0:
192,192,28768,128,8,29046:0:0:0:0:
448,192,28768,1,4,0:0:0:0:
320,192,28953,1,0,0:0:0:70:closedhat.wav
64,192,29046,1,0,0:0:0:70:closedhat.wav
448,192,29046,128,0,29138:0:0:0:0:
192,192,29323,1,4,0:0:0:0:
320,192,29323,1,0,0:0:0:0:
64,192,29462,1,0,0:0:0:0:
320,192,29601,1,0,0:0:0:70:closedhat.wav
448,192,29601,128,0,29694:0:0:0:0:
64,192,29879,1,8,0:0:0:0:
192,192,29879,1,4,0:0:0:0:
448,192,30018,1,0,0:0:0:0:
192,192,30157,1,0,0:0:0:70:closedhat.wav
320,192,30157,128,0,30249:0:0:0:0:
64,192,30296,1,0,0:0:0:0:
192,192,30435,1,4,0:0:0:0:
448,192,30435,1,0,0:0:0:0:
320,192,30573,1,0,0:0:0:0:
64,192,30712,128,0,30805:0:0:0:70:closedhat.wav
192,192,30712,1,0,0:0:0:0:
320,192,30851,1,0,0:0:0:0:
448,192,30921,1,0,0:0:0:0:
64,192,30990,1,12,0:0:0:0:
192,192,30990,128,0,31268:0:0:0:70:triangle.wav
448,192,31175,1,0,0:0:0:70:closedhat.wav
64,192,31268,1,0,0:0:0:70:closedhat.wav
320,192,31268,128,0,31360:0:0:0:0:
192,192,31546,1,4,0:0:0:0:
448,192,31546,1,0,0:0:0:0:
64,192,31685,1,0,0:0:0:0:
320,192,31823,128,0,31916:0:0:0:70:closedhat.wav
448,192,31823,1,0,0:0:0:0:
192,192,31962,1,0,0:0:0:0:
64,192,32101,1,8,0:0:0:0:
448,192,32101,1,4,0:0:0:0:
320,192,32240,1,0,0:0:0:0:
64,192,32379,1,0,0:0:0:70:closedhat.wav
192,192,32379,128,0,32472:0:0:0:0:
320,192,32518,1,0,0:0:0:0:
192,192,32657,1,4,0:0:0:0:
448,192,32657,1,0,0:0:0:0:
64,192,32842,1,0,0:0:0:0:
320,192,32842,1,0,0:0:0:0:
448,192,32935,1,0,0:0:0:70:closedhat.wav
192,192,33120,1,0,0:0:0:0:
320,192,33212,1,8,0:0:0:0:
448,192,33212,1,4,0:0:0:0:
320,192,33397,1,0,0:0:0:70:closedhat.wav
64,192,33490,1,0,0:0:0:70:closedhat.wav
192,192,33490,128,0,33583:0:0:0:0:
448,192,33675,1,0,0:0:0:70:closedhat.wav
64,192,33768,1,4,0:0:0:0:
320,192,33768,1,0,0:0:0:0:
192,192,34046,128,0,34138:0:0:0:70:closedhat.wav
320,192,34046,1,0,0:0:0:0:
448,192,34185,1,0,0:0:0:0:
64,192,34323,1,8,0:0:0:0:
320,192,34323,1,4,0:0:0:0:
64,192,34601,1,0,0:0:0:70:closedhat.wav
192,192,34601,128,0,34694:0:0:0:0:
448,192,34740,1,0,0:0:0:0:
192,192,34879,1,4,0:0:0:0:
320,192,34879,1,0,0:0:0:0:
448,192,35018,1,0,0:0:0:0:
64,192,35157,128,0,35249:0:0:0:70:closedhat.wav
192,192,35157,1,0,0:0:0:0:
320,192,35296,1,0,0:0:0:0:
192,192,35435,1,8,0:0:0:0:
448,192,35435,1,4,0:0:0:0:
64,192,35620,1,0,0:0:0:70:closedhat.wav
320,192,35712,128,0,35805:0:0:0:70:closedhat.wav
448,192,35712,1,0,0:0:0:0:
64,192,35990,1,4,0:0:0:0:
192,192,35990,1,0,0:0:0:0:
320,192,36268,1,0,0:0:0:70:closedhat.wav
448,192,36268,128,0,36360:0:0:0:0:
192,192,36407,1,0,0:0:0:0:
64,192,36546,1,8,0:0:0:0:
320,192,36546,1,4,0:0:0:0:
448,192,36638,1,0,0:0:0:0:
192,192,36823,1,0,0:0:0:70:closedhat.wav
320,192,36823,1,0,0:0:0:0:
64,192,36916,1,0,0:0:0:0:
320,192,37101,1,0,0:0:0:0:
448,192,37101,1,0,0:0:0:0:
192,192,37194,1,0,0:0:0:0:
64,192,37286,1,0,0:0:0:0:
320,192,37379,1,0,0:0:0:70:closedhat.wav
192,192,37564,1,0,0:0:0:0:
448,192,37564,1,0,0:0:0:0:
320,192,37657,1,0,0:0:0:0:
64,192,37842,1,0,0:0:0:70:closedhat.wav
192,192,37842,1,0,0:0:0:0:
320,192,37935,1,0,0:0:0:70:closedhat.wav
448,192,37935,1,0,0:0:0:0:
64,192,38120,1,0,0:0:0:70:closedhat.wav
192,192,38212,1,4,0:0:0:0:
320,192,38212,1,0,0:0:0:70:windchime.wav
448,192,38212,1,0,0:0:0:0:
320,192,38490,1,0,0:0:0:0:
320,192,38629,1,0,0:0:0:0:
64,192,38768,1,8,0:0:0:0:
448,192,38768,1,0,0:0:0:0:
192,192,38907,1,0,0:0:0:0:
448,192,39046,1,0,0:0:0:0:
64,192,39231,1,4,0:0:0:0:
192,192,39231,1,0,0:0:0:0:
320,192,39323,1,4,0:0:0:0:
448,192,39323,1,0,0:0:0:0:
64,192,39509,1,0,0:0:0:0:
320,192,39601,1,4,0:0:0:0:
192,192,39786,1,0,0:0:0:0:
320,192,39879,1,8,0:0:0:0:
448,192,39879,1,0,0:0:0:0:
64,192,40064,1,4,0:0:0:0:
192,192,40064,1,0,0:0:0:0:
320,192,40157,1,0,0:0:0:0:
192,192,40342,1,4,0:0:0:0:
448,192,40342,128,0,42101:0:0:0:0:
192,192,40620,1,4,0:0:0:0:
64,192,40990,1,8,0:0:0:0:
320,192,40990,1,2,0:0:0:0:
64,192,41453,1,4,0:0:0:0:
192,192,41546,1,4,0:0:0:0:
320,192,41731,1,0,0:0:0:0:
192,192,41823,1,4,0:0:0:0:
64,192,42101,1,8,0:0:0:0:
320,192,42101,1,2,0:0:0:0:
192,192,42286,1,4,0:0:0:0:
448,192,42286,1,0,0:0:0:0:
64,192,42657,1,4,0:0:0:0:
192,192,42657,1,0,0:0:0:0:
192,192,42935,1,0,0:0:0:0:
192,192,43073,1,0,0:0:0:0:
320,192,43212,1,8,0:0:0:0:
448,192,43212,1,0,0:0:0:0:
64,192,43351,1,0,0:0:0:0:
320,192,43490,1,0,0:0:0:0:
192,192,43675,1,4,0:0:0:0:
448,192,43675,1,0,0:0:0:0:
64,192,43768,1,4,0:0:0:0:
320,192,43768,1,0,0:0:0:0:
448,192,43953,1,0,0:0:0:0:
192,192,44046,1,4,0:0:0:0:
320,192,44231,1,0,0:0:0:0:
64,192,44323,1,8,0:0:0:0:
448,192,44323,1,0,0:0:0:0:
192,192,44509,1,4,0:0:0:0:
320,192,44509,1,0,0:0:0:0:
448,192,44601,1,0,0:0:0:0:
64,192,44786,128,4,45990:0:0:0:0:
320,192,44786,1,0,0:0:0:0:
192,192,45435,1,8,0:0:0:0:
448,192,45435,1,2,0:0:0:0:
448,192,45712,1,0,0:0:0:0:
192,192,45897,1,4,0:0:0:0:
320,192,45990,1,4,0:0:0:0:
320,192,46268,1,4,0:0:0:0:
192,192,46546,1,8,0:0:0:0:
448,192,46546,1,2,0:0:0:0:
320,192,46731,128,4,47101:0:0:0:0:
448,192,46731,1,0,0:0:0:0:
64,192,47101,1,4,0:0:0:0:
192,192,47101,1,0,0:0:0:0:
448,192,47379,1,0,0:0:0:0:
64,192,47657,1,8,0:0:0:0:
320,192,47657,1,0,0:0:0:0:
192,192,47935,1,0,0:0:0:0:
320,192,48120,1,4,0:0:0:0:
448,192,48120,1,0,0:0:0:0:
64,192,48212,1,4,0:0:0:0:
192,192,48212,1,0,0:0:0:0:
64,192,48490,1,4,0:0:0:0:
320,192,48490,1,0,0:0:0:0:
192,192,48768,1,8,0:0:0:0:
448,192,48768,1,0,0:0:0:0:
320,192,48953,1,4,0:0:0:0:
448,192,49046,1,0,0:0:0:0:
64,192,49323,128,4,49601:0:0:0:0:
192,192,49323,1,0,0:0:0:0:
448,192,49601,128,0,49879:0:0:0:0:
192,192,49879,128,8,50157:0:0:0:0:
320,192,49879,1,0,0:0:0:0:
64,192,50157,128,4,50712:0:0:0:0:
448,192,50157,128,0,50712:0:0:0:0:
192,192,50712,128,4,51268:0:0:0:0:
320,192,50712,128,0,51268:0:0:0:0:
448,192,50990,1,8,0:0:0:0:
64,192,51268,1,0,0:0:0:0:
320,192,51407,1,0,0:0:0:0:
192,192,51546,1,0,0:0:0:40:snare.wav
448,192,51546,1,0,0:0:0:0:
192,192,51731,1,0,0:0:0:40:snare.wav
448,192,51731,1,0,0:0:0:0:
64,192,51823,1,0,0:0:0:40:snare.wav
320,192,51916,1,0,0:0:0:40:snare.wav
64,192,52009,1,0,0:0:0:40:snare.wav
192,192,52009,1,0,0:0:0:0:
320,192,52101,1,0,0:0:0:40:snare.wav
448,192,52101,1,0,0:0:0:0:
320,192,52286,1,0,0:0:0:40:snare.wav
448,192,52286,1,0,0:0:0:0:
192,192,52379,1,4,0:0:0:0:
64,192,52657,128,4,52842:0:0:0:0:
320,192,52657,1,0,0:0:0:70:windchime.wav
448,192,52657,1,0,0:0:0:0:
192,192,52842,1,0,0:0:0:0:
320,192,52934,1,4,0:0:0:0:
448,192,52934,128,0,53119:0:0:0:70:closedhat.wav
320,192,53119,1,0,0:0:0:0:
64,192,53212,128,8,53490:0:0:0:0:
192,192,53212,1,2,0:0:0:0:
320,192,53490,128,0,53675:0:0:0:70:closedhat.wav
448,192,53490,1,0,0:0:0:0:
192,192,53675,1,4,0:0:0:0:
64,192,53768,1,4,0:0:0:0:
448,192,53768,128,0,53953:0:0:0:0:
64,192,53953,1,0,0:0:0:0:
192,192,54045,1,4,0:0:0:0:
320,192,54045,128,0,54323:0:0:0:70:closedhat.wav
192,192,54323,1,8,0:0:0:0:
448,192,54323,1,2,0:0:0:0:
320,192,54508,1,4,0:0:0:0:
64,192,54601,1,0,0:0:0:70:closedhat.wav
192,192,54786,1,0,0:0:0:0:
320,192,54879,128,4,55157:0:0:0:0:
448,192,54879,1,0,0:0:0:0:
64,192,55157,1,4,0:0:0:0:
192,192,55157,128,0,55434:0:0:0:70:closedhat.wav
320,192,55434,1,8,0:0:0:0:
448,192,55434,128,2,55712:0:0:0:0:
64,192,55712,1,0,0:0:0:70:closedhat.wav
320,192,55712,128,0,55897:0:0:0:0:
64,192,55897,128,4,56545:0:0:0:0:
448,192,55897,1,0,0:0:0:0:
192,192,55990,1,4,0:0:0:0:
192,192,56268,1,4,0:0:0:0:
448,192,56268,1,0,0:0:0:70:closedhat.wav
320,192,56545,1,8,0:0:0:0:
448,192,56545,1,2,0:0:0:0:
192,192,56731,1,4,0:0:0:0:
64,192,56823,1,0,0:0:0:70:closedhat.wav
192,192,57008,1,0,0:0:0:70:closedhat.wav
320,192,57101,1,4,0:0:0:0:
448,192,57101,128,0,57286:0:0:0:0:
320,192,57286,1,0,0:0:0:0:
64,192,57379,128,4,57564:0:0:0:0:
192,192,57379,1,0,0:0:0:70:closedhat.wav
448,192,57564,1,0,0:0:0:0:
192,192,57657,128,8,57934:0:0:0:0:
320,192,57657,1,2,0:0:0:0:
64,192,57934,128,0,58119:0:0:0:70:closedhat.wav
448,192,57934,1,0,0:0:0:0:
320,192,58119,1,4,0:0:0:0:
192,192,58212,1,4,0:0:0:0:
448,192,58212,128,0,58397:0:0:0:0:
192,192,58397,1,0,0:0:0:0:
64,192,58490,1,4,0:0:0:0:
320,192,58490,128,0,58768:0:0:0:70:closedhat.wav
64,192,58768,128,10,58953:0:0:0:0:
448,192,58768,1,0,0:0:0:70:triangle.wav
192,192,58953,1,4,0:0:0:0:
320,192,59045,1,0,0:0:0:70:closedhat.wav
64,192,59323,1,4,0:0:0:0:
448,192,59323,128,0,59879:0:0:0:0:
192,192,59601,1,4,0:0:0:0:
320,192,59601,1,0,0:0:0:70:closedhat.wav
64,192,59879,1,8,0:0:0:0:
192,192,59879,128,2,60157:0:0:0:0:
64,192,60157,128,4,60434:0:0:0:0:
320,192,60157,128,0,60434:0:0:0:70:closedhat.wav
448,192,60157,1,0,0:0:0:0:
192,192,60434,1,0,0:0:0:70:closedhat.wav
64,192,60712,1,4,0:0:0:0:
320,192,60712,128,0,60990:0:0:0:70:closedhat.wav
448,192,60712,128,0,60990:0:0:0:0:
192,192,60990,1,10,0:0:0:0:
64,192,61175,1,0,0:0:0:70:closedhat.wav
320,192,61268,1,4,0:0:0:0:
448,192,61268,1,0,0:0:0:70:closedhat.wav
448,192,61453,1,0,0:0:0:70:closedhat.wav
64,192,61545,1,4,0:0:0:0:
192,192,61545,1,0,0:0:0:70:cymbal.wav
320,192,61545,1,0,0:0:0:0:
64,192,61823,128,0,62101:0:0:0:70:closedhat.wav
192,192,61823,1,0,0:0:0:0:
320,192,62101,1,8,0:0:0:0:
448,192,62101,128,2,62379:0:0:0:0:
64,192,62379,128,0,62564:0:0:0:70:closedhat.wav
320,192,62379,1,0,0:0:0:0:
192,192,62564,1,4,0:0:0:0:
320,192,62657,128,4,62934:0:0:0:0:
448,192,62657,1,0,0:0:0:0:
64,192,62934,1,4,0:0:0:0:
448,192,62934,1,0,0:0:0:70:closedhat.wav
192,192,63119,128,0,63397:0:0:0:0:
64,192,63212,1,8,0:0:0:0:
320,192,63212,1,2,0:0:0:0:
448,192,63397,1,4,0:0:0:0:
320,192,63490,1,0,0:0:0:70:closedhat.wav
192,192,63675,1,0,0:0:0:0:
320,192,63768,1,4,0:0:0:0:
448,192,63768,128,0,64045:0:0:0:0:
64,192,64045,128,4,64323:0:0:0:0:
192,192,64045,1,0,0:0:0:70:closedhat.wav
320,192,64323,128,8,64601:0:0:0:0:
448,192,64323,1,2,0:0:0:0:
64,192,64601,1,4,0:0:0:0:
448,192,64601,128,0,65434:0:0:0:70:closedhat.wav
320,192,64879,1,0,0:0:0:70:closedhat.wav
64,192,65064,1,4,0:0:0:0:
192,192,65157,1,4,0:0:0:0:
64,192,65434,1,8,0:0:0:0:
320,192,65434,1,2,0:0:0:0:
192,192,65619,1,0,0:0:0:70:closedhat.wav
320,192,65712,1,4,0:0:0:0:
448,192,65897,1,0,0:0:0:70:closedhat.wav
64,192,65990,1,4,0:0:0:0:
192,192,65990,128,0,66268:0:0:0:0:
64,192,66268,1,4,0:0:0:0:
320,192,66268,1,0,0:0:0:70:closedhat.wav
320,192,66545,1,8,0:0:0:0:
448,192,66545,128,2,66823:0:0:0:0:
64,192,66823,128,4,67101:0:0:0:0:
192,192,66823,1,0,0:0:0:70:closedhat.wav
448,192,67101,1,0,0:0:0:70:closedhat.wav
192,192,67379,128,4,67657:0:0:0:0:
320,192,67379,1,0,0:0:0:70:closedhat.wav
64,192,67657,1,10,0:0:0:0:
448,192,67657,128,0,67934:0:0:0:70:triangle.wav
192,192,67842,1,0,0:0:0:70:closedhat.wav
320,192,67934,128,4,68212:0:0:0:0:
64,192,68212,128,4,68351:0:0:0:0:
192,192,68212,128,0,68351:0:0:0:0:
320,192,68490,128,4,68629:0:0:0:0:
448,192,68490,128,0,68629:0:0:0:70:closedhat.wav
64,192,68768,128,4,69045:0:0:0:0:
192,192,68768,128,0,69045:0:0:0:0:
320,192,69045,1,0,0:0:0:70:closedhat.wav
192,192,69323,1,0,0:0:0:40:snare.wav
448,192,69323,1,0,0:0:0:0:
192,192,69508,1,0,0:0:0:40:snare.wav
448,192,69508,1,0,0:0:0:0:
320,192,69601,1,0,0:0:0:40:snare.wav
64,192,69694,1,0,0:0:0:40:snare.wav
320,192,69786,1,0,0:0:0:40:snare.wav
448,192,69786,1,0,0:0:0:0:
64,192,69879,1,4,0:0:0:0:
192,192,69879,1,0,0:0:0:40:snare.wav
64,192,70064,1,0,0:0:0:40:snare.wav
192,192,70064,1,0,0:0:0:0:
448,192,70157,1,4,0:0:0:0:
320,192,70342,1,0,0:0:0:70:closedhat.wav
64,192,70434,1,4,0:0:0:0:
192,192,70434,1,0,0:0:0:70:windchime.wav
448,192,70434,128,0,70619:0:0:0:0:
192,192,70619,1,0,0:0:0:0:
64,192,70712,128,4,70897:0:0:0:0:
320,192,70712,1,0,0:0:0:70:closedhat.wav
448,192,70897,1,0,0:0:0:0:
192,192,70990,1,8,0:0:0:0:
320,192,70990,128,2,71268:0:0:0:0:
64,192,71268,128,0,71453:0:0:0:70:closedhat.wav
448,192,71268,1,0,0:0:0:0:
192,192,71453,1,4,0:0:0:0:
320,192,71545,1,4,0:0:0:0:
448,192,71545,128,0,71684:0:0:0:0:
192,192,71684,1,0,0:0:0:0:
64,192,71823,128,4,72101:0:0:0:0:
448,192,71823,1,0,0:0:0:70:closedhat.wav
192,192,72101,1,8,0:0:0:0:
448,192,72101,1,2,0:0:0:0:
320,192,72286,1,4,0:0:0:0:
64,192,72379,1,0,0:0:0:70:closedhat.wav
64,192,72564,1,0,0:0:0:0:
192,192,72657,1,4,0:0:0:0:
448,192,72657,128,0,72934:0:0:0:0:
64,192,72934,128,4,73212:0:0:0:0:
320,192,72934,1,0,0:0:0:70:closedhat.wav
192,192,73212,1,8,0:0:0:0:
448,192,73212,128,2,73490:0:0:0:0:
192,192,73490,128,0,73675:0:0:0:70:closedhat.wav
320,192,73490,1,0,0:0:0:0:
64,192,73675,1,4,0:0:0:0:
448,192,73675,128,0,74323:0:0:0:0:
320,192,73768,1,4,0:0:0:0:
64,192,74045,1,4,0:0:0:0:
320,192,74045,1,0,0:0:0:70:closedhat.wav
64,192,74323,1,8,0:0:0:0:
192,192,74323,1,2,0:0:0:0:
320,192,74508,1,4,0:0:0:0:
448,192,74601,1,0,0:0:0:70:closedhat.wav
320,192,74786,1,0,0:0:0:70:closedhat.wav
64,192,74879,128,4,75064:0:0:0:0:
192,192,74879,1,0,0:0:0:0:
320,192,75064,1,0,0:0:0:0:
192,192,75157,1,4,0:0:0:0:
448,192,75157,128,0,75342:0:0:0:70:closedhat.wav
64,192,75342,1,0,0:0:0:0:
192,192,75434,128,8,75712:0:0:0:0:
320,192,75434,1,2,0:0:0:0:
64,192,75712,128,0,75897:0:0:0:70:closedhat.wav
448,192,75712,1,0,0:0:0:0:
320,192,75897,1,4,0:0:0:0:
192,192,75990,1,4,0:0:0:0:
448,192,75990,128,0,76175:0:0:0:0:
64,192,76175,1,0,0:0:0:0:
192,192,76268,1,4,0:0:0:0:
320,192,76268,128,0,76545:0:0:0:70:closedhat.wav
64,192,76545,128,10,76731:0:0:0:0:
448,192,76545,1,0,0:0:0:70:triangle.wav
192,192,76731,1,4,0:0:0:0:
320,192,76823,1,0,0:0:0:70:closedhat.wav
192,192,77101,128,4,77379:0:0:0:0:
448,192,77101,128,0,77379:0:0:0:0:
320,192,77379,1,0,0:0:0:70:closedhat.wav
64,192,77657,1,8,0:0:0:0:
320,192,77657,128,4,77934:0:0:0:0:
448,192,77657,128,2,77934:0:0:0:0:
192,192,77934,1,0,0:0:0:70:closedhat.wav
64,192,78212,128,4,78490:0:0:0:0:
320,192,78212,128,0,78490:0:0:0:0:
192,192,78490,1,4,0:0:0:0:
448,192,78490,1,0,0:0:0:70:closedhat.wav
64,192,78768,128,8,79045:0:0:0:0:
192,192,78768,128,2,79045:0:0:0:0:
320,192,78768,1,0,0:0:0:0:
448,192,78953,1,0,0:0:0:70:closedhat.wav
320,192,79045,1,0,0:0:0:70:closedhat.wav
192,192,79231,1,0,0:0:0:70:closedhat.wav
64,192,79323,1,4,0:0:0:0:
320,192,79323,1,0,0:0:0:70:cymbal.wav
448,192,79323,1,0,0:0:0:0:
192,192,79601,1,4,0:0:0:0:
320,192,79601,1,0,0:0:0:70:closedhat.wav
64,192,79879,128,8,80157:0:0:0:0:
448,192,79879,1,2,0:0:0:0:
192,192,80157,1,0,0:0:0:70:closedhat.wav
320,192,80157,128,0,80434:0:0:0:0:
448,192,80342,1,4,0:0:0:0:
64,192,80434,1,4,0:0:0:0:
192,192,80434,1,0,0:0:0:0:
448,192,80619,1,0,0:0:0:0:
64,192,80712,1,4,0:0:0:0:
320,192,80897,128,0,81175:0:0:0:0:
192,192,80990,1,8,0:0:0:0:
448,192,80990,1,2,0:0:0:0:
64,192,81175,1,0,0:0:0:70:closedhat.wav
192,192,81268,1,4,0:0:0:0:
64,192,81545,128,4,81823:0:0:0:0:
320,192,81545,1,0,0:0:0:0:
192,192,81823,1,4,0:0:0:0:
448,192,81823,128,0,82101:0:0:0:70:closedhat.wav
64,192,82101,1,8,0:0:0:0:
320,192,82101,128,2,82379:0:0:0:0:
64,192,82379,128,4,83212:0:0:0:0:
448,192,82379,1,0,0:0:0:70:closedhat.wav
192,192,82657,1,0,0:0:0:70:closedhat.wav
320,192,82934,1,4,0:0:0:0:
448,192,82934,1,0,0:0:0:70:closedhat.wav
192,192,83212,1,8,0:0:0:0:
448,192,83212,1,2,0:0:0:0:
320,192,83397,1,4,0:0:0:0:
192,192,83490,1,0,0:0:0:70:closedhat.wav
64,192,83675,1,0,0:0:0:70:closedhat.wav
192,192,83768,1,4,0:0:0:0:
320,192,83768,128,0,84323:0:0:0:0:
64,192,84045,1,4,0:0:0:0:
192,192,84323,1,8,0:0:0:0:
448,192,84323,128,2,84879:0:0:0:0:
320,192,84601,1,0,0:0:0:70:closedhat.wav
64,192,84786,1,4,0:0:0:0:
192,192,84879,128,4,85434:0:0:0:0:
320,192,84879,1,0,0:0:0:0:
448,192,85157,1,4,0:0:0:0:
64,192,85434,128,10,85897:0:0:0:0:
320,192,85434,1,0,0:0:0:70:triangle.wav
448,192,85619,1,4,0:0:0:0:
192,192,85712,1,0,0:0:0:70:closedhat.wav
320,192,85990,128,4,86129:0:0:0:0:
448,192,85990,128,0,86129:0:0:0:0:
64,192,86268,128,4,86407:0:0:0:0:
192,192,86268,128,0,86407:0:0:0:0:
320,192,86545,128,4,86684:0:0:0:0:
448,192,86545,128,0,86684:0:0:0:0:
64,192,86823,128,4,86962:0:0:0:0:
192,192,86823,128,0,86962:0:0:0:0:
320,192,87101,128,4,87240:0:0:0:0:
448,192,87101,128,0,87240:0:0:0:0:
64,192,87379,1,0,0:0:0:0:
320,192,87564,1,0,0:0:0:0:
448,192,87657,1,0,0:0:0:0:
192,192,87842,1,0,0:0:0:0:
320,192,87934,1,0,0:0:0:0:
448,192,88119,1,0,0:0:0:0:
64,192,88212,1,0,0:0:0:0:
192,192,88212,1,0,0:0:0:0:
