osu file format v14

[General]
AudioFilename: audio.mp3
AudioLeadIn: 0
PreviewTime: -1
Countdown: 0
SampleSet: Soft
StackLeniency: 0.2
Mode: 0
LetterboxInBreaks: 0
WidescreenStoryboard: 0

[Editor]
DistanceSpacing: 0.4
BeatDivisor: 4
GridSize: 4
TimelineZoom: 1

[Metadata]
Title:Mousou Express
TitleUnicode:もうそう♥えくすぷれす
Artist:Sengoku Nadeko (CV:Hanazawa Kana)
ArtistUnicode:千石撫子 (CV:花澤香菜)
Creator:selcYc
Version:aaaaaaaaaaaaaaaaaaaaa
Source:囮物語
Tags:yunoha.A remix
BeatmapID:1181542
BeatmapSetID:558608

[Difficulty]
HPDrainRate:7.1
CircleSize:4.7
OverallDifficulty:9
ApproachRate:8.7
SliderMultiplier:1.6
SliderTickRate:2

[Events]
//Background and Video events
0,0,"mousou.jpg",0,0
//Break Periods
2,95224,108379
//Storyboard Layer 0 (Background)
//Storyboard Layer 1 (Fail)
//Storyboard Layer 2 (Pass)
//Storyboard Layer 3 (Foreground)
//Storyboard Sound Samples

[TimingPoints]
9024,500,4,2,0,5,1,0
28524,-200,4,2,0,5,0,0
29024,-100,4,2,0,5,0,1
29149,-100,4,2,0,5,0,0
61024,-50,4,2,0,5,0,0
63024,-66.6666666666667,4,2,0,5,0,1
95024,-66.6666666666667,4,2,0,5,0,0
110524,-133.333333333333,4,2,0,5,0,0
143024,-100,4,2,0,5,0,1
143149,-100,4,2,0,5,0,0
153024,-76.9230769230769,4,2,0,5,0,0
155024,-66.6666666666667,4,2,0,5,0,0
156024,-58.8235294117647,4,2,0,5,0,0
157024,-50,4,2,0,5,0,0
159024,-58.8235294117647,4,2,0,5,0,1
191024,-100,4,2,0,5,0,0

[Colours]
Combo1 : 183,255,111
Combo2 : 255,255,147
Combo3 : 149,149,255
Combo4 : 255,123,123

[HitObjects]
64,176,9024,5,0,0:0:0:0:
80,296,9274,1,0,0:0:0:0:
200,280,9524,1,0,0:0:0:0:
184,160,9774,1,0,0:0:0:0:
53,175,10024,5,0,0:0:0:0:
70,301,10274,1,0,0:0:0:0:
196,284,10524,1,0,0:0:0:0:
180,158,10774,1,0,0:0:0:0:
44,172,11024,6,0,P|56:200|72:212,1,40
64,308,11274,2,0,P|92:296|104:280,1,40
204,288,11524,2,0,P|192:260|176:248,1,40
184,152,11774,2,0,P|156:164|144:180,1,40
36,164,12024,5,0,0:0:0:0:
36,164,12149,1,0,0:0:0:0:
56,316,12274,5,0,0:0:0:0:
56,316,12399,1,0,0:0:0:0:
212,300,12524,5,0,0:0:0:0:
212,300,12649,1,0,0:0:0:0:
192,148,12774,5,0,0:0:0:0:
192,148,12899,1,0,0:0:0:0:
24,168,13024,6,0,P|48:208|132:220,1,120
268,108,13524,2,0,P|280:88|280:64,2,40
96,156,13899,2,0,P|153:146|180:108,1,80
204,48,14274,2,0,P|208:24|204:0,1,40
64,44,14524,5,0,0:0:0:0:
68,60,14649,1,0,0:0:0:0:
76,72,14774,1,0,0:0:0:0:
88,80,14899,1,0,0:0:0:0:
60,156,15024,6,0,P|76:220|40:272,1,120
20,340,15524,2,0,P|28:368|44:384,2,40
104,320,15899,2,0,P|148:328|192:292,1,80
276,264,16274,2,0,P|244:256|224:264,1,40
316,332,16524,5,0,0:0:0:0:
320,348,16649,1,0,0:0:0:0:
400,304,16774,5,0,0:0:0:0:
388,376,16899,1,0,0:0:0:0:
464,348,17024,6,0,P|488:304|468:236,1,120
368,172,17524,2,0,P|336:168|308:176,2,40
512,128,17899,2,0,P|477:164|424:160,1,80
256,152,18274,2,0,P|240:144|224:128,1,40
184,32,18524,1,0,0:0:0:0:
180,48,18649,1,0,0:0:0:0:
168,60,18774,1,0,0:0:0:0:
152,68,18899,1,0,0:0:0:0:
76,40,19024,6,0,P|60:80|104:148,1,120
208,160,19524,2,0,P|184:170|156:164,1,40
0,200,19774,2,0,P|25:202|50:188,1,40
120,224,20024,5,0,0:0:0:0:
116,240,20149,1,0,0:0:0:0:
88,344,20274,5,0,0:0:0:0:
84,360,20399,1,0,0:0:0:0:
104,292,20524,5,0,0:0:0:0:
104,292,20649,1,0,0:0:0:0:
104,292,20774,1,0,0:0:0:0:
104,292,20899,1,0,0:0:0:0:
168,332,21024,6,0,P|216:348|272:308,1,120
348,280,21524,2,0,P|348:308|340:332,2,40
432,280,21899,2,0,P|424:328|396:368,1,80
336,208,22274,2,0,P|332:184|336:164,1,40
372,100,22524,1,0,0:0:0:0:
388,108,22649,1,0,0:0:0:0:
404,108,22774,1,0,0:0:0:0:
420,104,22899,1,0,0:0:0:0:
480,148,23024,6,0,P|448:76|464:28,1,120
312,20,23524,2,0,P|280:16|260:24,2,40
376,76,23899,2,0,P|348:104|288:108,1,80
204,32,24274,2,0,P|184:34|164:29,1,40
100,72,24524,5,0,0:0:0:0:
84,76,24649,1,0,0:0:0:0:
120,144,24774,5,0,0:0:0:0:
40,132,24899,1,0,0:0:0:0:
8,208,25024,6,0,P|4:256|56:308,1,120
132,264,25524,2,0,P|140:228|136:212,2,40
192,164,25899,2,0,P|228:148|280:156,1,80
232,328,26274,2,0,P|208:328|184:320,1,40
320,208,26524,5,0,0:0:0:0:
320,224,26649,1,0,0:0:0:0:
316,240,26774,1,0,0:0:0:0:
308,256,26899,1,0,0:0:0:0:
240,240,27024,6,0,L|372:252,1,120
420,300,27524,2,0,P|448:308|472:304,1,40
416,160,27774,2,0,P|392:172|384:192,1,40
488,124,28024,5,0,0:0:0:0:
492,108,28149,1,0,0:0:0:0:
496,92,28274,1,0,0:0:0:0:
500,76,28399,1,0,0:0:0:0:
492,224,28524,6,0,P|476:232|476:200,1,60
496,328,29024,6,0,P|444:352|404:340,1,80
348,328,29524,1,0,0:0:0:0:
192,360,30024,1,0,0:0:0:0:
348,328,30524,2,0,P|360:288|348:248,1,80
432,24,31024,5,0,0:0:0:0:
376,80,31274,1,0,0:0:0:0:
376,80,31399,1,0,0:0:0:0:
376,80,31524,1,0,0:0:0:0:
452,100,31774,1,0,0:0:0:0:
168,112,32274,1,0,0:0:0:0:
92,132,32524,2,0,L|8:120,1,80
20,200,33024,5,0,0:0:0:0:
176,360,33524,1,0,0:0:0:0:
96,344,33774,1,0,0:0:0:0:
96,344,33899,1,0,0:0:0:0:
96,344,34024,1,0,0:0:0:0:
232,296,34274,5,0,0:0:0:0:
32,312,34524,1,0,0:0:0:0:
116,136,34774,1,0,0:0:0:0:
112,236,35024,5,0,0:0:0:0:
116,256,35274,1,0,0:0:0:0:
136,244,35524,1,0,0:0:0:0:
400,68,36024,5,0,0:0:0:0:
408,76,36149,1,0,0:0:0:0:
336,84,36274,5,0,0:0:0:0:
325,86,36399,1,0,0:0:0:0:
352,16,36524,5,0,0:0:0:0:
464,256,37024,6,0,L|456:344,1,80
384,372,37524,1,0,0:0:0:0:
340,200,38024,1,0,0:0:0:0:
184,240,38524,2,0,L|96:236,1,80
28,144,39024,5,0,0:0:0:0:
36,64,39274,1,0,0:0:0:0:
36,64,39399,1,0,0:0:0:0:
36,64,39524,1,0,0:0:0:0:
104,108,39774,2,0,P|148:112|184:96,1,80
416,80,40274,1,0,0:0:0:0:
348,36,40524,2,0,P|303:31|268:48,1,80
256,124,41024,5,0,0:0:0:0:
364,240,41524,1,0,0:0:0:0:
444,248,41774,1,0,0:0:0:0:
444,248,41899,1,0,0:0:0:0:
444,248,42024,1,0,0:0:0:0:
292,264,42274,5,0,0:0:0:0:
508,224,42524,1,0,0:0:0:0:
424,372,42774,2,0,P|408:368|392:348,1,40
368,216,43024,5,0,0:0:0:0:
364,200,43274,1,0,0:0:0:0:
372,184,43524,1,0,0:0:0:0:
152,28,44024,5,0,0:0:0:0:
160,40,44149,1,0,0:0:0:0:
136,104,44274,5,0,0:0:0:0:
128,116,44399,1,0,0:0:0:0:
60,132,44524,5,0,0:0:0:0:
80,364,44774,2,0,P|88:344|84:324,1,40
35,275,45024,6,0,P|75:251|119:259,1,80
117,258,45399,1,0,0:0:0:0:
126,264,45524,1,0,0:0:0:0:
231,189,45774,2,0,P|244:205|263:212,1,40
330,194,46024,6,0,P|330:240|301:274,1,80
304,274,46399,1,0,0:0:0:0:
294,278,46524,1,0,0:0:0:0:
384,331,46774,2,0,P|408:332|427:323,1,40
469,270,47024,6,0,L|480:182,1,80
428,142,47399,2,0,P|421:109|426:94,1,40
448,39,47649,2,0,P|459:23|479:13,1,40
364,8,47899,2,0,P|340:44|340:88,1,80
252,64,48274,2,0,L|156:60,2,80
128,128,49024,5,0,0:0:0:0:
52,192,49274,1,0,0:0:0:0:
52,192,49399,1,0,0:0:0:0:
28,100,49649,1,0,0:0:0:0:
152,152,49899,5,0,0:0:0:0:
16,192,50149,1,0,0:0:0:0:
52,52,50399,1,0,0:0:0:0:
156,184,50649,5,0,0:0:0:0:
152,196,50774,1,0,0:0:0:0:
148,208,50899,1,0,0:0:0:0:
100,264,51024,6,0,P|84:296|100:352,1,80
248,352,51399,2,0,P|264:320|248:264,1,80
176,308,51899,1,0,0:0:0:0:
336,324,52024,5,0,0:0:0:0:
336,324,52149,1,0,0:0:0:0:
336,324,52274,1,0,0:0:0:0:
336,324,52399,1,0,0:0:0:0:
404,288,52524,2,0,P|436:288|456:300,3,40
492,232,53024,6,0,P|504:196|496:152,1,80
360,144,53399,2,0,P|348:180|356:224,1,80
348,232,53774,2,0,P|320:240|296:232,1,40
232,200,54024,5,0,0:0:0:0:
232,188,54149,1,0,0:0:0:0:
228,176,54274,1,0,0:0:0:0:
120,168,54399,2,0,P|112:208|140:244,1,80
128,252,54774,2,0,P|104:268|80:268,1,40
16,168,55024,6,0,P|16:116|32:92,1,80
100,64,55399,2,0,L|184:60,2,80
232,112,56024,1,0,0:0:0:0:
244,116,56149,1,0,0:0:0:0:
256,120,56274,1,0,0:0:0:0:
268,124,56399,1,0,0:0:0:0:
336,104,56524,2,0,P|352:56|340:20,1,80
408,180,57024,6,0,P|408:228|448:272,1,80
488,280,57399,1,0,0:0:0:0:
364,304,57649,1,0,0:0:0:0:
456,176,57899,5,0,0:0:0:0:
392,328,58149,1,0,0:0:0:0:
288,196,58399,1,0,0:0:0:0:
488,208,58649,5,0,0:0:0:0:
488,208,58774,1,0,0:0:0:0:
488,208,58899,1,0,0:0:0:0:
436,248,59024,2,0,P|396:264|360:252,1,80
296,280,59399,2,0,L|304:368,2,80
124,200,60149,6,0,L|116:160,2,40
96,272,60524,1,0,0:0:0:0:
96,272,60649,1,0,0:0:0:0:
96,272,60774,1,0,0:0:0:0:
96,272,60899,1,0,0:0:0:0:
24,312,61024,6,0,B|48:320|72:312|72:312|104:320|104:320|132:312|160:320|160:320|184:312|184:312|212:320|236:312|236:312|260:320,1,240
344,252,61524,5,0,0:0:0:0:
376,320,61649,1,0,0:0:0:0:
420,260,61774,2,0,B|436:248|428:224|428:224|440:208|428:184,1,80
392,48,62024,5,0,0:0:0:0:
388,60,62149,1,0,0:0:0:0:
312,104,62274,5,0,0:0:0:0:
308,92,62399,1,0,0:0:0:0:
240,56,62524,5,0,0:0:0:0:
240,56,62649,1,0,0:0:0:0:
460,88,62774,1,0,0:0:0:0:
460,88,62899,1,0,0:0:0:0:
376,176,63024,6,0,P|337:234|304:160,1,180.000006866455
300,296,63524,2,0,P|328:300|364:296,2,60.0000022888184
424,272,63899,5,0,0:0:0:0:
240,348,64149,1,0,0:0:0:0:
104,224,64399,1,0,0:0:0:0:
164,260,64524,2,0,P|156:276|112:292,1,60.0000022888184
36,204,64774,2,0,P|24:172|24:144,1,60.0000022888184
128,76,65024,6,0,P|108:28|76:100,1,180.000006866455
192,96,65524,2,0,P|196:64|192:32,2,60.0000022888184
168,168,65899,5,0,0:0:0:0:
320,192,66149,1,0,0:0:0:0:
460,100,66399,1,0,0:0:0:0:
400,64,66524,6,0,P|396:40|404:4,3,60.0000022888184
464,32,67024,6,0,B|384:44|416:24|336:36,1,120.000004577637
288,76,67399,2,0,P|228:84|188:36,2,120.000004577637
480,156,68149,1,0,0:0:0:0:
464,152,68274,2,0,P|436:156|404:188,1,60.0000022888184
328,152,68524,2,0,P|312:176|312:212,1,60.0000022888184
216,224,68774,2,0,P|216:256|232:284,1,60.0000022888184
332,312,69024,5,0,0:0:0:0:
400,332,69149,1,0,0:0:0:0:
336,360,69274,1,0,0:0:0:0:
268,344,69399,2,0,P|232:348|200:340,1,60.0000022888184
144,300,69649,2,0,P|114:304|84:300,1,60.0000022888184
16,276,69899,1,0,0:0:0:0:
104,384,70024,5,0,0:0:0:0:
104,384,70149,1,0,0:0:0:0:
104,384,70274,1,0,0:0:0:0:
104,384,70399,1,0,0:0:0:0:
168,244,70524,2,0,P|180:216|180:184,1,60.0000022888184
32,152,70774,2,0,P|20:124|20:92,1,60.0000022888184
76,36,71024,6,0,P|164:20|208:128,1,180.000006866455
292,76,71524,2,0,P|292:108|280:136,2,60.0000022888184
132,96,71899,5,0,0:0:0:0:
380,64,72149,1,0,0:0:0:0:
132,96,72399,1,0,0:0:0:0:
88,152,72524,2,0,P|60:160|20:152,3,60.0000022888184
208,308,73024,6,0,P|296:323|340:216,1,180.000006866455
424,268,73524,2,0,P|424:236|412:208,2,60.0000022888184
264,248,73899,5,0,0:0:0:0:
512,280,74149,1,0,0:0:0:0:
264,248,74399,1,0,0:0:0:0:
220,192,74524,5,0,0:0:0:0:
216,180,74649,1,0,0:0:0:0:
212,168,74774,1,0,0:0:0:0:
208,156,74899,1,0,0:0:0:0:
152,108,75024,6,0,P|112:128|52:92,1,120.000004577637
64,20,75399,2,0,P|104:0|164:36,2,120.000004577637
252,88,76149,1,0,0:0:0:0:
264,84,76274,2,0,P|280:52|280:28,1,60.0000022888184
352,104,76524,2,0,P|388:96|408:72,1,60.0000022888184
440,160,76774,2,0,P|472:176|508:172,1,60.0000022888184
504,252,77024,5,0,0:0:0:0:
468,316,77149,1,0,0:0:0:0:
400,336,77274,1,0,0:0:0:0:
328,320,77399,2,0,P|312:300|304:268,1,60.0000022888184
256,212,77649,2,0,P|272:192|280:160,1,60.0000022888184
268,92,77899,1,0,0:0:0:0:
200,72,78024,6,0,P|192:44|196:12,3,60.0000022888184
480,12,78524,5,0,0:0:0:0:
408,20,78649,1,0,0:0:0:0:
336,28,78774,1,0,0:0:0:0:
264,36,78899,1,0,0:0:0:0:
456,84,79024,1,0,0:0:0:0:
280,164,79274,5,0,0:0:0:0:
276,176,79399,1,0,0:0:0:0:
280,188,79524,2,0,P|344:196|344:160,1,120.000004577637
308,100,79899,1,0,0:0:0:0:
308,280,80024,1,0,0:0:0:0:
320,282,80149,1,0,0:0:0:0:
332,280,80274,1,0,0:0:0:0:
343,274,80399,1,0,0:0:0:0:
412,208,80524,6,0,P|416:176|412:148,1,60.0000022888184
212,176,80774,2,0,P|215:205|228:236,2,60.0000022888184
132,72,81274,5,0,0:0:0:0:
136,84,81399,1,0,0:0:0:0:
132,96,81524,2,0,P|68:104|68:68,1,120.000004577637
104,8,81899,1,0,0:0:0:0:
104,188,82024,1,0,0:0:0:0:
92,190,82149,1,0,0:0:0:0:
80,188,82274,1,0,0:0:0:0:
69,182,82399,1,0,0:0:0:0:
8,136,82524,5,0,0:0:0:0:
180,168,82649,2,0,P|172:236|116:260,1,120.000004577637
8,136,83024,1,0,0:0:0:0:
232,104,83274,5,0,0:0:0:0:
240,112,83399,1,0,0:0:0:0:
252,116,83524,2,0,P|296:116|332:56,1,120.000004577637
264,44,83899,1,0,0:0:0:0:
396,108,84024,5,0,0:0:0:0:
405,100,84149,1,0,0:0:0:0:
413,91,84274,1,0,0:0:0:0:
416,80,84399,1,0,0:0:0:0:
504,92,84524,2,0,P|500:63|473:32,1,60.0000022888184
328,64,84774,2,0,P|316:88|320:128,1,60.0000022888184
348,232,85024,6,0,P|380:240|420:228,1,60.0000022888184
472,212,85274,1,0,0:0:0:0:
272,188,85399,6,0,P|240:180|200:192,1,60.0000022888184
148,208,85649,1,0,0:0:0:0:
332,172,85774,6,0,P|340:140|328:100,1,60.0000022888184
312,48,86024,1,0,0:0:0:0:
288,248,86149,6,0,P|280:280|292:320,1,60.0000022888184
308,372,86399,1,0,0:0:0:0:
492,308,86524,5,0,0:0:0:0:
420,304,86649,1,0,0:0:0:0:
348,300,86774,1,0,0:0:0:0:
276,296,86899,1,0,0:0:0:0:
184,384,87024,1,0,0:0:0:0:
72,320,87274,5,0,0:0:0:0:
60,308,87399,1,0,0:0:0:0:
52,292,87524,2,0,P|72:244|120:284,1,120.000004577637
144,336,87899,1,0,0:0:0:0:
192,276,88024,5,0,0:0:0:0:
192,260,88149,1,0,0:0:0:0:
188,244,88274,1,0,0:0:0:0:
180,228,88399,1,0,0:0:0:0:
248,204,88524,6,0,P|260:176|260:144,1,60.0000022888184
136,120,88774,2,0,P|124:148|124:180,2,60.0000022888184
368,248,89274,5,0,0:0:0:0:
380,236,89399,1,0,0:0:0:0:
388,220,89524,2,0,P|368:172|320:212,1,120.000004577637
296,264,89899,1,0,0:0:0:0:
248,204,90024,5,0,0:0:0:0:
248,188,90149,1,0,0:0:0:0:
252,172,90274,1,0,0:0:0:0:
260,156,90399,1,0,0:0:0:0:
328,124,90524,5,0,0:0:0:0:
292,332,90649,2,0,P|348:312|356:248,1,120.000004577637
268,84,91024,1,0,0:0:0:0:
480,64,91274,5,0,0:0:0:0:
468,76,91399,1,0,0:0:0:0:
452,84,91524,2,0,P|404:84|360:32,1,120.000004577637
432,16,91899,1,0,0:0:0:0:
280,64,92024,5,0,0:0:0:0:
276,80,92149,1,0,0:0:0:0:
276,96,92274,1,0,0:0:0:0:
280,112,92399,1,0,0:0:0:0:
224,24,92524,6,0,P|200:16|132:40,1,60.0000022888184
72,108,92774,2,0,P|48:116|-20:92,1,60.0000022888184
176,208,93024,6,0,P|176:240|192:272,1,60.0000022888184
232,320,93274,1,0,0:0:0:0:
344,160,93399,6,0,P|344:192|328:224,1,60.0000022888184
288,272,93649,1,0,0:0:0:0:
100,112,93774,6,0,P|92:156|100:192,1,60.0000022888184
124,300,94024,1,0,0:0:0:0:
416,64,94149,6,0,P|424:108|416:144,1,60.0000022888184
392,252,94399,1,0,0:0:0:0:
52,8,94524,5,0,0:0:0:0:
40,84,94649,1,0,0:0:0:0:
28,160,94774,1,0,0:0:0:0:
16,236,94899,1,0,0:0:0:0:
4,312,95024,1,0,0:0:0:0:
432,324,109024,5,0,0:0:0:0:
128,256,109524,1,0,0:0:0:0:
328,324,110024,5,0,0:0:0:0:
252,332,110149,1,0,0:0:0:0:
176,320,110274,1,0,0:0:0:0:
100,328,110399,1,0,0:0:0:0:
28,320,110524,2,0,P|12:324|0:320,3,30.0000011444092
100,216,111024,6,0,P|104:188|96:168,1,30.0000011444092
68,128,111274,2,0,P|52:120|28:124,1,30.0000011444092
161,25,111524,5,0,0:0:0:0:
205,93,111649,1,0,0:0:0:0:
197,165,111774,1,0,0:0:0:0:
179,206,111899,1,0,0:0:0:0:
157,221,112024,2,0,P|129:225|96:212,2,60.0000022888184
236,296,112649,5,0,0:0:0:0:
252,304,112774,1,0,0:0:0:0:
268,312,112899,1,0,0:0:0:0:
332,348,113024,6,0,P|336:316|344:304,1,30.0000011444092
376,256,113274,2,0,P|396:248|416:248,1,30.0000011444092
460,4,113524,5,0,0:0:0:0:
504,76,113649,1,0,0:0:0:0:
496,148,113774,1,0,0:0:0:0:
464,184,113899,1,0,0:0:0:0:
432,192,114024,2,0,P|400:188|376:176,2,60.0000022888184
308,184,114649,5,0,0:0:0:0:
304,168,114774,1,0,0:0:0:0:
300,152,114899,1,0,0:0:0:0:
252,96,115024,6,0,P|228:92|200:104,1,30.0000011444092
152,124,115274,2,0,P|144:140|144:160,1,30.0000011444092
56,84,115524,5,0,0:0:0:0:
0,172,115649,1,0,0:0:0:0:
12,252,115774,1,0,0:0:0:0:
48,288,115899,1,0,0:0:0:0:
80,296,116024,2,0,P|116:296|144:284,2,60.0000022888184
244,308,116649,5,0,0:0:0:0:
228,312,116774,1,0,0:0:0:0:
212,316,116899,1,0,0:0:0:0:
312,320,117024,6,0,P|312:340|320:360,1,30.0000011444092
384,384,117274,2,0,P|404:384|424:376,1,30.0000011444092
492,296,117524,5,0,0:0:0:0:
400,224,117649,1,0,0:0:0:0:
392,136,117774,1,0,0:0:0:0:
420,80,117899,1,0,0:0:0:0:
452,60,118024,2,0,P|472:56|512:64,2,60.0000022888184
344,40,118649,5,0,0:0:0:0:
336,56,118774,1,0,0:0:0:0:
328,72,118899,1,0,0:0:0:0:
256,120,119024,6,0,P|224:128|192:120,1,60.0000022888184
136,92,119399,1,0,0:0:0:0:
68,104,119524,2,0,P|36:100|12:84,1,60.0000022888184
136,92,119899,1,0,0:0:0:0:
197,122,120024,2,0,P|227:127|256:120,1,60.0000022888184
308,76,120399,1,0,0:0:0:0:
332,148,120524,5,0,0:0:0:0:
332,176,120649,1,0,0:0:0:0:
300,236,120774,1,0,0:0:0:0:
220,272,120899,1,0,0:0:0:0:
100,248,121024,2,0,P|60:248|32:264,1,60.0000022888184
8,320,121399,1,0,0:0:0:0:
64,368,121524,2,0,P|104:368|132:352,1,60.0000022888184
152,296,121899,1,0,0:0:0:0:
100,248,122024,2,0,P|60:248|32:264,1,60.0000022888184
8,320,122399,1,0,0:0:0:0:
64,368,122524,5,0,0:0:0:0:
176,320,122649,1,0,0:0:0:0:
264,328,122774,1,0,0:0:0:0:
308,356,122899,1,0,0:0:0:0:
324,376,123024,2,0,P|364:364|388:368,1,60.0000022888184
420,304,123399,1,0,0:0:0:0:
492,224,123524,2,0,P|480:264|488:288,1,60.0000022888184
420,304,123899,1,0,0:0:0:0:
381,366,124024,2,0,P|351:365|324:376,1,60.0000022888184
420,304,124399,1,0,0:0:0:0:
484,280,124524,5,0,0:0:0:0:
488,244,124649,1,0,0:0:0:0:
464,164,124774,1,0,0:0:0:0:
368,136,124899,1,0,0:0:0:0:
248,200,125024,2,0,P|240:236|248:272,1,60.0000022888184
260,324,125399,1,0,0:0:0:0:
236,260,125524,2,0,P|233:230|240:201,1,60.0000022888184
268,136,125899,1,0,0:0:0:0:
296,72,126024,2,0,P|300:52|300:36,3,30.0000011444092
224,60,126524,5,0,0:0:0:0:
364,120,126649,1,0,0:0:0:0:
476,36,126774,1,0,0:0:0:0:
364,120,126899,1,0,0:0:0:0:
48,256,127524,5,0,0:0:0:0:
76,320,127649,1,0,0:0:0:0:
112,260,127774,1,0,0:0:0:0:
84,196,127899,2,0,P|84:156|72:124,1,60.0000022888184
52,76,128274,2,0,P|52:56|56:44,1,30.0000011444092
156,24,128524,5,0,0:0:0:0:
148,108,128649,1,0,0:0:0:0:
156,24,128774,1,0,0:0:0:0:
148,108,128899,1,0,0:0:0:0:
412,136,129524,5,0,0:0:0:0:
368,192,129649,1,0,0:0:0:0:
304,172,129774,1,0,0:0:0:0:
464,284,130524,5,0,0:0:0:0:
420,340,130649,1,0,0:0:0:0:
356,320,130774,1,0,0:0:0:0:
352,304,130899,1,0,0:0:0:0:
152,288,131524,5,0,0:0:0:0:
108,344,131649,1,0,0:0:0:0:
44,324,131774,1,0,0:0:0:0:
36,308,131899,2,0,P|32:280|36:268,4,30.0000011444092
72,224,132524,5,0,0:0:0:0:
88,228,132649,1,0,0:0:0:0:
160,184,132774,1,0,0:0:0:0:
176,188,132899,1,0,0:0:0:0:
248,140,133024,1,0,0:0:0:0:
500,76,133274,5,0,0:0:0:0:
496,92,133399,1,0,0:0:0:0:
432,112,133524,1,0,0:0:0:0:
380,72,133649,2,0,P|372:32|376:8,3,60.0000022888184
452,36,134524,5,0,0:0:0:0:
452,36,134649,1,0,0:0:0:0:
452,36,134774,1,0,0:0:0:0:
452,36,134899,1,0,0:0:0:0:
312,112,135024,6,0,L|236:108,1,60.0000022888184
64,224,135524,1,0,0:0:0:0:
0,196,135649,1,0,0:0:0:0:
60,164,135774,1,0,0:0:0:0:
124,188,135899,2,0,P|168:188|208:184,1,60.0000022888184
256,204,136274,2,0,P|256:188|264:168,1,30.0000011444092
328,196,136524,5,0,0:0:0:0:
312,312,136649,1,0,0:0:0:0:
328,196,136774,1,0,0:0:0:0:
312,312,136899,1,0,0:0:0:0:
56,292,137524,5,0,0:0:0:0:
108,344,137649,1,0,0:0:0:0:
180,332,137774,1,0,0:0:0:0:
472,176,138524,5,0,0:0:0:0:
420,228,138649,1,0,0:0:0:0:
348,216,138774,1,0,0:0:0:0:
344,232,138899,1,0,0:0:0:0:
40,52,139524,5,0,0:0:0:0:
92,104,139649,1,0,0:0:0:0:
164,92,139774,1,0,0:0:0:0:
168,108,139899,2,0,P|172:128|164:152,4,30.0000011444092
232,188,140524,5,0,0:0:0:0:
244,200,140649,1,0,0:0:0:0:
312,68,140774,1,0,0:0:0:0:
324,56,140899,1,0,0:0:0:0:
424,152,141024,1,0,0:0:0:0:
460,336,141274,5,0,0:0:0:0:
456,320,141399,1,0,0:0:0:0:
392,352,141524,1,0,0:0:0:0:
324,344,141649,2,0,P|312:304|316:276,2,60.0000022888184
336,216,142274,1,0,0:0:0:0:
224,156,142399,1,0,0:0:0:0:
196,280,142524,5,0,0:0:0:0:
16,88,143024,6,0,P|12:108|24:132,1,40
124,48,143274,2,0,P|128:28|116:4,1,40
204,116,143524,1,0,0:0:0:0:
216,136,143649,1,0,0:0:0:0:
232,208,143774,1,0,0:0:0:0:
176,288,143899,1,0,0:0:0:0:
48,304,144024,2,0,P|32:300|12:284,3,40
108,232,144524,5,0,0:0:0:0:
128,364,144649,1,0,0:0:0:0:
108,232,144774,1,0,0:0:0:0:
128,364,144899,1,0,0:0:0:0:
176,288,145024,6,0,P|200:276|224:280,1,40
288,248,145274,2,0,P|296:276|288:304,1,40
352,356,145524,1,0,0:0:0:0:
376,348,145649,1,0,0:0:0:0:
440,312,145774,1,0,0:0:0:0:
472,216,145899,1,0,0:0:0:0:
424,108,146024,2,0,P|420:60|432:28,2,80
364,148,146649,1,0,0:0:0:0:
296,132,146774,1,0,0:0:0:0:
292,108,146899,1,0,0:0:0:0:
228,76,147024,6,0,P|200:68|184:72,1,40
64,108,147274,2,0,P|36:116|20:112,1,40
148,136,147524,1,0,0:0:0:0:
136,156,147649,1,0,0:0:0:0:
116,232,147774,1,0,0:0:0:0:
144,316,147899,1,0,0:0:0:0:
252,360,148024,2,0,P|256:340|256:312,3,40
360,236,148524,5,0,0:0:0:0:
368,260,148649,1,0,0:0:0:0:
428,288,148774,1,0,0:0:0:0:
424,312,148899,1,0,0:0:0:0:
384,372,149024,1,0,0:0:0:0:
312,96,149274,5,0,0:0:0:0:
308,76,149399,1,0,0:0:0:0:
364,24,149524,1,0,0:0:0:0:
436,40,149649,2,0,P|440:64|432:88,1,40
424,152,149899,2,0,P|416:192|420:232,2,80
504,364,150524,1,0,0:0:0:0:
64,356,151024,6,0,B|78:353|92:356|92:356|108:352|108:352|122:355|140:352|140:352|156:356|156:356|172:352|192:356,1,120
276,304,151524,1,0,0:0:0:0:
280,328,151649,1,0,0:0:0:0:
284,352,151774,2,0,P|304:368|324:368,1,40
448,260,152024,6,0,B|433:257|420:260|420:260|404:256|404:256|389:259|372:256|372:256|356:260|356:260|340:256|320:260,1,120
236,208,152524,1,0,0:0:0:0:
232,232,152649,1,0,0:0:0:0:
228,256,152774,2,0,P|208:272|188:272,1,40
0,160,153024,6,0,B|17:157|34:160|34:160|53:155|53:155|71:159|92:155|92:155|112:160|112:160|131:155|156:160,1,155.999992858887
233,86,153524,1,0,0:0:0:0:
241,138,153649,1,0,0:0:0:0:
249,190,153774,2,0,P|277:202|309:198,1,51.999997619629
512,76,154024,6,0,B|494:73|477:76|477:76|458:71|458:71|440:75|419:71|419:71|399:76|399:76|380:71|355:76,1,155.999992858887
279,2,154524,1,0,0:0:0:0:
271,54,154649,1,0,0:0:0:0:
263,106,154774,2,0,P|235:118|203:114,1,51.999997619629
128,152,155024,6,0,B|128:136|120:124|120:124|124:104|124:104|108:96|104:80|88:76|88:76|76:68|76:68|64:76|48:72|36:84|36:84|40:96|40:96|56:104,1,180.000006866455
360,140,155524,6,0,B|360:124|368:112|368:112|364:92|364:92|380:84|384:68|400:64|400:64|412:56|412:56|424:64|440:60|452:72|452:72|448:84|448:84|432:92,1,180.000006866455
96,112,156024,6,0,B|108:92|124:83|124:83|129:61|129:61|111:52|106:34|89:30|89:30|75:21|75:21|62:30|44:25|31:39|31:39|24:56|24:56|32:76,1,204.000003890991
388,96,156524,6,0,B|376:76|359:67|359:67|354:45|354:45|372:36|377:18|394:14|394:14|408:5|408:5|421:14|439:9|452:23|452:23|460:40|460:40|452:60,1,204.000003890991
208,332,157024,6,0,B|208:316|208:316|204:304|192:296|192:296|180:276|180:276|164:276,1,80
304,288,157274,6,0,B|304:272|304:272|308:260|320:252|320:252|332:232|332:232|348:232,1,80
168,156,157524,5,0,0:0:0:0:
344,104,157649,1,0,0:0:0:0:
144,80,157774,5,0,0:0:0:0:
351,16,157899,2,0,P|372:137|436:32,1,320
168,48,158524,5,0,0:0:0:0:
240,56,158649,1,0,0:0:0:0:
312,64,158774,1,0,0:0:0:0:
384,72,158899,1,0,0:0:0:0:
132,116,159024,6,0,P|76:144|100:52,1,204.000003890991
104,212,159524,2,0,P|70:213|38:202,2,68.0000012969971
212,124,159899,1,0,0:0:0:0:
380,163,160149,1,0,0:0:0:0:
468,28,160399,1,0,0:0:0:0:
412,72,160524,5,0,0:0:0:0:
260,72,160649,1,0,0:0:0:0:
412,72,160774,1,0,0:0:0:0:
260,72,160899,1,0,0:0:0:0:
335,229,161024,6,0,P|391:257|367:165,1,204.000003890991
363,325,161524,2,0,P|396:326|428:315,2,68.0000012969971
255,237,161899,1,0,0:0:0:0:
91,277,162149,1,0,0:0:0:0:
3,141,162399,1,0,0:0:0:0:
55,185,162524,5,0,0:0:0:0:
207,185,162649,1,0,0:0:0:0:
55,185,162774,1,0,0:0:0:0:
207,185,162899,1,0,0:0:0:0:
132,76,163024,6,0,P|172:12|232:36,1,136.000002593994
292,48,163399,2,0,B|372:64|344:24|440:48,2,136.000002593994
40,176,164149,1,0,0:0:0:0:
40,192,164274,2,0,P|76:220|104:220,1,68.0000012969971
180,124,164524,2,0,P|216:96|244:96,1,68.0000012969971
320,260,164774,2,0,P|356:288|384:288,1,68.0000012969971
488,176,165024,5,0,0:0:0:0:
460,84,165149,1,0,0:0:0:0:
412,168,165274,1,0,0:0:0:0:
440,260,165399,2,0,P|448:292|428:332,1,68.0000012969971
264,340,165649,2,0,P|244:316|240:276,1,68.0000012969971
356,356,165899,1,0,0:0:0:0:
160,304,166024,5,0,0:0:0:0:
160,304,166149,1,0,0:0:0:0:
160,304,166274,1,0,0:0:0:0:
160,304,166399,1,0,0:0:0:0:
292,232,166524,6,0,P|320:216|364:212,1,68.0000012969971
100,160,166774,2,0,P|72:144|28:140,1,68.0000012969971
172,32,167024,6,0,P|224:48|144:96,1,204.000003890991
96,52,167524,2,0,P|60:48|20:64,2,68.0000012969971
312,84,167899,1,0,0:0:0:0:
512,72,168149,1,0,0:0:0:0:
244,120,168399,2,0,P|240:144|252:192,1,68.0000012969971
272,272,168649,5,0,0:0:0:0:
204,264,168774,1,0,0:0:0:0:
136,256,168899,1,0,0:0:0:0:
356,228,169024,6,0,P|304:244|384:292,1,204.000003890991
432,248,169524,2,0,P|468:244|508:260,2,68.0000012969971
216,280,169899,1,0,0:0:0:0:
16,268,170149,1,0,0:0:0:0:
284,316,170399,2,0,P|288:340|276:388,1,68.0000012969971
496,328,170649,5,0,0:0:0:0:
428,340,170774,1,0,0:0:0:0:
360,352,170899,1,0,0:0:0:0:
278,382,171024,6,0,P|218:330|166:362,1,136.000002593994
100,384,171399,2,0,P|104:316|80:244,2,136.000002593994
32,184,172149,1,0,0:0:0:0:
20,176,172274,2,0,P|56:164|100:184,1,68.0000012969971
132,44,172524,2,0,P|168:56|212:36,1,68.0000012969971
296,112,172774,2,0,P|332:100|376:120,1,68.0000012969971
432,52,173024,5,0,0:0:0:0:
512,68,173149,1,0,0:0:0:0:
448,124,173274,1,0,0:0:0:0:
360,107,173399,2,0,P|328:104|296:88,1,68.0000012969971
240,164,173649,2,0,P|207:167|175:183,1,68.0000012969971
132,244,173899,1,0,0:0:0:0:
124,320,174024,6,0,P|124:348|144:384,3,68.0000012969971
56,280,174524,5,0,0:0:0:0:
200,288,174649,1,0,0:0:0:0:
344,296,174774,1,0,0:0:0:0:
488,304,174899,1,0,0:0:0:0:
272,348,175024,1,0,0:0:0:0:
464,192,175274,5,0,0:0:0:0:
468,172,175399,1,0,0:0:0:0:
480,156,175524,2,0,P|412:148|408:216,1,136.000002593994
476,240,175899,1,0,0:0:0:0:
320,184,176024,5,0,0:0:0:0:
312,164,176149,1,0,0:0:0:0:
312,144,176274,1,0,0:0:0:0:
320,124,176399,1,0,0:0:0:0:
380,76,176524,6,0,P|388:48|384:8,1,68.0000012969971
240,48,176774,2,0,P|236:81|244:114,2,68.0000012969971
40,284,177274,5,0,0:0:0:0:
36,264,177399,1,0,0:0:0:0:
24,248,177524,2,0,P|92:240|96:308,1,136.000002593994
28,332,177899,1,0,0:0:0:0:
184,276,178024,5,0,0:0:0:0:
192,256,178149,1,0,0:0:0:0:
192,236,178274,1,0,0:0:0:0:
184,216,178399,1,0,0:0:0:0:
124,168,178524,5,0,0:0:0:0:
160,348,178649,2,0,P|232:336|256:272,1,136.000002593994
124,168,179024,1,0,0:0:0:0:
420,104,179274,5,0,0:0:0:0:
404,116,179399,1,0,0:0:0:0:
384,124,179524,2,0,P|340:124|292:48,1,136.000002593994
368,52,179899,1,0,0:0:0:0:
224,24,180024,5,0,0:0:0:0:
220,44,180149,1,0,0:0:0:0:
220,64,180274,1,0,0:0:0:0:
224,84,180399,1,0,0:0:0:0:
264,152,180524,6,0,P|268:192|256:228,1,68.0000012969971
228,284,180774,2,0,P|224:324|236:360,1,68.0000012969971
300,312,181024,6,0,P|340:296|372:300,1,68.0000012969971
436,320,181274,1,0,0:0:0:0:
180,228,181399,6,0,P|140:212|108:216,1,68.0000012969971
44,236,181649,1,0,0:0:0:0:
356,100,181774,6,0,P|396:84|428:88,1,68.0000012969971
492,108,182024,1,0,0:0:0:0:
136,28,182149,6,0,P|96:12|64:16,1,68.0000012969971
0,36,182399,1,0,0:0:0:0:
256,16,182524,5,0,0:0:0:0:
256,16,182649,1,0,0:0:0:0:
256,16,182774,1,0,0:0:0:0:
256,16,182899,1,0,0:0:0:0:
256,16,183024,1,0,0:0:0:0:
156,176,183274,5,0,0:0:0:0:
132,188,183399,1,0,0:0:0:0:
104,188,183524,2,0,P|116:116|160:160,1,136.000002593994
192,208,183899,1,0,0:0:0:0:
52,236,184024,5,0,0:0:0:0:
44,264,184149,1,0,0:0:0:0:
44,292,184274,1,0,0:0:0:0:
52,316,184399,1,0,0:0:0:0:
112,356,184524,6,0,P|144:368|184:364,1,68.0000012969971
192,208,184774,2,0,P|224:196|264:200,2,68.0000012969971
376,84,185274,5,0,0:0:0:0:
400,96,185399,1,0,0:0:0:0:
428,96,185524,2,0,P|416:24|372:68,1,136.000002593994
340,116,185899,1,0,0:0:0:0:
480,144,186024,5,0,0:0:0:0:
488,172,186149,1,0,0:0:0:0:
488,200,186274,1,0,0:0:0:0:
480,224,186399,1,0,0:0:0:0:
496,76,186524,5,0,0:0:0:0:
416,256,186649,2,0,P|388:284|296:256,1,136.000002593994
216,96,187024,1,0,0:0:0:0:
32,244,187274,5,0,0:0:0:0:
24,272,187399,1,0,0:0:0:0:
28,300,187524,2,0,P|100:324|128:264,1,136.000002593994
104,208,187899,1,0,0:0:0:0:
28,152,188024,5,0,0:0:0:0:
20,124,188149,1,0,0:0:0:0:
20,96,188274,1,0,0:0:0:0:
28,72,188399,1,0,0:0:0:0:
88,28,188524,6,0,P|128:12|156:16,1,68.0000012969971
192,184,188774,2,0,P|232:200|260:196,1,68.0000012969971
336,160,189024,6,0,P|352:128|356:84,1,68.0000012969971
256,264,189274,1,0,0:0:0:0:
144,124,189399,6,0,P|128:92|124:48,1,68.0000012969971
256,264,189649,1,0,0:0:0:0:
392,32,189774,6,0,P|424:24|472:40,1,68.0000012969971
256,264,190024,1,0,0:0:0:0:
84,8,190149,6,0,P|52:0|4:16,1,68.0000012969971
256,264,190399,1,0,0:0:0:0:
256,36,190524,5,0,0:0:0:0:
248,112,190649,1,0,0:0:0:0:
240,188,190774,1,0,0:0:0:0:
232,264,190899,1,0,0:0:0:0:
222,342,191024,1,0,0:0:0:0:
32,272,191274,5,0,0:0:0:0:
28,252,191399,1,0,0:0:0:0:
32,232,191524,2,0,P|56:212|108:208,1,80
120,216,191899,1,0,0:0:0:0:
132,200,192024,2,0,P|176:192|220:220,1,80
216,224,192399,1,0,0:0:0:0:
216,244,192524,2,0,P|204:288|228:360,1,120
420,256,193024,5,0,0:0:0:0:
476,184,193274,1,0,0:0:0:0:
480,164,193399,1,0,0:0:0:0:
476,144,193524,2,0,P|452:124|400:120,1,80
388,128,193899,1,0,0:0:0:0:
376,112,194024,2,0,P|332:104|288:132,1,80
292,136,194399,1,0,0:0:0:0:
292,156,194524,2,0,P|296:184|312:200,3,40
256,376,195024,6,0,P|264:332|256:296,1,80
248,280,195399,1,0,0:0:0:0:
256,260,195524,2,0,P|248:216|256:180,1,80
264,164,195899,1,0,0:0:0:0:
256,144,196024,2,0,P|264:100|256:64,1,80
248,48,196399,1,0,0:0:0:0:
232,36,196524,2,0,P|168:20|108:48,1,120
88,108,197024,5,0,0:0:0:0:
88,108,197149,1,0,0:0:0:0:
88,108,197274,1,0,0:0:0:0:
16,168,197524,1,0,0:0:0:0:
112,240,197774,1,0,0:0:0:0:
108,220,197899,1,0,0:0:0:0:
104,200,198024,1,0,0:0:0:0:
180,216,198149,2,0,P|188:260|160:296,1,80
40,284,198524,5,0,0:0:0:0:
40,284,198649,1,0,0:0:0:0:
40,284,198774,1,0,0:0:0:0:
40,284,198899,1,0,0:0:0:0:
104,368,199024,6,0,P|152:372|184:344,1,80
36,352,199399,1,0,0:0:0:0:
232,304,199524,6,0,P|271:332|312:324,1,80
181,255,199899,1,0,0:0:0:0:
372,296,200024,6,0,P|392:339|432:353,1,80
351,229,200399,1,0,0:0:0:0:
392,168,200524,2,0,P|412:108|392:40,1,120
200,44,201024,6,0,P|160:40|172:68,1,80
252,92,201399,1,0,0:0:0:0:
316,128,201524,6,0,P|356:124|344:152,1,80
264,176,201899,1,0,0:0:0:0:
200,224,202024,6,0,P|160:220|172:248,1,80
252,272,202399,1,0,0:0:0:0:
264,340,202524,2,0,P|264:360|256:380,3,40
180,340,203024,6,0,P|132:344|88:312,1,80
252,272,203399,1,0,0:0:0:0:
344,244,203524,6,0,P|392:248|436:216,1,80
268,172,203899,1,0,0:0:0:0:
168,140,204024,6,0,P|120:144|76:112,1,80
244,68,204399,1,0,0:0:0:0:
352,28,204524,2,0,B|432:8|408:48|488:28,1,120
512,96,205024,5,0,0:0:0:0:
380,148,205274,1,0,0:0:0:0:
380,148,205399,1,0,0:0:0:0:
380,148,205524,1,0,0:0:0:0:
488,224,205774,1,0,0:0:0:0:
376,352,206024,5,0,0:0:0:0:
376,352,206149,1,0,0:0:0:0:
376,352,206274,1,0,0:0:0:0:
376,352,206399,1,0,0:0:0:0:
288,312,206524,5,0,0:0:0:0:
156,360,206649,1,0,0:0:0:0:
68,260,206774,1,0,0:0:0:0:
156,360,206899,1,0,0:0:0:0:
8,376,207024,5,0,0:0:0:0:
