osu file format v14

[General]
AudioFilename: audio.mp3
AudioLeadIn: 0
PreviewTime: 39726
Countdown: 0
SampleSet: Soft
StackLeniency: 0.3
Mode: 0
LetterboxInBreaks: 0
WidescreenStoryboard: 0

[Editor]
Bookmarks: 10618,17152
DistanceSpacing: 1.2
BeatDivisor: 8
GridSize: 4
TimelineZoom: 3.499999

[Metadata]
Title:Mousou Express
TitleUnicode:もうそう♡えくすぷれす
Artist:Sengoku Nadeko (CV: Hanazawa Kana)
ArtistUnicode:千石撫子(CV:花澤香菜)
Creator:Net0
Version:Insane
Source:〈物語〉シリーズ セカンドシーズン
Tags:囮物語 Monogatari Series Second Season Otorimonogatari zenbu
BeatmapID:1506690
BeatmapSetID:712842

[Difficulty]
HPDrainRate:6
CircleSize:4
OverallDifficulty:8
ApproachRate:9
SliderMultiplier:3
SliderTickRate:1

[Events]
//Background and Video events
0,0,"62793041_p0.jpg",0,0
//Break Periods
2,79134,85463
2,181313,199522
//Storyboard Layer 0 (Background)
//Storyboard Layer 1 (Fail)
//Storyboard Layer 2 (Pass)
//Storyboard Layer 3 (Foreground)
//Storyboard Sound Samples

[TimingPoints]
519,594.059405940594,4,2,1,50,1,0
519,-100,4,2,1,50,0,0
816,-100,4,2,1,60,0,0
9429,-100,4,2,11,60,0,0
10023,-100,4,2,1,60,0,0
14776,-100,4,2,11,60,0,0
15073,-100,4,2,1,60,0,0
18934,-100,4,2,11,60,0,0
19231,-100,4,2,2,60,0,0
19454,-100,4,2,1,5,0,0
19528,-100,4,2,1,60,0,0
21830,-100,4,2,1,5,0,0
21905,-100,4,2,1,60,0,0
26657,-100,4,2,11,60,0,0
26806,-100,4,2,1,60,0,0
31335,-100,4,2,1,5,0,0
31410,-100,4,2,1,60,0,0
33712,-100,4,2,1,5,0,0
33786,-100,4,2,1,60,0,0
36162,-100,4,2,11,60,0,0
36311,-100,4,2,1,60,0,0
39132,-100,4,2,11,60,0,0
39281,-100,4,2,1,60,0,0
40543,-100,4,2,1,5,0,0
40618,-100,4,2,2,60,0,0
40840,-100,4,2,2,5,0,0
40915,-100,4,2,1,60,0,0
45667,-100,4,2,11,60,0,0
45816,-100,4,2,1,60,0,0
48043,-100,4,2,11,60,0,0
48192,-100,4,2,1,60,0,0
48934,-100,4,2,21,60,0,0
49083,-100,4,2,1,60,0,0
57548,-100,4,2,11,60,0,0
57697,-100,4,2,1,60,0,0
58439,-100,4,2,21,60,0,0
58588,-100,4,2,1,60,0,0
59924,-90.9090909090909,4,2,1,70,0,1
64231,-90.9090909090909,4,2,2,70,0,1
64380,-90.9090909090909,4,2,1,70,0,1
67053,-90.9090909090909,4,2,2,70,0,1
67499,-90.9090909090909,4,2,3,70,0,1
67944,-90.9090909090909,4,2,2,70,0,1
68390,-90.9090909090909,4,2,3,70,0,1
68835,-90.9090909090909,4,2,2,70,0,1
69132,-90.9090909090909,4,2,1,70,0,1
73736,-90.9090909090909,4,2,2,70,0,1
73885,-90.9090909090909,4,2,1,70,0,1
76558,-90.9090909090909,4,2,2,70,0,1
77004,-90.9090909090909,4,2,3,70,0,1
77449,-90.9090909090909,4,2,2,70,0,1
77895,-90.9090909090909,4,2,3,70,0,1
78340,-90.9090909090909,4,2,2,70,0,1
78637,-90.9090909090909,4,2,1,70,0,1
78934,-100,4,2,1,60,0,0
87845,-100,4,2,11,60,0,0
88142,-100,4,2,1,60,0,0
93192,-100,4,2,11,60,0,0
93489,-100,4,2,1,60,0,0
97350,-100,4,2,11,60,0,0
97647,-100,4,2,2,60,0,0
97944,-100,4,2,1,60,0,0
105073,-100,4,2,11,60,0,0
105221,-100,4,2,1,60,0,0
112127,-100,4,2,1,5,0,0
112202,-100,4,2,1,60,0,0
114578,-100,4,2,11,60,0,0
114726,-100,4,2,1,60,0,0
117548,-100,4,2,11,60,0,0
117697,-100,4,2,1,60,0,0
118959,-100,4,2,1,5,0,0
119033,-100,4,2,2,60,0,0
119256,-100,4,2,2,5,0,0
119330,-100,4,2,1,60,0,0
124083,-100,4,2,11,60,0,0
124231,-100,4,2,1,60,0,0
126459,-100,4,2,11,60,0,0
126608,-100,4,2,1,60,0,0
127350,-100,4,2,21,60,0,0
127499,-100,4,2,1,60,0,0
135964,-100,4,2,11,60,0,0
136113,-100,4,2,1,60,0,0
136855,-100,4,2,21,60,0,0
137004,-100,4,2,1,60,0,0
138340,-90.9090909090909,4,2,1,70,0,1
142647,-90.9090909090909,4,2,2,70,0,1
142796,-90.9090909090909,4,2,1,70,0,1
145469,-90.9090909090909,4,2,2,70,0,1
145915,-90.9090909090909,4,2,3,70,0,1
146360,-90.9090909090909,4,2,2,70,0,1
146806,-90.9090909090909,4,2,3,70,0,1
147251,-90.9090909090909,4,2,2,70,0,1
147548,-90.9090909090909,4,2,1,70,0,1
152152,-90.9090909090909,4,2,2,70,0,1
152301,-90.9090909090909,4,2,1,70,0,1
154974,-90.9090909090909,4,2,2,70,0,1
155419,-90.9090909090909,4,2,3,70,0,1
155865,-90.9090909090909,4,2,2,70,0,1
156311,-90.9090909090909,4,2,3,70,0,1
156756,-90.9090909090909,4,2,2,70,0,1
157053,-90.9090909090909,4,2,1,70,0,1
157350,-111.111111111111,4,2,1,60,0,0
161360,-111.111111111111,4,2,1,5,0,0
162103,-142.857142857143,4,2,1,60,0,0
200717,-83.3333333333333,4,2,1,60,0,0
201459,-100,4,2,1,60,0,0
202202,-100,4,2,2,60,0,0
202499,-83.3333333333333,4,2,1,70,0,1
206806,-83.3333333333333,4,2,2,70,0,1
206954,-83.3333333333333,4,2,1,70,0,1
209627,-83.3333333333333,4,2,2,70,0,1
210073,-83.3333333333333,4,2,3,70,0,1
210519,-83.3333333333333,4,2,2,70,0,1
210964,-83.3333333333333,4,2,3,70,0,1
211410,-83.3333333333333,4,2,2,70,0,1
211707,-83.3333333333333,4,2,1,70,0,1
216311,-83.3333333333333,4,2,2,70,0,1
216459,-83.3333333333333,4,2,1,70,0,1
219132,-83.3333333333333,4,2,2,70,0,1
219578,-83.3333333333333,4,2,3,70,0,1
220023,-83.3333333333333,4,2,2,70,0,1
220469,-83.3333333333333,4,2,3,70,0,1
220915,-83.3333333333333,4,2,2,70,0,1
221212,-83.3333333333333,4,2,1,70,0,1
221509,-90.9090909090909,4,2,1,70,0,1
225816,-90.9090909090909,4,2,2,70,0,1
225964,-90.9090909090909,4,2,1,70,0,1
228637,-90.9090909090909,4,2,2,70,0,1
229083,-90.9090909090909,4,2,3,70,0,1
229528,-90.9090909090909,4,2,2,70,0,1
229974,-90.9090909090909,4,2,3,70,0,1
230419,-90.9090909090909,4,2,2,70,0,1
230717,-90.9090909090909,4,2,1,70,0,1
235320,-90.9090909090909,4,2,2,70,0,1
235469,-90.9090909090909,4,2,1,70,0,1
238142,-90.9090909090909,4,2,2,70,0,1
238588,-90.9090909090909,4,2,3,70,0,1
239033,-90.9090909090909,4,2,2,70,0,1
239330,-50,4,2,1,70,0,1
239405,-50,4,2,1,30,0,1
239924,-90.9090909090909,4,2,1,70,0,1
240370,-90.9090909090909,4,2,2,70,0,1
240519,-100,4,2,1,60,0,0
248835,-100,4,2,2,60,0,0
248984,-100,4,2,1,60,0,0
249132,-100,4,2,2,60,0,0
249429,-100,4,2,1,60,0,0
258934,-100,4,2,11,60,0,0

[Colours]
Combo1 : 112,0,223
Combo2 : 167,54,97
Combo3 : 139,54,69
Combo4 : 208,98,120
Combo5 : 237,28,57
Combo6 : 128,0,0
Combo7 : 255,0,0
Combo8 : 145,34,255

[HitObjects]
85,353,519,6,0,P|48:362|3:367,1,75,2|0,0:0|0:0,0:0:0:0:
69,263,816,2,0,P|105:253|150:248,1,75,0|0,0:0|0:0,0:0:0:0:
265,159,1113,2,0,P|229:168|192:173,1,75,8|0,0:0|0:0,0:0:0:0:
120,117,1410,1,0,0:0:0:0:
142,248,1558,2,0,P|150:284|155:321,2,75,2|0|0,0:0|0:0|0:0,0:0:0:0:
142,248,2152,1,2,0:0:0:0:
192,173,2301,1,8,0:0:0:0:
120,117,2449,1,0,0:0:0:0:
70,192,2598,2,0,P|61:228|56:265,1,75,0|0,0:0|0:0,0:0:0:0:
155,321,2895,6,0,P|191:312|228:307,1,75,2|0,0:0|0:0,0:0:0:0:
329,319,3192,2,0,P|310:286|296:251,1,75,0|0,0:0|0:0,0:0:0:0:
312,96,3489,2,0,P|330:128|344:163,1,75,8|0,0:0|0:0,0:0:0:0:
219,171,3786,1,0,0:0:0:0:
431,220,3934,2,0,P|468:215|504:206,2,75,2|0|0,0:0|0:0|0:0,0:0:0:0:
344,163,4380,1,0,0:0:0:0:
296,251,4528,2,0,P|259:256|223:265,1,75,2|8,0:0|0:0,0:0:0:0:
222,265,4974,1,2,0:3:0:0:
211,163,5122,1,0,0:0:0:0:
342,88,5271,102,0,P|345:126|342:171,1,75,2|0,0:0|0:0,0:0:0:0:
255,104,5568,2,0,P|252:66|255:21,1,75,0|0,0:0|0:0,0:0:0:0:
432,145,5865,2,0,P|433:182|431:220,1,75,8|0,0:0|0:0,0:0:0:0:
255,220,6162,1,0,0:0:0:0:
430,53,6311,2,0,P|467:51|504:54,2,75,2|0|0,0:0|0:0|0:0,0:0:0:0:
430,53,6905,1,2,0:0:0:0:
342,88,7053,1,8,0:0:0:0:
432,145,7202,1,0,0:0:0:0:
344,180,7350,2,0,P|306:175|270:166,1,75,0|0,0:0|0:0,0:0:0:0:
151,135,7647,6,0,P|186:123|221:108,1,75,2|0,0:0|0:0,0:0:0:0:
111,65,7944,2,0,P|75:76|40:91,1,75,2|0,0:0|0:0,0:0:0:0:
38,180,8241,2,0,P|74:191|109:206,1,75,8|0,0:0|0:0,0:0:0:0:
168,272,8538,1,0,0:0:0:0:
220,108,8687,1,2,0:0:0:0:
220,108,8984,21,0,0:0:0:0:
224,96,9132,1,0,0:0:0:0:
228,84,9281,1,0,0:0:0:0:
232,72,9429,1,10,0:0:0:0:
38,180,10023,70,0,P|65:245|87:323,1,150,6|0,0:0|1:0,0:0:0:0:
239,248,10618,2,0,P|203:258|167:272,1,75,8|0,0:0|0:0,0:0:0:0:
168,272,11063,1,0,0:0:0:0:
273,136,11212,1,2,0:3:0:0:
273,136,11509,2,0,P|310:136|348:141,1,75,2|0,0:0|0:0,0:0:0:0:
135,135,11806,2,0,P|125:99|120:61,1,75,8|0,0:0|0:0,0:0:0:0:
348,141,12103,1,0,0:0:0:0:
348,141,12400,2,0,P|419:114|491:92,2,150,2|0|8,1:2|0:0|0:0,0:0:0:0:
233,78,13439,5,0,0:0:0:0:
233,78,13588,2,0,P|236:115|238:152,2,75,2|0|0,0:0|0:0|0:0,0:0:0:0:
145,218,14033,1,0,1:0:0:0:
310,338,14182,2,0,P|350:351|380:342,1,75,8|0,0:0|0:0,0:0:0:0:
349,231,14479,2,0,P|381:242|404:276,1,75,2|0,1:2|0:0,0:0:0:0:
288,268,14776,102,0,P|219:241|145:218,1,150,4|0,0:0|0:0,0:0:0:0:
27,194,15370,2,0,P|51:221|75:251,1,75,8|0,0:0|0:0,0:0:0:0:
75,251,15816,1,0,0:0:0:0:
154,61,15964,2,0,P|129:88|105:118,1,75,2|0,0:3|0:0,0:0:0:0:
105,118,16410,1,0,0:0:0:0:
368,93,16558,2,0,P|298:115|226:143,1,150,8|0,0:0|0:0,0:0:0:0:
216,240,17004,1,0,1:0:0:0:
435,164,17152,5,2,1:2:0:0:
435,164,17449,2,0,P|434:202|430:239,1,75,2|0,0:0|0:0,0:0:0:0:
343,379,17746,2,0,P|340:342|338:305,1,75,8|0,0:0|0:0,0:0:0:0:
346,220,18043,1,0,0:0:0:0:
153,316,18192,1,2,0:0:0:0:
153,316,18489,21,0,0:0:0:0:
142,323,18637,1,0,0:0:0:0:
131,330,18786,1,0,0:0:0:0:
121,337,18934,1,8,1:2:0:0:
41,332,19231,2,0,P|1:348|43:360,1,112.5,2|0,0:0|0:0,0:0:0:0:
111,344,19528,70,0,P|138:279|160:201,1,150,4|0,0:0|0:0,0:0:0:0:
120,129,19974,1,0,0:0:0:0:
45,164,20122,2,0,P|31:196|20:235,1,75,8|0,0:0|0:0,0:0:0:0:
159,202,20419,2,0,P|192:192|230:177,1,75,0|0,0:0|0:0,0:0:0:0:
367,160,20717,2,0,P|306:124|242:75,2,150,2|0|8,0:0|0:0|0:0,0:0:0:0:
367,160,21608,2,0,P|408:185|365:226,1,112.5,2|0,0:0|0:0,0:0:0:0:
303,233,21905,6,0,P|259:289|218:358,1,150,2|0,0:0|0:0,0:0:0:0:
135,363,22350,1,0,0:0:0:0:
127,281,22499,2,0,P|145:250|170:218,1,75,8|0,0:0|0:0,0:0:0:0:
242,175,22796,1,0,0:0:0:0:
95,178,22944,2,0,P|61:164|26:145,2,75,2|0|0,0:0|0:0|0:0,0:0:0:0:
95,178,23538,1,2,0:0:0:0:
242,175,23687,2,0,P|275:161|310:142,1,75,8|0,0:0|0:0,0:0:0:0:
403,30,23984,2,0,P|369:43|334:62,1,75,2|0,0:0|0:0,0:0:0:0:
449,233,24281,6,0,P|458:302|459:381,1,150,2|0,0:0|0:0,0:0:0:0:
377,345,24726,1,0,0:0:0:0:
298,306,24875,2,0,P|293:270|292:229,2,75,8|0|0,0:0|0:0|0:0,0:0:0:0:
449,233,25320,2,0,P|420:211|385:190,1,75,2|0,0:0|0:0,0:0:0:0:
306,139,25618,2,0,P|337:121|370:96,1,75,2|0,0:0|0:0,0:0:0:0:
228,94,25915,2,0,P|196:111|163:136,1,75,2|8,0:0|0:0,0:0:0:0:
305,27,26212,1,2,0:0:0:0:
306,139,26361,1,2,0:0:0:0:
192,208,26509,1,2,0:0:0:0:
92,12,26657,6,0,P|122:31|159:49,1,75,4|0,0:0|0:0,0:0:0:0:
227,21,26954,1,0,0:0:0:0:
103,101,27103,1,0,0:0:0:0:
227,21,27251,2,0,P|302:50|373:103,1,150,8|0,0:0|0:0,0:0:0:0:
498,152,27697,2,0,P|455:90|429:20,1,150,2|0,0:0|0:0,0:0:0:0:
400,187,28142,2,0,P|378:217|349:241,1,75,0|0,0:0|0:0,0:0:0:0:
260,335,28439,2,0,P|294:319|330:312,1,75,8|0,0:0|0:0,0:0:0:0:
471,364,28736,2,0,P|433:360|398:347,1,75,2|0,0:0|0:0,0:0:0:0:
241,138,29033,70,0,P|271:159|295:188,1,75,6|0,0:0|0:0,0:0:0:0:
349,241,29330,1,0,0:0:0:0:
330,311,29479,1,0,0:0:0:0:
419,220,29627,1,8,0:0:0:0:
169,110,29924,6,0,P|155:145|134:175,1,75,0|0,0:0|0:0,0:0:0:0:
241,138,30221,2,0,P|275:122|311:115,1,75,2|0,0:0|0:0,0:0:0:0:
399,92,30518,1,0,0:0:0:0:
460,154,30667,1,0,0:0:0:0:
420,4,30815,1,8,0:0:0:0:
213,310,31113,2,0,P|220:358|161:351,1,112.5,0|0,0:0|0:0,0:0:0:0:
98,354,31410,6,0,P|90:277|64:206,1,150,2|0,0:0|0:0,0:0:0:0:
15,134,31855,1,0,0:0:0:0:
105,129,32004,2,0,P|141:137|178:136,1,75,8|0,0:0|0:0,0:0:0:0:
268,131,32301,1,0,0:0:0:0:
384,56,32449,2,0,P|347:47|310:48,2,75,2|0|0,0:0|0:0|0:0,0:0:0:0:
218,50,32895,1,0,0:0:0:0:
500,13,33192,2,0,P|484:43|470:83,1,75,8|0,0:0|0:0,0:0:0:0:
371,212,33489,2,0,P|332:243|304:201,1,112.5,2|0,0:0|0:0,0:0:0:0:
232,199,33786,6,0,P|154:198|81:217,1,150,2|0,0:0|0:0,0:0:0:0:
44,296,34231,1,0,0:0:0:0:
124,340,34380,2,0,P|160:348|197:348,1,75,8|0,0:0|0:0,0:0:0:0:
288,348,34677,1,0,0:0:0:0:
371,212,34825,2,0,P|339:233|317:262,1,75,2|0,0:0|0:0,0:0:0:0:
228,240,35122,2,0,P|234:203|249:170,1,75,2|0,0:0|0:0,0:0:0:0:
123,194,35419,2,0,P|127:231|141:265,1,75,2|8,0:0|0:0,0:0:0:0:
378,140,35717,2,0,P|393:105|398:67,2,75,2|2|2,0:0|0:0|0:0,0:0:0:0:
169,114,36162,102,0,P|243:129|310:163,1,150,4|0,0:0|0:0,0:0:0:0:
229,241,36608,1,0,0:0:0:0:
439,182,36756,2,0,P|469:159|491:130,1,75,8|0,0:0|0:0,0:0:0:0:
398,68,37053,1,0,0:0:0:0:
371,212,37202,2,0,P|356:285|361:359,2,150,2|2|2,0:0|0:0|0:0,0:0:0:0:
229,241,37944,2,0,P|166:282|117:338,1,150,8|0,0:0|0:0,0:0:0:0:
117,338,38538,6,0,P|187:314|262:310,1,150,4|0,0:0|1:0,0:0:0:0:
361,359,38984,1,0,0:0:0:0:
301,222,39132,2,0,P|288:186|287:149,1,75,12|0,0:1|0:0,0:0:0:0:
227,12,39429,2,0,P|239:47|240:84,1,75,0|8,1:0|0:0,0:0:0:0:
159,154,39726,1,8,0:0:0:0:
369,80,39875,1,8,0:1:0:0:
380,80,40320,6,0,P|436:84|488:104,1,112.5,10|0,0:0|0:0,0:0:0:0:
476,192,40618,2,0,P|503:223|500:180,1,112.5,2|0,0:0|0:0,0:0:0:0:
397,159,40915,86,0,P|374:231|379:305,1,150,6|0,0:0|1:0,0:0:0:0:
486,331,41360,1,2,0:0:0:0:
277,345,41509,2,0,P|201:341|131:365,1,150,8|0,0:0|0:0,0:0:0:0:
40,243,41954,2,0,P|67:268|84:301,1,75,8|0,0:0|0:0,0:0:0:0:
94,163,42251,2,0,P|66:137|49:104,1,75,8|0,0:0|0:0,0:0:0:0:
78,36,42548,1,2,0:0:0:0:
258,36,42697,2,0,P|184:52|122:93,1,150,8|0,0:0|1:0,0:0:0:0:
238,181,43142,1,8,0:0:0:0:
329,67,43291,6,0,P|405:71|475:47,2,150,2|0|8,1:2|1:0|0:0,0:0:0:0:
329,67,44182,1,0,0:0:0:0:
238,181,44330,1,8,0:0:0:0:
225,199,44627,1,8,0:0:0:0:
392,180,44776,1,2,1:2:0:0:
212,217,44924,2,0,P|184:191|167:158,2,75,0|8|0,1:0|0:0|0:0,0:0:0:0:
395,328,45370,2,0,P|377:294|350:269,1,75,0|8,1:0|0:0,0:0:0:0:
101,282,45667,102,0,P|165:320|238:334,1,150,6|0,0:0|1:0,0:0:0:0:
350,269,46113,1,2,0:0:0:0:
131,218,46261,2,0,P|93:153|79:80,1,150,8|0,0:0|0:0,0:0:0:0:
289,34,46707,2,0,P|224:71|151:85,1,150,10|8,0:0|0:0,0:0:0:0:
277,186,47152,2,0,P|304:167|333:137,1,75,0|0,1:0|0:0,0:0:0:0:
454,142,47449,2,0,P|445:178|430:213,1,75,8|0,0:0|0:0,0:0:0:0:
263,306,47746,2,0,P|300:302|336:292,1,75,2|8,0:0|0:0,0:0:0:0:
478,270,48043,5,6,0:0:0:0:
357,220,48192,1,2,0:0:0:0:
263,306,48340,1,2,1:2:0:0:
383,355,48489,2,0,P|419:365|457:369,2,75,2|8|2,0:0|0:0|0:0,0:0:0:0:
284,234,48934,1,4,0:0:0:0:
248,379,49083,2,0,P|258:343|262:305,1,75,8|0,0:0|0:0,0:0:0:0:
248,102,49380,2,0,P|237:137|233:175,2,75,8|0|0,0:0|0:0|1:0,0:0:0:0:
433,168,49825,2,0,P|471:152|489:126,1,75,8|0,0:1|0:0,0:0:0:0:
393,60,50122,2,0,P|424:47|464:59,1,75,2|0,1:2|0:0,0:0:0:0:
372,128,50419,102,0,P|297:138|232:175,1,150,6|0,0:0|1:0,0:0:0:0:
322,212,50865,1,2,0:0:0:0:
156,245,51014,2,0,P|145:171|109:106,1,150,8|0,0:0|0:0,0:0:0:0:
17,198,51459,2,0,P|39:227|71:246,1,75,8|0,0:0|0:0,0:0:0:0:
178,365,51756,2,0,P|155:335|123:316,1,75,8|0,0:0|0:0,0:0:0:0:
40,327,52053,1,2,0:0:0:0:
216,290,52202,2,0,P|289:279|354:243,1,150,8|0,0:0|1:0,0:0:0:0:
372,128,52647,1,8,0:0:0:0:
244,166,52796,6,0,P|207:101|197:27,2,150,2|0|8,1:2|1:0|0:0,0:0:0:0:
244,166,53687,1,0,0:0:0:0:
389,189,53835,1,8,0:0:0:0:
409,192,54132,1,8,0:0:0:0:
289,281,54281,1,2,1:2:0:0:
431,197,54429,2,0,P|449:164|454:127,2,75,0|8|0,1:0|0:0|0:0,0:0:0:0:
316,177,54875,1,0,1:0:0:0:
408,300,55023,1,8,0:0:0:0:
217,298,55172,102,0,P|281:260|354:246,1,150,4|0,1:2|1:0,0:0:0:0:
408,300,55618,1,2,0:0:0:0:
220,381,55766,2,0,P|147:366|83:327,1,150,8|0,0:0|0:0,0:0:0:0:
193,126,56212,2,0,P|178:198|139:262,1,150,8|8,0:0|0:0,0:0:0:0:
73,131,56657,2,0,P|100:105|123:75,1,75,0|0,1:0|0:0,0:0:0:0:
280,136,56954,2,0,P|294:170|303:206,1,75,8|0,0:0|0:0,0:0:0:0:
163,333,57251,2,0,P|148:298|139:262,1,75,2|0,1:2|0:0,0:0:0:0:
210,199,57548,5,4,0:0:0:0:
304,206,57697,1,2,0:0:0:0:
345,291,57845,1,2,1:2:0:0:
292,370,57994,2,0,P|255:378|218:381,2,75,2|8|2,0:0|0:0|0:0,0:0:0:0:
345,291,58439,1,4,0:0:0:0:
250,284,58588,1,0,1:0:0:0:
399,213,58736,6,0,P|435:204|472:201,1,75,8|0,0:0|0:0,0:0:0:0:
250,284,59033,2,0,P|214:271|181:253,1,75,0|0,1:0|0:0,0:0:0:0:
304,206,59330,2,0,P|305:168|313:132,1,75,8|0,0:1|0:0,0:0:0:0:
217,380,59627,2,0,P|254:370|291:368,1,75,2|0,3:0|0:0,0:0:0:0:
97,360,59924,6,0,P|105:319|111:277,1,82.5000025177003,6|0,0:1|0:0,0:0:0:0:
132,192,60221,1,0,1:0:0:0:
71,127,60370,1,2,0:0:0:0:
222,191,60519,2,0,P|262:199|304:205,1,82.5000025177003,8|0,0:1|0:0,0:0:0:0:
303,204,60964,1,0,1:0:0:0:
110,278,61113,2,0,P|69:273|27:265,2,82.5000025177003,2|0|0,0:0|1:0|0:0,0:0:0:0:
233,298,61558,1,2,1:2:0:0:
384,192,61707,2,0,P|342:196|302:203,1,82.5000025177003,8|0,0:1|0:0,0:0:0:0:
169,112,62004,2,0,P|176:71|180:30,1,82.5000025177003,2|8,0:0|0:0,0:0:0:0:
132,192,62301,5,4,1:2:0:0:
132,192,62598,2,0,P|91:184|50:181,1,82.5000025177003,0|2,1:0|0:0,0:0:0:0:
233,298,62895,2,0,P|273:305|314:308,1,82.5000025177003,8|0,0:0|0:0,0:0:0:0:
314,308,63340,1,0,1:0:0:0:
485,210,63489,2,0,P|443:213|403:222,2,82.5000025177003,2|0|0,0:0|1:0|0:0,0:0:0:0:
471,116,63934,1,2,1:2:0:0:
330,213,64083,1,8,0:1:0:0:
316,119,64231,2,0,P|365:66|384:134,1,165.000005035401,2|8,0:0|0:0,0:0:0:0:
233,298,64677,102,0,P|229:339|222:379,1,82.5000025177003,4|0,1:0|0:0,0:0:0:0:
140,322,64974,1,0,1:0:0:0:
58,265,65122,1,2,0:0:0:0:
249,203,65271,2,0,P|289:210|330:213,1,82.5000025177003,8|0,0:1|0:0,0:0:0:0:
330,213,65717,1,0,1:0:0:0:
170,129,65865,2,0,P|130:122|89:119,2,82.5000025177003,0|0|0,0:0|1:0|0:0,0:0:0:0:
157,230,66311,1,2,1:2:0:0:
316,119,66459,2,0,P|324:79|328:38,1,82.5000025177003,8|0,0:1|0:0,0:0:0:0:
428,183,66756,2,0,P|455:152|479:119,1,82.5000025177003,2|8,0:0|0:0,0:0:0:0:
243,221,67053,102,0,P|217:289|200:379,1,165.000005035401,4|0,1:0|1:0,0:0:0:0:
334,166,67499,38,0,P|359:96|377:8,1,165.000005035401,4|0,1:0|0:0,0:0:0:0:
316,239,67944,86,0,P|385:264|474:282,1,165.000005035401,12|0,0:0|0:0,0:0:0:0:
261,148,68390,6,0,P|192:122|102:105,1,165.000005035401,12|0,0:0|0:0,0:0:0:0:
177,287,68835,1,8,0:1:0:0:
177,287,68984,2,0,P|157:219|101:262,1,165.000005035401,2|0,0:0|0:0,0:0:0:0:
356,384,69429,102,0,P|366:343|379:303,1,82.5000025177003,4|0,0:1|0:0,0:0:0:0:
397,215,69726,1,0,1:0:0:0:
481,185,69875,1,2,0:0:0:0:
316,176,70024,2,0,P|276:165|236:152,1,82.5000025177003,8|0,0:1|0:0,0:0:0:0:
237,153,70469,1,0,1:0:0:0:
406,67,70618,2,0,P|447:67|489:71,2,82.5000025177003,2|0|0,0:0|1:0|0:0,0:0:0:0:
254,32,71063,1,2,1:2:0:0:
316,176,71212,2,0,P|305:215|292:255,1,82.5000025177003,8|0,0:1|0:0,0:0:0:0:
205,360,71509,2,0,P|244:370|284:382,1,82.5000025177003,2|0,0:0|0:0,0:0:0:0:
160,242,71806,5,4,1:2:0:0:
160,242,72103,2,0,P|147:280|137:322,1,82.5000025177003,0|0,1:0|0:0,0:0:0:0:
85,157,72400,2,0,P|46:144|4:134,1,82.5000025177003,8|0,0:1|0:0,0:0:0:0:
5,134,72845,1,0,1:0:0:0:
157,47,72994,2,0,P|195:34|237:24,2,82.5000025177003,2|0|0,0:0|1:0|0:0,0:0:0:0:
77,24,73439,1,2,1:2:0:0:
316,47,73588,1,8,0:1:0:0:
276,199,73736,2,0,P|218:160|281:122,1,165.000005035401,2|0,0:0|0:0,0:0:0:0:
352,305,74182,102,0,P|365:342|375:384,1,82.5000025177003,4|0,1:0|0:0,0:0:0:0:
273,350,74479,1,0,1:0:0:0:
178,318,74627,1,2,0:0:0:0:
442,301,74776,2,0,P|477:282|513:258,1,82.5000025177003,8|0,0:1|0:0,0:0:0:0:
512,258,75221,1,0,1:0:0:0:
249,276,75370,2,0,P|213:294|177:318,2,82.5000025177003,2|0|0,0:0|1:0|0:0,0:0:0:0:
329,205,75816,1,2,1:2:0:0:
153,120,75964,2,0,P|142:159|137:200,1,82.5000025177003,8|0,0:1|0:0,0:0:0:0:
6,135,76261,2,0,P|14:95|26:56,1,82.5000025177003,2|0,0:0|0:0,0:0:0:0:
0,218,76558,102,0,P|5:292|28:381,1,165.000005035401,4|0,1:0|0:0,0:0:0:0:
153,120,77004,38,0,P|138:193|138:285,1,165.000005035401,4|0,1:0|0:0,0:0:0:0:
326,65,77449,86,0,P|293:132|268:221,1,165.000005035401,12|0,0:0|0:0,0:0:0:0:
507,56,77895,6,0,P|458:112|411:191,1,165.000005035401,12|0,0:0|0:0,0:0:0:0:
333,357,78340,1,8,0:1:0:0:
333,357,78489,2,0,P|352:289|408:332,1,165.000005035401,2|0,0:0|0:0,0:0:0:0:
137,283,78934,101,4,0:1:0:0:
232,134,86063,53,2,0:0:0:0:
232,134,86360,2,0,P|215:167|203:203,1,75,2|0,0:0|0:0,0:0:0:0:
223,344,86657,2,0,P|257:331|292:314,2,75,8|0|0,0:0|0:0|0:0,0:0:0:0:
404,250,87103,1,2,0:0:0:0:
404,250,87400,21,0,0:0:0:0:
392,246,87548,1,0,0:0:0:0:
380,242,87697,1,0,0:0:0:0:
368,238,87845,2,0,P|334:221|298:209,1,75,10|0,0:0|0:0,0:0:0:0:
376,79,88142,2,0,P|392:112|404:148,1,75,8|0,0:3|0:0,0:0:0:0:
482,316,88439,70,0,P|409:336|340:364,1,150,6|0,0:0|1:0,0:0:0:0:
298,209,89033,2,0,P|314:175|326:139,1,75,8|0,0:0|0:0,0:0:0:0:
326,139,89479,1,0,0:0:0:0:
136,216,89627,1,2,0:3:0:0:
136,216,89924,2,0,P|107:238|75:260,1,75,2|0,0:0|0:0,0:0:0:0:
133,81,90221,2,0,P|168:92|202:109,1,75,8|0,0:0|0:0,0:0:0:0:
368,238,90519,1,0,1:0:0:0:
368,238,90816,2,0,P|440:217|509:189,2,150,2|0|8,1:2|0:0|0:0,0:0:0:0:
273,352,91855,5,0,0:0:0:0:
273,352,92004,2,0,P|276:315|278:278,2,75,2|0|0,0:0|0:0|0:0,0:0:0:0:
206,183,92449,1,0,1:0:0:0:
402,143,92598,2,0,P|438:121|450:92,1,75,8|0,0:0|0:0,0:0:0:0:
345,40,92895,2,0,P|374:23|415:28,1,75,2|0,1:2|0:0,0:0:0:0:
338,111,93192,102,0,P|274:149|205:185,1,150,4|0,0:0|0:0,0:0:0:0:
121,152,93637,1,0,0:0:0:0:
320,216,93786,2,0,P|352:232|388:244,1,75,8|0,0:0|0:0,0:0:0:0:
389,244,94231,1,0,0:0:0:0:
230,304,94380,2,0,P|198:320|162:332,1,75,2|0,0:3|0:0,0:0:0:0:
161,332,94825,1,0,0:0:0:0:
53,170,94974,2,0,P|27:240|5:314,1,150,8|0,0:0|0:0,0:0:0:0:
49,367,95419,1,0,1:0:0:0:
121,152,95568,5,2,1:2:0:0:
121,152,95865,2,0,P|158:155|195:157,1,75,2|0,0:0|0:0,0:0:0:0:
366,35,96162,2,0,P|328:36|291:40,1,75,8|0,0:0|0:0,0:0:0:0:
207,65,96459,1,0,0:0:0:0:
252,249,96608,1,2,0:0:0:0:
252,249,96905,21,0,0:0:0:0:
256,261,97053,1,0,0:0:0:0:
260,273,97202,1,0,0:0:0:0:
264,285,97350,2,0,P|281:319|293:355,1,75,8|0,1:2|0:0,0:0:0:0:
435,266,97647,2,0,P|397:267|360:275,1,75,2|0,0:0|0:0,0:0:0:0:
347,179,97944,70,0,P|339:141|337:103,2,75,4|0|0,0:0|0:0|0:0,0:0:0:0:
366,35,98390,1,0,0:0:0:0:
434,145,98538,2,0,P|471:152|509:154,1,75,8|0,0:0|0:0,0:0:0:0:
480,43,98835,1,0,0:0:0:0:
366,35,98984,1,0,0:0:0:0:
264,86,99132,2,0,P|226:88|189:97,2,75,2|0|0,0:0|0:0|0:0,0:0:0:0:
347,179,99578,1,0,0:0:0:0:
136,208,99726,1,8,0:0:0:0:
135,208,100023,2,0,P|119:172|107:137,1,75,2|0,0:0|0:0,0:0:0:0:
31,298,100320,6,0,P|101:325|173:345,1,150,2|0,0:0|0:0,0:0:0:0:
252,301,100766,1,0,0:0:0:0:
207,226,100915,2,0,P|170:219|135:208,1,75,8|0,0:0|0:0,0:0:0:0:
107,138,101212,1,0,0:0:0:0:
265,180,101360,2,0,P|298:162|330:142,2,75,2|0|0,0:0|0:0|0:0,0:0:0:0:
265,180,101954,1,2,0:0:0:0:
107,138,102103,2,0,P|73:120|41:100,1,75,8|0,0:0|0:0,0:0:0:0:
108,308,102400,2,0,P|141:325|173:345,1,75,2|0,0:0|0:0,0:0:0:0:
384,195,102697,6,0,P|357:265|337:337,1,150,2|0,0:0|0:0,0:0:0:0:
407,379,103142,1,0,0:0:0:0:
479,338,103291,2,0,P|493:303|504:267,2,75,8|0|0,0:0|0:0|0:0,0:0:0:0:
384,195,103736,2,0,P|369:160|358:124,1,75,2|0,0:0|0:0,0:0:0:0:
281,38,104033,2,0,P|317:46|354:51,1,75,2|0,0:0|0:0,0:0:0:0:
512,122,104330,2,0,P|474:126|438:134,1,75,2|8,0:0|0:0,0:0:0:0:
358,124,104627,1,2,0:0:0:0:
319,234,104776,1,2,0:0:0:0:
227,168,104924,1,2,0:0:0:0:
417,304,105073,6,0,P|413:341|406:378,1,75,4|0,0:0|0:0,0:0:0:0:
331,378,105370,1,0,0:0:0:0:
442,235,105518,1,0,0:0:0:0:
331,378,105667,2,0,P|260:350|188:330,1,150,8|0,0:0|0:0,0:0:0:0:
37,228,106113,2,0,P|73:294|103:362,1,150,2|0,0:0|0:0,0:0:0:0:
135,203,106558,2,0,P|150:168|161:132,1,75,0|0,0:0|0:0,0:0:0:0:
0,108,106855,2,0,P|35:120|70:135,1,75,8|0,0:0|0:0,0:0:0:0:
182,33,107152,2,0,P|147:47|112:59,1,75,2|0,0:0|0:0,0:0:0:0:
293,145,107449,70,0,P|327:131|363:120,1,75,6|0,0:0|0:0,0:0:0:0:
462,100,107746,2,0,P|432:77|405:51,1,75,0|0,0:0|0:0,0:0:0:0:
429,189,108043,1,8,0:0:0:0:
429,189,108340,2,0,P|458:211|485:237,1,75,0|0,0:0|0:0,0:0:0:0:
322,285,108637,6,0,P|326:248|335:211,1,75,2|0,0:0|0:0,0:0:0:0:
363,119,108934,2,0,P|329:133|293:144,2,75,0|0|8,0:0|0:0|0:0,0:0:0:0:
329,21,109380,2,0,P|255:42|187:69,1,150,0|0,0:0|0:0,0:0:0:0:
91,11,109825,6,0,P|109:84|120:157,1,150,2|0,0:0|0:0,0:0:0:0:
27,157,110271,1,0,0:0:0:0:
162,238,110419,2,0,P|194:255|225:276,1,75,8|0,0:0|0:0,0:0:0:0:
203,371,110717,1,0,0:0:0:0:
322,285,110865,2,0,P|356:274|393:267,2,75,2|0|0,0:0|0:0|0:0,0:0:0:0:
317,382,111311,1,0,0:0:0:0:
487,299,111608,2,0,P|482:260|475:224,1,75,8|0,0:0|0:0,0:0:0:0:
396,135,111905,2,0,P|346:142|343:91,1,112.5,2|0,0:0|0:0,0:0:0:0:
329,21,112202,6,0,P|257:48|186:68,1,150,2|0,0:0|0:0,0:0:0:0:
107,25,112647,1,0,0:0:0:0:
49,94,112796,2,0,P|76:114|108:143,1,75,8|0,0:0|0:0,0:0:0:0:
196,153,113093,1,0,0:0:0:0:
12,235,113241,2,0,P|3:271|0:308,1,75,2|0,0:0|0:0,0:0:0:0:
105,275,113538,2,0,P|127:245|153:218,1,75,2|0,0:0|0:0,0:0:0:0:
283,273,113835,2,0,P|247:284|212:299,1,75,2|8,0:0|0:0,0:0:0:0:
365,231,114132,2,0,P|390:203|412:173,2,75,2|2|2,0:0|0:0|0:0,0:0:0:0:
186,68,114578,102,0,P|258:87|328:115,1,150,4|0,0:0|0:0,0:0:0:0:
242,200,115023,1,0,0:0:0:0:
418,75,115172,2,0,P|443:47|465:17,1,75,8|0,0:0|0:0,0:0:0:0:
338,19,115469,1,0,0:0:0:0:
500,134,115618,2,0,P|515:207|510:281,2,150,2|2|2,0:0|0:0|0:0,0:0:0:0:
445,323,116360,2,0,P|376:351|303:370,1,150,8|0,0:0|0:0,0:0:0:0:
92,170,116954,6,0,P|118:195|142:227,1,75,4|0,0:0|0:0,0:0:0:0:
149,363,117251,2,0,P|123:338|99:306,1,75,0|0,1:0|0:0,0:0:0:0:
133,89,117548,2,0,P|158:63|190:38,2,75,12|0|0,0:1|0:0|1:0,0:0:0:0:
92,170,117994,1,8,0:0:0:0:
24,295,118142,1,8,0:0:0:0:
217,238,118291,1,8,0:1:0:0:
227,238,118736,6,0,P|185:276|135:301,1,112.5,10|0,0:0|0:0,0:0:0:0:
24,295,119034,2,0,P|42:256|50:298,1,112.5,2|0,0:0|0:0,0:0:0:0:
67,369,119330,86,0,P|140:379|213:361,1,150,6|0,0:0|1:0,0:0:0:0:
284,305,119776,1,2,0:0:0:0:
422,237,119924,2,0,P|376:295|355:367,1,150,8|0,0:0|0:0,0:0:0:0:
462,309,120370,2,0,P|490:279|508:250,1,75,8|0,0:0|0:0,0:0:0:0:
442,109,120667,2,0,P|453:148|470:178,1,75,8|0,0:0|0:0,0:0:0:0:
488,51,120964,1,2,0:0:0:0:
385,169,121113,2,0,P|316:141|262:89,1,150,8|0,0:0|1:0,0:0:0:0:
176,19,121558,1,8,0:0:0:0:
290,230,121707,6,0,P|300:303|282:376,2,150,2|0|8,1:2|1:0|0:0,0:0:0:0:
290,230,122598,1,0,0:0:0:0:
158,128,122746,1,8,0:0:0:0:
141,113,123043,1,8,0:0:0:0:
157,246,123192,1,2,1:2:0:0:
124,98,123340,2,0,P|105:65|96:29,2,75,0|8|0,1:0|0:0|0:0,0:0:0:0:
290,158,123786,2,0,P|280:121|262:89,1,75,0|8,1:0|0:0,0:0:0:0:
226,296,124083,102,0,P|298:312|372:301,1,150,6|0,0:0|1:0,0:0:0:0:
331,231,124528,1,2,0:0:0:0:
157,246,124677,2,0,P|96:202|56:139,1,150,8|0,0:0|0:0,0:0:0:0:
313,37,125122,2,0,P|269:97|206:137,1,150,10|8,0:0|0:0,0:0:0:0:
84,64,125568,2,0,P|121:64|157:73,1,75,0|0,1:0|0:0,0:0:0:0:
348,120,125865,2,0,P|380:101|407:75,1,75,8|0,0:0|0:0,0:0:0:0:
285,178,126162,2,0,P|252:196|225:222,1,75,2|8,0:0|0:0,0:0:0:0:
365,201,126459,5,6,0:0:0:0:
268,97,126608,1,2,0:0:0:0:
160,194,126756,1,2,1:2:0:0:
257,298,126905,2,0,P|275:331|301:358,2,75,2|8|2,0:0|0:0|0:0,0:0:0:0:
167,297,127350,1,4,0:0:0:0:
342,282,127499,2,0,P|378:291|416:293,1,75,8|0,0:0|0:0,0:0:0:0:
160,194,127796,2,0,P|123:184|86:182,2,75,8|0|0,0:0|0:0|1:0,0:0:0:0:
342,156,128241,2,0,P|355:116|346:86,1,75,8|0,0:1|0:0,0:0:0:0:
235,117,128538,2,0,P|246:85|280:62,1,75,2|0,1:2|0:0,0:0:0:0:
275,175,128835,102,0,P|237:241|228:316,1,150,6|0,0:0|1:0,0:0:0:0:
300,357,129281,1,2,0:0:0:0:
68,267,129429,2,0,P|127:313|165:377,1,150,8|0,0:0|0:0,0:0:0:0:
59,369,129875,2,0,P|26:348|-1:323,1,75,8|0,0:0|0:0,0:0:0:0:
118,191,130172,2,0,P|151:212|178:237,1,75,0|0,1:0|0:0,0:0:0:0:
227,313,130469,1,2,0:0:0:0:
275,175,130618,2,0,P|284:99|265:27,1,150,8|0,0:0|1:0,0:0:0:0:
164,8,131063,1,8,0:0:0:0:
389,68,131212,6,0,P|442:120|510:149,2,150,2|0|8,1:2|1:0|0:0,0:0:0:0:
389,68,132103,1,0,0:0:0:0:
275,175,132251,1,0,1:0:0:0:
259,190,132548,1,8,0:0:0:0:
385,194,132697,1,2,1:2:0:0:
241,204,132845,2,0,P|217:232|188:256,2,75,0|8|0,1:0|0:0|0:0,0:0:0:0:
213,104,133291,1,0,1:0:0:0:
88,226,133440,1,8,0:0:0:0:
69,44,133588,102,0,P|121:97|150:165,1,150,4|0,1:2|1:0,0:0:0:0:
88,226,134033,1,2,0:0:0:0:
241,204,134182,2,0,P|315:204|384:232,1,150,8|0,0:0|0:0,0:0:0:0:
485,51,134627,2,0,P|457:120|456:194,1,150,8|8,0:0|0:0,0:0:0:0:
483,347,135073,2,0,P|472:311|454:279,1,75,0|0,1:0|0:0,0:0:0:0:
316,279,135370,2,0,P|297:311|286:347,1,75,8|0,0:0|0:0,0:0:0:0:
241,204,135667,2,0,P|259:171|270:135,1,75,2|0,1:2|0:0,0:0:0:0:
199,50,135964,5,4,0:0:0:0:
270,135,136113,1,2,0:0:0:0:
380,117,136261,1,2,1:2:0:0:
420,13,136410,2,0,P|384:24|352:44,2,75,2|8|2,0:0|0:0|0:0,0:0:0:0:
475,71,136855,1,4,0:0:0:0:
380,117,137004,1,0,1:0:0:0:
266,19,137152,6,0,P|234:38|198:49,1,75,8|0,0:0|0:0,0:0:0:0:
106,149,137449,2,0,P|144:147|180:137,1,75,0|0,1:0|0:0,0:0:0:0:
314,211,137746,2,0,P|276:212|240:203,1,75,8|0,0:1|0:0,0:0:0:0:
127,252,138043,2,0,P|160:269|196:278,1,75,2|0,3:0|0:0,0:0:0:0:
510,289,138340,6,0,P|468:291|426:296,1,82.5000025177003,6|0,0:1|0:0,0:0:0:0:
338,298,138637,1,0,1:0:0:0:
291,374,138786,1,2,0:0:0:0:
314,211,138935,2,0,P|311:170|306:128,1,82.5000025177003,8|0,0:1|0:0,0:0:0:0:
306,128,139380,1,0,1:0:0:0:
190,302,139528,2,0,P|193:343|197:384,2,82.5000025177003,2|0|0,0:0|1:0|0:0,0:0:0:0:
193,179,139974,1,2,1:2:0:0:
314,46,140122,2,0,P|310:87|306:128,1,82.5000025177003,8|0,0:1|0:0,0:0:0:0:
397,213,140419,2,0,P|439:215|481:220,1,82.5000025177003,2|8,0:0|0:0,0:0:0:0:
338,298,140717,5,4,1:2:0:0:
338,298,141014,2,0,P|341:339|346:381,1,82.5000025177003,0|2,1:0|0:0,0:0:0:0:
193,179,141311,2,0,P|190:138|185:96,1,82.5000025177003,8|0,0:0|0:0,0:0:0:0:
185,96,141756,1,0,1:0:0:0:
384,137,141905,2,0,P|424:141|466:144,2,82.5000025177003,2|0|0,0:0|1:0|0:0,0:0:0:0:
332,193,142350,1,2,1:2:0:0:
505,211,142499,1,8,0:1:0:0:
368,290,142647,2,0,P|416:237|450:300,1,165.000005035401,2|8,0:0|0:0,0:0:0:0:
263,373,143093,102,0,P|247:334|233:293,1,82.5000025177003,4|0,1:0|0:0,0:0:0:0:
199,214,143390,1,0,1:0:0:0:
247,138,143539,1,2,0:0:0:0:
147,290,143688,2,0,P|105:293|63:295,1,82.5000025177003,8|0,0:1|0:0,0:0:0:0:
64,295,144132,1,0,1:0:0:0:
164,132,144281,2,0,P|205:134|247:138,2,82.5000025177003,0|0|0,0:0|1:0|0:0,0:0:0:0:
71,177,144726,1,2,1:2:0:0:
332,193,144875,2,0,P|366:170|401:146,1,82.5000025177003,8|0,0:1|0:0,0:0:0:0:
493,91,145172,2,0,P|485:132|478:173,1,82.5000025177003,2|8,0:0|0:0,0:0:0:0:
476,341,145469,102,0,P|408:315|318:298,1,165.000005035401,4|0,1:0|1:0,0:0:0:0:
64,295,145915,38,0,P|132:269|222:252,1,165.000005035401,4|0,1:0|0:0,0:0:0:0:
493,91,146360,86,0,P|421:102|334:132,1,165.000005035401,12|0,0:0|0:0,0:0:0:0:
82,45,146806,6,0,P|153:56|240:86,1,165.000005035401,12|0,0:0|0:0,0:0:0:0:
153,216,147251,1,8,0:1:0:0:
153,216,147400,2,0,P|84:199|93:269,1,165.000005035401,2|0,0:0|0:0,0:0:0:0:
310,380,147845,102,0,P|315:338|317:296,1,82.5000025177003,4|0,0:1|0:0,0:0:0:0:
329,206,148142,1,0,1:0:0:0:
251,157,148291,1,2,0:0:0:0:
421,193,148440,2,0,P|462:197|504:199,1,82.5000025177003,8|0,0:1|0:0,0:0:0:0:
503,198,148885,1,0,1:0:0:0:
240,238,149033,2,0,P|198:236|157:232,2,82.5000025177003,2|0|0,0:0|1:0|0:0,0:0:0:0:
317,297,149479,1,2,1:2:0:0:
329,206,149627,2,0,P|331:164|335:123,1,82.5000025177003,8|0,0:1|0:0,0:0:0:0:
409,52,149924,2,0,P|449:57|491:59,1,82.5000025177003,2|0,0:0|0:0,0:0:0:0:
277,37,150221,5,4,1:2:0:0:
277,37,150519,2,0,P|268:77|256:116,1,82.5000025177003,0|0,1:0|0:0,0:0:0:0:
136,77,150816,2,0,P|95:86|56:99,1,82.5000025177003,8|0,0:1|0:0,0:0:0:0:
57,99,151261,1,0,1:0:0:0:
211,186,151410,2,0,P|247:202|288:215,2,82.5000025177003,2|0|0,0:0|1:0|0:0,0:0:0:0:
129,201,151855,1,2,1:2:0:0:
369,199,152004,1,8,0:1:0:0:
344,42,152152,2,0,P|282:76|342:120,1,165.000005035401,2|0,0:0|0:0,0:0:0:0:
503,246,152598,102,0,P|462:255|423:268,1,82.5000025177003,4|0,1:0|0:0,0:0:0:0:
336,293,152895,1,0,1:0:0:0:
298,375,153043,1,2,0:0:0:0:
369,199,153192,2,0,P|353:160|335:123,1,82.5000025177003,8|0,0:1|0:0,0:0:0:0:
335,124,153637,1,0,1:0:0:0:
132,132,153786,2,0,P|93:116|56:98,2,82.5000025177003,2|0|0,0:0|1:0|0:0,0:0:0:0:
233,134,154231,1,2,1:2:0:0:
347,10,154380,2,0,P|311:30|277:53,1,82.5000025177003,8|0,0:1|0:0,0:0:0:0:
116,32,154677,2,0,P|157:34|198:33,1,82.5000025177003,2|0,0:0|0:0,0:0:0:0:
511,173,154974,102,0,P|490:94|485:12,1,165.000005035401,4|0,1:0|0:0,0:0:0:0:
359,271,155419,38,0,P|356:196|372:105,1,165.000005035401,4|0,1:0|0:0,0:0:0:0:
186,326,155865,86,0,P|205:253|244:170,1,165.000005035401,12|0,0:0|0:0,0:0:0:0:
5,335,156311,6,0,P|46:263|100:201,1,165.000005035401,12|0,0:0|0:0,0:0:0:0:
156,96,156756,1,8,0:1:0:0:
156,96,156905,2,0,P|94:64|146:17,1,165.000005035401,2|0,0:0|0:0,0:0:0:0:
380,107,157350,86,0,P|430:164|462:215,1,134.999995880127,4|0,0:1|0:0,0:0:0:0:
298,251,157796,2,0,P|323:227|350:205,2,67.4999979400635,2|8|0,0:0|0:0|0:0,0:0:0:0:
180,250,158241,2,0,P|225:300|262:357,1,134.999995880127,4|0,0:0|0:0,0:0:0:0:
67,272,158687,2,0,P|33:271|0:268,2,67.4999979400635,10|0|0,0:0|0:0|0:0,0:0:0:0:
144,356,159132,1,8,0:0:0:0:
106,146,159429,1,8,0:3:0:0:
256,192,159726,12,0,161360,0:0:0:0:
31,38,162103,70,0,P|81:50|134:57,1,104.999996795654,4|0,0:0|0:0,0:0:0:0:
236,42,162548,1,0,0:0:0:0:
196,131,162697,2,0,P|183:181|176:234,1,104.999996795654,8|0,0:0|0:0,0:0:0:0:
88,168,163142,1,0,1:0:0:0:
88,168,163588,2,0,P|81:144|76:117,1,52.4999983978272,0|0,1:0|0:0,0:0:0:0:
79,279,163885,1,8,0:0:0:0:
220,353,164033,2,0,P|194:348|169:341,2,52.4999983978272,2|0|0,0:0|0:0|0:0,0:0:0:0:
326,329,164479,101,2,1:2:0:0:
194,239,164776,1,0,1:0:0:0:
316,332,164924,21,2,1:2:0:0:
207,250,165221,1,0,1:0:0:0:
307,335,165370,5,2,1:2:0:0:
220,262,165667,1,0,1:0:0:0:
297,338,165816,21,2,1:2:0:0:
233,274,166113,1,0,1:0:0:0:
288,342,166261,5,2,1:2:0:0:
244,283,166558,1,0,1:0:0:0:
284,218,166707,85,0,3:0:0:0:
299,222,166781,1,0,3:0:0:0:
312,226,166855,70,0,P|300:176|293:123,1,104.999996795654,4|0,0:0|0:0,0:0:0:0:
323,33,167301,1,0,0:0:0:0:
384,153,167449,2,0,P|421:188|463:220,1,104.999996795654,8|0,0:0|0:0,0:0:0:0:
474,124,167895,1,0,1:0:0:0:
474,124,168192,1,0,0:0:0:0:
383,266,168340,2,0,P|362:314|347:364,1,104.999996795654,0|8,1:0|0:0,0:0:0:0:
262,309,168786,2,0,P|212:323|164:344,1,104.999996795654,2|0,0:0|0:0,0:0:0:0:
48,330,169231,101,2,1:2:0:0:
180,240,169528,1,0,1:0:0:0:
58,333,169676,21,2,1:2:0:0:
167,251,169973,1,0,1:0:0:0:
67,336,170122,5,2,1:2:0:0:
154,263,170419,1,0,1:0:0:0:
77,339,170568,21,2,1:2:0:0:
141,275,170865,1,0,1:0:0:0:
86,343,171013,5,2,1:2:0:0:
130,284,171310,1,0,1:0:0:0:
90,219,171459,85,0,3:0:0:0:
75,223,171533,1,0,3:0:0:0:
57,228,171608,70,0,P|71:178|92:129,1,104.999996795654,4|0,0:0|0:0,0:0:0:0:
187,149,172053,1,0,0:0:0:0:
271,100,172202,2,0,P|320:85|369:64,1,104.999996795654,8|0,0:0|0:0,0:0:0:0:
171,55,172647,1,0,1:0:0:0:
171,55,173093,2,0,P|144:42|122:33,1,52.4999983978272,0|0,1:0|0:0,0:0:0:0:
271,100,173390,1,8,0:0:0:0:
287,254,173538,2,0,P|284:224|281:200,2,52.4999983978272,2|0|0,0:0|0:0|0:0,0:0:0:0:
317,360,173984,101,2,1:2:0:0:
387,217,174281,1,0,1:0:0:0:
328,358,174429,21,2,1:2:0:0:
381,233,174726,1,0,1:0:0:0:
337,356,174875,5,2,1:2:0:0:
376,249,175172,1,0,1:0:0:0:
347,354,175321,21,2,1:2:0:0:
371,266,175618,1,0,1:0:0:0:
357,353,175766,5,2,1:2:0:0:
366,280,176063,1,0,1:0:0:0:
298,243,176212,85,0,3:0:0:0:
287,254,176286,1,0,3:0:0:0:
276,264,176360,70,0,P|251:218|232:169,1,104.999996795654,2|0,0:0|0:0,0:0:0:0:
257,76,176806,1,0,0:0:0:0:
172,257,176954,2,0,P|130:289|86:317,1,104.999996795654,8|0,0:0|0:0,0:0:0:0:
81,219,177400,1,0,1:0:0:0:
81,219,177697,1,2,0:0:0:0:
265,275,177845,2,0,P|309:302|351:334,1,104.999996795654,0|8,1:0|0:0,0:0:0:0:
447,171,178291,2,0,P|402:198|360:230,1,104.999996795654,2|0,0:0|0:0,0:0:0:0:
512,108,178736,54,0,P|479:27|444:106,1,209.999993591309,4|8,0:1|0:0,0:0:0:0:
288,193,179479,2,0,P|266:193|236:191,1,52.4999983978272,2|0,0:0|0:0,0:0:0:0:
172,75,179776,2,0,P|195:86|218:99,2,52.4999983978272,2|0|0,0:0|0:0|0:0,0:0:0:0:
143,184,180221,2,0,P|124:202|107:222,1,52.4999983978272,0|0,1:0|0:0,0:0:0:0:
310,105,180519,1,2,0:0:0:0:
327,93,180816,1,2,0:0:0:0:
343,80,181113,1,4,0:0:0:0:
210,238,200122,22,0,L|200:344,1,104.999996795654,0|0,0:0|0:0,0:0:0:0:
384,226,200717,2,0,B|345:228|311:202|281:233|247:263|210:238|210:238|176:268|138:243|104:216|74:247|35:249,1,359.999989013672,2|0,0:0|0:0,0:0:0:0:
215,54,201459,69,8,0:0:0:0:
304,148,201608,1,8,0:3:0:0:
210,238,201756,1,8,0:1:0:0:
207,223,201831,1,8,0:1:0:0:
205,208,201905,1,8,0:1:0:0:
129,282,202053,1,8,0:0:0:0:
317,268,202202,1,8,0:3:0:0:
177,361,202350,1,8,0:1:0:0:
365,347,202499,6,0,P|393:312|419:276,1,89.9999972534181,6|0,0:1|0:0,0:0:0:0:
426,173,202796,1,0,1:0:0:0:
342,116,202944,1,2,0:0:0:0:
419,275,203093,2,0,P|463:279|507:287,1,89.9999972534181,8|0,0:1|0:0,0:0:0:0:
508,287,203538,1,0,1:0:0:0:
263,324,203687,2,0,P|218:331|173:336,2,89.9999972534181,2|0|0,0:0|1:0|0:0,0:0:0:0:
329,221,204132,1,2,1:2:0:0:
124,210,204281,2,0,P|166:228|208:245,1,89.9999972534181,8|0,0:1|0:0,0:0:0:0:
144,77,204578,2,0,P|170:113|197:148,1,89.9999972534181,2|0,0:0|0:0,0:0:0:0:
355,76,204875,5,4,1:2:0:0:
355,76,205172,2,0,P|310:80|265:87,1,89.9999972534181,0|0,1:0|0:0,0:0:0:0:
423,222,205469,2,0,P|466:215|512:210,1,89.9999972534181,8|0,0:1|0:0,0:0:0:0:
512,210,205915,1,0,1:0:0:0:
426,19,206063,2,0,P|454:54|480:90,2,89.9999972534181,2|0|0,0:0|1:0|0:0,0:0:0:0:
351,1,206509,1,2,1:2:0:0:
358,159,206657,1,8,0:1:0:0:
208,159,206806,2,0,P|212:97|283:143,1,179.999994506836,2|0,0:0|0:0,0:0:0:0:
378,372,207251,102,0,P|353:334|330:296,1,89.9999972534181,4|0,1:0|0:0,0:0:0:0:
385,224,207548,1,0,1:0:0:0:
478,227,207697,1,2,0:0:0:0:
241,317,207845,2,0,P|196:319|151:320,1,89.9999972534181,8|0,0:1|0:0,0:0:0:0:
151,320,208291,1,0,1:0:0:0:
385,224,208439,2,0,P|406:184|425:144,2,89.9999972534181,0|0|0,0:0|1:0|0:0,0:0:0:0:
290,238,208885,1,2,1:2:0:0:
118,163,209033,2,0,P|162:159|207:158,1,89.9999972534181,8|0,0:1|0:0,0:0:0:0:
314,140,209330,2,0,P|288:103|265:65,1,89.9999972534181,2|0,0:0|0:0,0:0:0:0:
43,208,209627,102,0,P|18:304|14:386,1,179.999994506836,4|0,1:0|0:0,0:0:0:0:
187,86,210073,38,0,P|87:92|8:113,1,179.999994506836,4|0,1:0|0:0,0:0:0:0:
338,237,210519,86,0,P|238:230|159:209,1,179.999994506836,12|0,0:0|0:0,0:0:0:0:
405,93,210964,6,0,P|427:179|432:269,1,179.999994506836,12|0,0:0|0:0,0:0:0:0:
224,154,211410,1,8,0:1:0:0:
224,154,211559,2,0,P|272:95|313:165,1,179.999994506836,2|0,0:0|0:0,0:0:0:0:
91,310,212004,102,0,P|135:305|179:295,1,89.9999972534181,4|0,0:1|0:0,0:0:0:0:
233,234,212301,1,0,1:0:0:0:
224,154,212449,1,2,0:0:0:0:
293,288,212598,2,0,P|319:324|350:357,1,89.9999972534181,8|0,0:1|0:0,0:0:0:0:
350,357,213043,1,0,1:0:0:0:
313,139,213192,2,0,P|286:102|255:69,2,89.9999972534181,2|0|0,0:0|1:0|0:0,0:0:0:0:
233,234,213637,1,2,1:2:0:0:
82,129,213786,2,0,P|126:130|171:137,1,89.9999972534181,8|0,0:1|0:0,0:0:0:0:
404,134,214083,2,0,P|382:173|366:215,1,89.9999972534181,2|0,0:0|0:0,0:0:0:0:
336,366,214380,5,4,1:2:0:0:
336,366,214677,2,0,P|380:375|424:380,1,89.9999972534181,0|0,1:0|0:0,0:0:0:0:
285,292,214974,2,0,P|240:297|196:305,1,89.9999972534181,8|0,0:1|0:0,0:0:0:0:
196,306,215419,1,0,1:0:0:0:
316,149,215568,2,0,P|360:140|404:135,2,89.9999972534181,2|0|0,0:0|1:0|0:0,0:0:0:0:
252,223,216014,1,2,1:2:0:0:
486,192,216162,1,8,0:1:0:0:
369,52,216311,2,0,P|434:3|453:74,1,179.999994506836,2|0,0:0|0:0,0:0:0:0:
336,366,216756,102,0,P|331:321|323:277,1,89.9999972534181,4|0,1:0|0:0,0:0:0:0:
252,223,217053,1,0,1:0:0:0:
191,155,217202,1,2,0:0:0:0:
324,277,217350,2,0,P|368:283|412:288,1,89.9999972534181,8|0,0:1|0:0,0:0:0:0:
413,288,217796,1,0,1:0:0:0:
158,244,217944,2,0,P|113:248|68:255,2,89.9999972534181,2|0|0,0:0|1:0|0:0,0:0:0:0:
252,223,218390,1,2,1:2:0:0:
246,83,218538,2,0,P|217:117|190:154,1,89.9999972534181,8|0,0:1|0:0,0:0:0:0:
29,64,218835,2,0,P|70:80|111:98,1,89.9999972534181,2|0,0:0|0:0,0:0:0:0:
505,151,219132,102,0,P|415:146|328:124,1,179.999994506836,4|0,1:0|0:0,0:0:0:0:
68,254,219578,38,0,P|132:316|207:365,1,179.999994506836,4|0,1:0|0:0,0:0:0:0:
467,384,220023,86,0,P|426:304|402:218,1,179.999994506836,12|0,0:0|0:0,0:0:0:0:
123,5,220469,6,0,P|100:92|95:181,1,179.999994506836,12|0,0:0|0:0,0:0:0:0:
339,283,220915,1,8,0:1:0:0:
339,283,221064,2,0,P|276:250|276:330,1,179.999994506836,2|0,0:0|0:0,0:0:0:0:
449,31,221509,102,0,P|441:72|435:114,1,82.5000025177003,6|0,0:1|0:0,0:0:0:0:
414,199,221806,1,0,1:0:0:0:
475,264,221955,1,2,0:0:0:0:
324,200,222103,2,0,P|242:187|158:187,1,165.000005035401,8|0,0:1|0:0,0:0:0:0:
70,194,222548,1,0,1:0:0:0:
162,97,222697,2,0,P|188:65|214:33,2,82.5000025177003,2|0|0,0:0|1:0|0:0,0:0:0:0:
65,102,223142,1,2,1:2:0:0:
258,119,223291,2,0,P|298:123|340:126,1,82.5000025177003,8|0,0:1|0:0,0:0:0:0:
449,31,223588,2,0,P|408:26|366:23,1,82.5000025177003,2|8,0:0|0:0,0:0:0:0:
366,229,223885,5,4,1:2:0:0:
366,229,224182,2,0,P|370:269|373:311,1,82.5000025177003,0|2,1:0|0:0,0:0:0:0:
121,186,224479,2,0,P|201:206|283:214,1,165.000005035401,8|0,0:1|0:0,0:0:0:0:
240,291,224924,1,0,1:0:0:0:
258,119,225073,2,0,P|265:78|271:37,2,82.5000025177003,2|0|0,0:0|1:0|0:0,0:0:0:0:
205,199,225519,1,2,1:2:0:0:
40,158,225667,1,8,0:1:0:0:
167,112,225816,2,0,P|173:59|93:81,1,165.000005035401,2|8,0:0|0:0,0:0:0:0:
284,215,226261,102,0,P|324:222|365:228,1,82.5000025177003,4|0,1:0|0:0,0:0:0:0:
428,171,226558,1,0,1:0:0:0:
341,140,226707,1,2,0:0:0:0:
240,292,226855,2,0,P|158:305|74:305,1,165.000005035401,8|0,0:1|0:0,0:0:0:0:
149,222,227301,1,0,1:0:0:0:
258,119,227449,2,0,P|252:78|244:37,2,82.5000025177003,0|0|0,0:0|1:0|0:0,0:0:0:0:
147,58,227895,1,2,1:2:0:0:
418,45,228043,2,0,P|385:70|354:97,1,82.5000025177003,8|0,0:1|0:0,0:0:0:0:
228,196,228340,2,0,P|243:157|257:118,1,82.5000025177003,2|8,0:0|0:0,0:0:0:0:
507,195,228637,102,0,P|502:269|479:358,1,165.000005035401,4|0,1:0|1:0,0:0:0:0:
354,97,229083,38,0,P|369:170|369:262,1,165.000005035401,4|0,1:0|0:0,0:0:0:0:
181,42,229528,86,0,P|214:109|239:198,1,165.000005035401,12|0,0:0|0:0,0:0:0:0:
0,33,229974,6,0,P|49:89|96:168,1,165.000005035401,12|0,0:0|0:0,0:0:0:0:
174,334,230419,1,8,0:1:0:0:
174,334,230568,2,0,P|109:304|106:375,1,165.000005035401,2|0,0:0|0:0,0:0:0:0:
403,335,231014,102,0,P|386:296|367:257,1,82.5000025177003,4|0,0:1|0:0,0:0:0:0:
335,177,231311,1,0,1:0:0:0:
248,157,231460,1,2,0:0:0:0:
426,194,231608,2,0,P|439:112|439:28,1,165.000005035401,8|0,0:1|0:0,0:0:0:0:
355,90,232053,1,0,1:0:0:0:
275,245,232202,2,0,P|256:282|241:320,2,82.5000025177003,2|0|0,0:0|1:0|0:0,0:0:0:0:
305,374,232647,1,2,1:2:0:0:
164,351,232796,2,0,P|126:334|89:316,1,82.5000025177003,8|0,0:1|0:0,0:0:0:0:
98,165,233093,2,0,P|113:203|126:242,1,82.5000025177003,2|0,0:0|0:0,0:0:0:0:
60,56,233390,5,4,1:2:0:0:
60,56,233687,2,0,P|99:42|137:27,1,82.5000025177003,0|0,1:0|0:0,0:0:0:0:
256,121,233984,2,0,P|175:136|97:165,1,165.000005035401,8|0,0:1|0:0,0:0:0:0:
126,242,234429,1,0,1:0:0:0:
316,270,234578,2,0,P|302:230|287:192,2,82.5000025177003,2|0|0,0:0|1:0|0:0,0:0:0:0:
220,264,235023,1,2,1:2:0:0:
383,198,235172,1,8,0:1:0:0:
507,281,235320,2,0,B|496:160|496:160|476:200,1,165.000005035401,2|0,0:0|0:0,0:0:0:0:
389,334,235766,102,0,P|350:349|311:361,1,82.5000025177003,4|0,1:0|0:0,0:0:0:0:
224,352,236063,1,0,1:0:0:0:
141,335,236212,1,2,0:0:0:0:
42,228,236360,2,0,P|123:243|201:272,1,165.000005035401,8|0,0:1|0:0,0:0:0:0:
60,313,236806,1,0,1:0:0:0:
173,182,236954,2,0,P|212:169|250:155,2,82.5000025177003,2|0|0,0:0|1:0|0:0,0:0:0:0:
114,123,237400,1,2,1:2:0:0:
264,75,237548,2,0,P|300:94|334:117,1,82.5000025177003,8|0,0:1|0:0,0:0:0:0:
181,62,237845,2,0,P|144:42|110:19,1,82.5000025177003,2|0,0:0|0:0,0:0:0:0:
309,213,238142,102,0,P|338:240|365:271,1,82.5000025177003,4|0,1:0|0:0,0:0:0:0:
173,182,238439,1,2,0:0:0:0:
334,117,238588,38,0,P|372:104|413:97,1,82.5000025177003,4|8,1:0|0:0,0:0:0:0:
214,315,238885,1,0,1:0:0:0:
238,89,239033,86,0,P|247:49|260:10,1,82.5000025177003,6|0,0:0|1:0,0:0:0:0:
349,346,239330,6,0,B|366:350|366:350|385:354,12,37.5,14|0|0|0|0|0|0|0|0|0|0|0|0,0:0|0:0|0:0|0:0|0:0|0:0|0:0|0:0|0:0|0:0|0:0|0:0|0:0,0:0:0:0:
214,315,239924,2,0,B|174:305|174:305|135:292,1,82.5000025177003,4|8,0:0|0:0,0:0:0:0:
278,249,240221,1,10,0:3:0:0:
115,201,240370,1,10,0:3:0:0:
401,130,240519,22,0,P|324:142|256:164,1,150,4|0,1:0|0:0,0:0:0:0:
238,82,240964,1,0,1:0:0:0:
367,219,241113,2,0,P|438:241|512:253,1,150,8|0,0:0|0:0,0:0:0:0:
507,26,241558,2,0,P|485:97|473:171,2,150,2|2|2,0:0|0:0|0:0,0:0:0:0:
310,66,242301,2,0,P|239:88|165:100,1,150,8|0,0:0|1:0,0:0:0:0:
131,18,242746,1,8,0:0:0:0:
188,184,242895,6,0,P|210:255|222:329,1,150,4|0,0:0|0:0,0:0:0:0:
146,366,243340,1,0,1:0:0:0:
2,200,243489,2,0,P|13:126|36:54,1,150,8|0,0:0|0:0,0:0:0:0:
131,18,243934,1,2,0:0:0:0:
238,82,244083,2,0,P|164:93|92:116,1,150,2|0,0:3|0:0,0:0:0:0:
77,191,244528,1,0,1:0:0:0:
284,138,244677,2,0,P|357:126|429:103,1,150,8|0,0:0|1:0,0:0:0:0:
387,10,245122,1,8,0:0:0:0:
326,231,245271,6,0,P|298:300|281:373,1,150,4|0,0:0|0:0,0:0:0:0:
188,352,245717,1,0,1:0:0:0:
77,191,245865,2,0,P|145:221|209:260,1,150,8|0,0:0|0:0,0:0:0:0:
380,336,246311,2,0,P|448:305|512:266,2,150,2|2|2,0:0|0:0|0:0,0:0:0:0:
393,148,247053,2,0,P|411:180|432:211,1,75,8|0,0:0|0:0,0:0:0:0:
485,132,247350,1,0,1:0:0:0:
422,55,247499,1,8,0:0:0:0:
326,231,247647,6,0,P|254:253|180:266,1,150,4|0,0:0|0:0,0:0:0:0:
95,280,248093,1,0,1:0:0:0:
81,50,248241,2,0,P|103:121|116:195,1,150,8|0,0:0|0:0,0:0:0:0:
209,180,248687,1,8,0:3:0:0:
393,148,248836,1,8,0:3:0:0:
301,164,248984,1,8,0:3:0:0:
485,132,249133,1,8,0:3:0:0:
485,132,249429,2,0,P|486:170|483:207,2,75,12|0|0,0:0|0:0|1:0,0:0:0:0:
422,59,249875,1,8,0:0:0:0:
246,117,250023,70,0,P|320:127|392:147,1,150,4|0,0:0|0:0,0:0:0:0:
392,235,250469,1,0,1:0:0:0:
245,265,250618,2,0,P|170:274|96:273,1,150,12|0,0:0|0:0,0:0:0:0:
53,96,251063,2,0,P|112:142|164:196,2,150,2|2|2,0:0|0:0|0:0,0:0:0:0:
246,117,251806,2,0,P|320:108|392:89,1,150,8|0,0:0|1:0,0:0:0:0:
306,28,252251,1,8,0:0:0:0:
310,205,252400,6,0,P|281:274|262:346,1,150,4|0,0:0|0:0,0:0:0:0:
356,379,252845,1,0,1:0:0:0:
489,200,252994,2,0,P|476:273|452:345,1,150,8|0,0:0|0:0,0:0:0:0:
356,379,253439,1,2,0:0:0:0:
196,316,253588,2,0,P|270:318|345:307,1,150,2|0,0:3|0:0,0:0:0:0:
396,232,254033,1,2,0:0:0:0:
152,232,254182,2,0,P|78:231|3:241,1,150,8|0,0:0|1:0,0:0:0:0:
24,328,254627,1,8,0:0:0:0:
133,152,254776,6,0,P|172:88|201:19,1,150,4|0,0:0|0:0,0:0:0:0:
96,42,255221,1,0,1:0:0:0:
246,158,255370,2,0,P|305:202|371:238,1,150,8|0,0:0|0:0,0:0:0:0:
353,121,255816,1,2,0:0:0:0:
487,267,255964,2,0,P|420:302|361:347,1,150,2|0,0:3|0:0,0:0:0:0:
234,384,256410,1,2,0:0:0:0:
162,251,256558,2,0,P|228:286|287:331,1,150,8|0,0:0|1:0,0:0:0:0:
137,323,257004,1,8,0:0:0:0:
246,158,257152,6,0,P|291:98|326:32,1,150,4|0,0:0|0:0,0:0:0:0:
200,49,257598,1,0,1:0:0:0:
0,138,257746,2,0,P|35:204|80:263,1,150,8|0,0:0|0:0,0:0:0:0:
162,251,258192,1,2,0:0:0:0:
386,224,258340,2,0,P|311:221|236:230,1,150,2|0,0:3|0:0,0:0:0:0:
217,308,258786,1,2,0:0:0:0:
412,299,258934,21,8,0:0:0:0:
424,329,259083,1,2,0:0:0:0:
477,208,259231,1,8,0:0:0:0:
465,238,259380,1,2,0:0:0:0:
