osu file format v14

[General]
AudioFilename: audio.mp3
AudioLeadIn: 0
PreviewTime: 39671
Countdown: 0
SampleSet: Soft
StackLeniency: 0.3
Mode: 0
LetterboxInBreaks: 0
WidescreenStoryboard: 1

[Editor]
Bookmarks: 9596,19101,28606,38111,40339,59497,66626,68408,76131,77913,87418
DistanceSpacing: 1.7
BeatDivisor: 8
GridSize: 4
TimelineZoom: 1.1

[Metadata]
Title:Mousou <3 Express (TV Size)
TitleUnicode:もうそう♡えくすぷれす (TV Size)
Artist:Sengoku Nadeko (CV: Hanazawa Kana)
ArtistUnicode:千石撫子(CV: 花澤香菜)
Creator:O K U
Version:zglock's Insane
Source:〈物語〉シリーズ セカンドシーズン
Tags:囮物語 Monogatari Series Second Season Otorimonogatari opening op japanese j-pop jpop pop female vocal vocalist zglock o_k_u dt best mod dt_best_mod le mirai le_mirai sirmirai cacturne sanayui theshadowofdark not your kitty not_your_kitty
BeatmapID:4262244
BeatmapSetID:2041805

[Difficulty]
HPDrainRate:5
CircleSize:4
OverallDifficulty:8
ApproachRate:9
SliderMultiplier:2
SliderTickRate:1

[Events]
//Background and Video events
0,0,"bg.jpg",0,0
Video,-400,"Video.mp4"
//Break Periods
//Storyboard Layer 0 (Background)
//Storyboard Layer 1 (Fail)
//Storyboard Layer 2 (Pass)
//Storyboard Layer 3 (Foreground)
//Storyboard Layer 4 (Overlay)
//Storyboard Sound Samples

[TimingPoints]
92,594.059405940594,4,2,2,50,1,0
92,-133.333333333333,4,2,2,50,0,0
9596,-66.6666666666667,4,2,1,70,0,0
10191,-100,4,2,1,70,0,0
11082,-66.6666666666667,4,2,1,70,0,0
11379,-100,4,2,1,70,0,0
11973,-66.6666666666667,4,2,1,70,0,0
12567,-100,4,2,1,70,0,0
14349,-66.6666666666667,4,2,1,70,0,0
14943,-100,4,2,1,70,0,0
16131,-66.6666666666667,4,2,1,70,0,0
17468,-100,4,2,1,70,0,0
17765,-66.6666666666667,4,2,1,70,0,0
18804,-80,4,2,1,70,0,0
19101,-80,4,2,1,60,0,0
19398,-133.333333333333,4,2,1,60,0,0
28606,-133.333333333333,4,2,1,70,0,0
29052,-100,4,2,1,70,0,0
38111,-200,4,2,1,80,0,0
39002,-100,4,2,1,80,0,0
40488,-80,4,2,1,80,0,0
42270,-57.1428571428571,4,2,1,80,0,0
42864,-80,4,2,1,80,0,0
44646,-57.1428571428571,4,2,1,80,0,0
45240,-80,4,2,1,80,0,0
49398,-57.1428571428571,4,2,1,80,0,0
49992,-80,4,2,1,80,0,0
51775,-57.1428571428571,4,2,1,80,0,0
52369,-80,4,2,1,80,0,0
54151,-57.1428571428571,4,2,1,80,0,0
54745,-66.6666666666667,4,2,1,80,0,0
59497,-66.6666666666667,4,2,1,80,0,1
60537,-57.1428571428571,4,2,1,80,0,1
62468,-66.6666666666667,4,2,1,80,0,1
65438,-57.1428571428571,4,2,1,80,0,1
66626,-66.6666666666667,4,2,1,80,0,1
67072,-50,4,2,1,80,0,1
67517,-40,4,2,1,80,0,1
67963,-33.3333333333333,4,2,1,80,0,1
68557,-100,4,2,1,80,0,1
69596,-66.6666666666667,4,2,1,80,0,1
70042,-57.1428571428571,4,2,1,80,0,1
71973,-66.6666666666667,4,2,1,80,0,1
72567,-57.1428571428571,4,2,1,80,0,1
73755,-66.6666666666667,4,2,1,80,0,1
76131,-66.6666666666667,4,2,1,80,0,1
76577,-50,4,2,1,80,0,1
77022,-40,4,2,1,80,0,1
77468,-33.3333333333333,4,2,1,80,0,1
78507,-33.3333333333333,4,2,1,80,0,0
78953,-80,4,2,1,80,0,0
87418,-80,4,2,1,50,0,0

[Colours]
Combo1 : 127,127,127
Combo2 : 186,200,168
Combo3 : 155,158,114
Combo4 : 207,207,207

[HitObjects]
385,75,92,6,1,L|392:-7,1,75.0000000000002,8|8,0:3|0:3,0:0:0:0:
391,0,686,1,8,0:0:0:0:
433,71,834,1,0,0:0:0:0:
389,153,983,1,0,0:0:0:0:
457,257,1131,2,1,L|533:269,1,75.0000028610231,8|0,0:3|0:0,0:0:0:0:
355,316,1577,2,1,L|347:274,1,37.5000000000001,8|0,0:3|0:0,0:0:0:0:
429,372,1874,5,8,0:0:0:0:
278,347,2022,1,0,0:0:0:0:
194,251,2171,1,8,0:3:0:0:
231,163,2319,1,0,0:0:0:0:
198,255,2468,5,8,0:3:0:0:
0,324,2765,1,8,0:3:0:0:
78,205,3062,1,8,0:0:0:0:
78,205,3210,2,1,P|78:226|75:252,1,37.5000000000001,0|0,0:0|0:0,0:0:0:0:
173,342,3507,2,1,P|212:345|255:322,1,75.0000000000002,8|0,0:3|0:0,0:0:0:0:
332,362,3953,2,1,L|341:319,1,37.5000014305115,8|0,0:3|0:0,0:0:0:0:
315,236,4250,5,8,0:0:0:0:
431,339,4398,1,0,0:0:0:0:
428,165,4547,5,8,0:3:0:0:
455,257,4695,1,0,0:0:0:0:
428,165,4844,5,8,0:3:0:0:
210,139,5141,1,8,0:3:0:0:
368,88,5438,2,1,L|375:48,1,37.5000000000001,8|0,0:0|0:0,0:0:0:0:
374,51,5735,1,0,0:0:0:0:
260,0,5884,2,1,P|267:33|273:86,1,75.0000000000002,8|0,0:3|0:0,0:0:0:0:
305,152,6329,2,1,P|301:170|296:188,1,37.5000000000001,8|0,0:3|0:0,0:0:0:0:
172,219,6626,5,8,0:0:0:0:
24,166,6775,1,0,0:0:0:0:
156,194,6923,2,1,L|104:204,1,37.5000000000001,8|0,0:3|0:0,0:0:0:0:
200,310,7220,5,8,0:3:0:0:
4,259,7517,2,1,L|10:296,1,37.5000000000001,8|0,0:3|0:0,0:0:0:0:
87,369,7814,1,8,0:0:0:0:
119,300,7963,2,1,L|113:337,1,37.5000000000001,0|0,0:0|0:0,0:0:0:0:
0,384,8260,5,8,0:3:0:0:
256,192,8334,12,8,9002,0:0:0:0:
296,226,9596,6,1,B|330:254|371:242|371:242|398:210|443:214,1,150,4|0,3:1|3:0,0:0:0:0:
179,128,10191,2,1,L|127:136,2,50,10|0|8,0:1|0:0|0:2,0:0:0:0:
297,38,10636,2,1,P|311:80|284:135,1,100,0|8,3:0|0:2,0:0:0:0:
209,245,11082,2,1,P|152:237|97:227,1,112.5,8|0,3:2|0:0,0:0:0:0:
76,235,11379,2,1,P|80:259|88:283,1,50,10|0,0:1|0:0,0:0:0:0:
290,278,11676,2,1,L|296:225,1,50,8|0,0:2|0:0,0:0:0:0:
100,368,11973,6,1,L|262:350,1,150,2|8,3:2|3:2,0:0:0:0:
418,266,12567,2,1,L|353:259,1,50,8|0,0:1|0:0,0:0:0:0:
305,204,12864,1,8,0:2:0:0:
438,279,13012,2,1,L|431:340,1,50,8|8,3:2|0:2,0:0:0:0:
364,373,13309,2,1,L|334:366,2,25,0|0|0,0:0|0:0|3:0,0:0:0:0:
364,373,13606,1,0,0:0:0:0:
512,322,13755,5,10,0:1:0:0:
403,183,13903,1,0,0:0:0:0:
279,231,14052,2,1,P|269:254|268:280,1,50,10|0,0:2|0:0,0:0:0:0:
414,168,14349,6,1,B|429:132|429:132|424:86,1,75,2|0,3:2|0:0,0:0:0:0:
218,148,14646,1,0,3:0:0:0:
342,0,14943,2,1,L|350:55,1,50,8|0,0:1|0:0,0:0:0:0:
346,70,15240,1,8,0:2:0:0:
218,148,15389,2,1,P|170:169|114:157,1,100,0|8,3:0|0:3,0:0:0:0:
51,108,15834,1,0,3:0:0:0:
136,50,15983,1,0,0:0:0:0:
229,167,16131,6,1,P|233:208|241:252,1,75,10|0,0:1|0:0,0:0:0:0:
58,346,16428,2,1,P|66:306|68:271,1,75,8|0,0:2|0:0,0:0:0:0:
203,344,16725,5,2,3:2:0:0:
7,195,17022,1,0,3:0:0:0:
159,59,17319,1,8,0:1:0:0:
217,119,17468,2,1,P|196:137|161:144,1,50,0|8,0:0|0:2,0:0:0:0:
328,254,17765,2,1,B|275:224|219:225|219:225|251:245,1,150,0|8,3:0|0:2,0:0:0:0:
351,364,18210,2,1,L|370:324,1,37.5,0|0,3:0|0:0,0:0:0:0:
456,306,18359,2,1,L|437:266,1,37.5,0|0,0:0|0:0,0:0:0:0:
512,171,18507,1,8,0:1:0:0:
351,364,18804,2,1,P|381:378|425:383,1,62.5,8|0,0:2|0:0,0:0:0:0:
392,196,19101,5,6,3:1:0:0:
256,284,19398,2,1,L|265:327,1,37.5000000000001,0|0,3:0|0:0,0:0:0:0:
114,222,19992,1,8,0:2:0:0:
197,171,20141,1,2,3:2:0:0:
256,284,20290,2,1,L|247:361,1,75.0000000000002,8|0,0:2|3:0,0:0:0:0:
162,374,20735,2,1,P|142:365|124:363,1,37.5000000000001,0|8,0:0|0:1,0:0:0:0:
0,224,21181,1,8,0:2:0:0:
0,224,21478,6,1,P|19:190|14:150,1,75.0000000000002,2|0,3:2|3:0,0:0:0:0:
95,85,21923,2,1,L|91:45,1,37.5000000000001,0|8,0:0|0:1,0:0:0:0:
0,0,22220,1,0,0:0:0:0:
109,184,22517,2,1,P|139:160|183:151,1,75.0000000000002,2|0,3:2|0:0,0:0:0:0:
246,0,22963,2,1,L|289:10,1,37.5000000000001,0|0,3:0|0:0,0:0:0:0:
270,108,23260,1,8,0:1:0:0:
270,108,23557,1,8,0:2:0:0:
384,278,23854,6,1,P|416:267|446:237,1,75.0000000000002,2|0,3:2|3:0,0:0:0:0:
373,192,24299,2,1,L|366:149,1,37.5000000000001,0|8,0:0|0:1,0:0:0:0:
300,287,24596,2,1,L|293:330,1,37.5000000000001,0|8,0:0|0:2,0:0:0:0:
443,360,24893,1,2,3:2:0:0:
293,324,25191,2,1,L|286:286,1,37.5000000000001,0|0,0:0|3:0,0:0:0:0:
193,334,25488,2,1,P|168:352|122:353,1,75.0000000000002,0|0,0:0|0:0,0:0:0:0:
53,303,25933,1,8,0:2:0:0:
27,223,26082,1,8,0:2:0:0:
143,155,26230,6,1,L|134:234,1,75.0000000000002,10|0,3:2|3:0,0:0:0:0:
133,144,26676,2,1,L|121:105,1,37.5000000000001,0|8,0:0|0:1,0:0:0:0:
233,202,26973,1,0,0:0:0:0:
233,202,27270,2,1,P|280:208|304:198,1,75.0000000000002,2|0,3:2|0:0,0:0:0:0:
357,138,27715,1,0,3:0:0:0:
320,12,27864,1,0,0:0:0:0:
400,55,28012,5,8,0:1:0:0:
364,135,28161,1,0,0:0:0:0:
281,96,28309,2,1,L|235:90,1,37.5000000000001,8|0,0:2|0:0,0:0:0:0:
400,55,28606,5,6,3:1:0:0:
443,170,28755,1,0,0:0:0:0:
382,276,28903,1,0,3:0:0:0:
261,297,29052,2,1,P|237:289|207:287,1,50,0|8,0:0|0:1,0:0:0:0:
255,384,29497,2,1,P|280:382|304:375,1,50,8|2,0:2|3:2,0:0:0:0:
382,276,29794,5,8,0:2:0:0:
443,170,29943,1,0,0:0:0:0:
400,55,30091,1,0,3:0:0:0:
284,15,30240,2,1,L|229:23,1,50,0|8,3:0|0:1,0:0:0:0:
443,170,30686,2,1,L|498:178,1,50,8|0,0:2|0:0,0:0:0:0:
338,122,30983,6,1,P|327:179|311:232,1,100,2|0,3:2|3:0,0:0:0:0:
427,311,31428,2,1,P|416:287|402:248,1,50,0|8,0:0|0:1,0:0:0:0:
265,307,31725,2,1,P|276:331|290:370,1,50,0|8,0:0|0:2,0:0:0:0:
315,219,32022,2,1,P|261:214|203:201,1,100,2|0,3:2|0:0,0:0:0:0:
144,90,32468,2,1,P|173:66|216:62,1,75,0|0,3:0|0:0,0:0:0:0:
219,68,32765,2,1,L|229:118,1,50,8|0,0:1|0:0,0:0:0:0:
131,179,33062,1,8,0:2:0:0:
131,179,33359,6,1,P|111:234|121:293,1,100,2|0,3:2|3:0,0:0:0:0:
227,353,33804,2,1,L|276:342,1,50,0|8,0:0|0:1,0:0:0:0:
96,299,34101,2,1,L|107:348,1,50,0|8,0:0|0:2,0:0:0:0:
241,247,34398,2,1,L|344:264,1,100,2|0,3:2|0:0,0:0:0:0:
353,284,34844,1,0,3:0:0:0:
401,160,34992,2,1,L|413:215,1,50,0|8,0:0|0:1,0:0:0:0:
416,353,35290,1,0,0:0:0:0:
262,334,35438,2,1,P|236:337|213:344,1,50,8|0,0:2|0:0,0:0:0:0:
416,353,35735,6,1,P|456:343|494:292,1,100,2|0,3:2|3:0,0:0:0:0:
492,298,36181,2,1,L|485:245,1,50,0|10,0:0|0:1,0:0:0:0:
401,160,36478,1,0,0:0:0:0:
492,298,36775,2,1,L|506:180,1,100,2|0,3:2|0:0,0:0:0:0:
484,113,37220,1,0,3:0:0:0:
387,71,37369,1,0,0:0:0:0:
512,0,37517,5,8,0:1:0:0:
401,160,37814,1,8,0:2:0:0:
188,25,38111,6,1,L|187:79,2,50,4|0|12,3:1|3:0|0:1,0:0:0:0:
267,54,38854,1,0,0:0:0:0:
147,155,39002,6,1,B|123:169|123:169|152:179,1,50,0|8,3:0|0:1,0:0:0:0:
194,182,39225,1,0,0:0:0:0:
196,151,39299,1,8,0:1:0:0:
42,188,39448,1,8,0:1:0:0:
42,188,39745,1,0,3:0:0:0:
279,271,39893,5,12,0:1:0:0:
222,152,40042,1,0,3:0:0:0:
78,273,40191,1,12,0:1:0:0:
242,367,40339,1,8,0:1:0:0:
318,182,40488,6,1,P|360:169|469:262,1,187.5,6|0,3:1|0:0,0:0:0:0:
280,290,41082,2,1,P|206:285|159:342,1,125,8|8,0:1|0:2,0:0:0:0:
381,367,41527,2,1,L|451:357,1,62.5,10|8,0:1|0:2,0:0:0:0:
512,342,41824,2,1,L|450:333,1,62.5,8|8,0:1|3:2,0:0:0:0:
450,333,42121,1,0,0:0:0:0:
294,379,42270,6,1,L|406:363,1,87.5,8|0,0:1|0:0,0:0:0:0:
512,342,42567,1,8,0:2:0:0:
345,221,42715,1,8,0:1:0:0:
449,78,42864,6,1,P|476:105|431:238,1,187.5,2|0,3:2|0:0,0:0:0:0:
333,82,43458,2,1,P|279:47|197:58,1,125,8|8,0:1|0:2,0:0:0:0:
113,111,43903,2,1,P|119:139|123:176,1,62.5,10|8,0:1|0:2,0:0:0:0:
28,205,44200,1,8,0:1:0:0:
0,114,44349,2,1,P|2:83|9:53,1,62.5,0|0,3:0|0:0,0:0:0:0:
99,24,44646,6,1,P|107:62|112:111,1,87.5,8|0,0:1|0:0,0:0:0:0:
307,260,44943,2,1,P|302:303|293:346,1,87.5,8|8,0:2|0:1,0:0:0:0:
183,368,45240,6,1,P|141:342|59:339,1,125,2|0,3:2|3:0,0:0:0:0:
158,258,45686,2,1,P|187:257|224:251,1,62.5,0|8,0:0|0:1,0:0:0:0:
304,142,45983,1,0,0:0:0:0:
226,90,46131,1,8,0:2:0:0:
181,172,46280,1,10,0:1:0:0:
304,142,46577,5,8,0:1:0:0:
181,172,46725,2,1,L|117:162,1,62.5,0|0,3:0|0:0,0:0:0:0:
216,28,47022,2,1,L|226:92,1,62.5,8|0,0:1|0:0,0:0:0:0:
365,151,47319,2,1,L|304:142,1,62.5,8|8,0:2|0:1,0:0:0:0:
474,90,47616,5,2,3:2:0:0:
452,177,47765,1,0,0:0:0:0:
430,264,47913,1,0,3:0:0:0:
497,336,48062,2,1,L|439:381,1,62.5,0|8,0:0|0:1,0:0:0:0:
334,241,48359,1,0,0:0:0:0:
334,241,48507,2,1,L|343:313,1,62.5,8|10,0:2|0:1,0:0:0:0:
497,336,48953,5,8,0:1:0:0:
497,336,49101,2,1,L|439:381,1,62.5,8|0,0:2|3:0,0:0:0:0:
334,241,49398,2,1,L|347:341,1,87.5,12|0,0:1|0:0,0:0:0:0:
345,327,49695,1,8,0:1:0:0:
462,162,49844,1,8,0:1:0:0:
245,223,49992,6,1,P|193:238|109:152,1,187.5,14|0,3:1|0:0,0:0:0:0:
298,106,50587,2,1,P|357:107|428:55,1,125,8|8,0:1|0:2,0:0:0:0:
224,0,51032,2,1,P|222:35|214:73,1,62.5,10|8,0:1|0:2,0:0:0:0:
116,126,51329,1,8,0:1:0:0:
128,25,51478,2,1,P|133:55|134:86,1,62.5,0|0,3:0|0:0,0:0:0:0:
235,86,51775,6,1,P|233:43|223:-1,1,87.5,8|0,0:1|0:0,0:0:0:0:
223,0,52072,1,8,0:2:0:0:
30,77,52220,1,8,0:1:0:0:
216,200,52369,6,1,P|302:210|405:239,1,187.5,2|0,3:2|0:0,0:0:0:0:
261,358,52963,2,1,P|212:365|130:387,1,125,8|8,0:1|0:2,0:0:0:0:
18,341,53408,2,1,L|10:270,1,62.5,10|8,0:1|0:2,0:0:0:0:
117,214,53705,1,8,0:1:0:0:
117,214,53854,2,1,L|109:285,1,62.5,0|0,3:0|0:0,0:0:0:0:
20,365,54151,6,1,L|9:272,1,87.5,8|0,0:1|0:0,0:0:0:0:
77,134,54448,1,8,0:1:0:0:
249,237,54596,1,8,0:1:0:0:
81,138,54745,6,1,P|130:71|205:88,1,150,6|0,3:1|3:0,0:0:0:0:
309,51,55191,2,1,P|320:85|326:127,1,75,0|8,0:0|0:1,0:0:0:0:
249,237,55488,2,1,P|238:271|232:313,1,75,0|8,0:0|0:2,0:0:0:0:
338,379,55785,1,10,0:1:0:0:
338,379,56082,1,8,0:1:0:0:
232,309,56230,2,1,P|237:272|249:237,1,75,0|0,3:0|0:0,0:0:0:0:
325,123,56527,2,1,P|320:86|309:51,1,75,8|0,0:1|0:0,0:0:0:0:
189,76,56824,2,1,P|118:76|81:137,1,112.5,8|0,0:2|0:0,0:0:0:0:
81,138,57121,5,6,3:1:0:0:
207,175,57270,1,0,0:0:0:0:
334,212,57418,1,0,3:0:0:0:
207,175,57567,2,1,P|171:196|128:217,1,75,0|8,0:0|0:1,0:0:0:0:
345,306,57864,2,1,P|378:322|410:342,1,75,0|8,0:0|0:1,0:0:0:0:
207,360,58161,5,6,3:1:0:0:
256,192,58309,12,6,59497,3:1:0:0:
272,133,59794,5,0,3:0:0:0:
244,287,59943,1,0,0:0:0:0:
100,229,60092,2,1,B|130:272|126:340|126:340|107:305,1,150,8|8,0:1|0:2,0:0:0:0:
126,129,60537,6,1,P|101:187|-15:199,1,175,2|0,3:2|3:0,0:0:0:0:
37,62,60983,1,8,0:2:0:0:
190,31,61131,1,0,3:0:0:0:
0,18,61280,2,1,P|43:26|92:28,1,87.5,8|0,0:1|0:0,0:0:0:0:
219,120,61577,2,1,P|262:117|305:109,1,87.5,8|8,0:2|0:1,0:0:0:0:
444,6,61874,1,2,3:2:0:0:
492,270,62171,5,0,3:0:0:0:
442,344,62319,1,0,0:0:0:0:
361,201,62468,2,1,B|376:285|376:285|356:317|317:317,1,150,8|8,0:1|0:2,0:0:0:0:
492,270,62913,5,2,3:2:0:0:
361,201,63062,1,8,0:2:0:0:
245,292,63210,2,1,P|245:334|264:370,1,75,0|8,3:0|0:2,0:0:0:0:
322,316,63507,1,0,3:0:0:0:
279,162,63656,2,1,P|301:132|334:115,1,75,12|0,0:1|3:0,0:0:0:0:
481,195,63953,2,1,P|485:232|492:271,1,75,0|8,0:0|0:1,0:0:0:0:
322,316,64250,1,6,3:1:0:0:
153,160,64547,5,0,3:0:0:0:
50,131,64695,1,0,0:0:0:0:
163,183,64844,2,1,P|199:150|178:55,1,150,8|8,0:1|0:2,0:0:0:0:
182,58,65290,5,2,3:1:0:0:
83,206,65438,2,1,P|74:250|70:295,1,87.5,8|0,0:2|3:0,0:0:0:0:
158,338,65735,1,8,0:2:0:0:
83,206,65884,1,0,3:0:0:0:
0,384,66032,2,1,L|105:373,1,87.5,8|0,0:1|0:0,0:0:0:0:
283,269,66329,2,1,L|195:259,1,87.5,8|8,0:1|0:1,0:0:0:0:
387,163,66626,6,1,B|439:190|442:252|442:252|467:205,1,150,2|0,3:1|3:0,0:0:0:0:
389,334,67072,6,1,B|456:298|460:218|460:218|493:279,1,200,0|0,3:0|0:0,0:0:0:0:
294,231,67517,6,1,B|486:269|486:269|428:298,1,250,8|0,0:1|0:0,0:0:0:0:
215,338,67963,6,1,B|437:293|437:293|374:246,1,300,8|0,0:1|3:0,0:0:0:0:
165,186,68408,5,12,0:1:0:0:
300,141,68557,2,1,B|302:101|283:66|283:66|274:100,1,100,0|8,0:0|0:1,0:0:0:0:
215,338,69002,1,6,3:1:0:0:
215,338,69299,5,0,3:0:0:0:
100,361,69448,1,0,0:0:0:0:
0,237,69596,2,1,B|92:173|92:173|102:133,1,150,8|8,0:1|0:2,0:0:0:0:
0,237,70042,6,1,P|60:221|150:295,1,175,2|0,3:1|3:0,0:0:0:0:
273,166,70488,1,8,0:2:0:0:
129,54,70636,1,0,3:0:0:0:
273,166,70785,2,1,P|317:158|364:143,1,87.5,8|0,0:1|0:0,0:0:0:0:
493,13,71082,2,1,P|483:55|468:96,1,87.5,8|8,0:2|0:1,0:0:0:0:
382,253,71379,1,2,3:1:0:0:
177,111,71676,5,0,3:0:0:0:
260,56,71824,1,0,0:0:0:0:
159,24,71973,2,1,P|144:103|115:184,1,150,8|8,0:1|0:2,0:0:0:0:
66,71,72418,5,2,3:1:0:0:
260,56,72567,2,1,P|306:64|347:82,1,87.500000834465,8|0,0:2|3:0,0:0:0:0:
284,248,72864,2,1,P|238:240|197:222,1,87.500000834465,8|0,0:2|3:0,0:0:0:0:
66,71,73161,1,8,0:1:0:0:
271,150,73309,2,1,P|358:164|463:135,1,175.00000166893,4|8,0:1|0:1,0:0:0:0:
284,248,73755,1,6,3:1:0:0:
284,248,74052,5,0,3:0:0:0:
304,349,74200,1,0,0:0:0:0:
199,275,74349,2,1,P|200:233|211:193,1,75,8|0,0:1|0:0,0:0:0:0:
208,201,74646,1,8,0:2:0:0:
304,349,74794,5,2,3:1:0:0:
370,283,74943,2,1,B|453:301|442:242|512:258,1,150.000005722046,8|8,0:2|0:2,0:0:0:0:
464,364,75389,1,0,3:0:0:0:
362,208,75537,2,1,P|367:245|369:282,1,75,12|0,0:1|0:0,0:0:0:0:
243,118,75834,1,8,0:1:0:0:
403,15,75983,1,8,0:1:0:0:
243,118,76131,6,1,P|182:84|86:100,1,150,6|8,3:1|0:2,0:0:0:0:
291,51,76577,6,1,P|217:92|99:87,1,200,0|0,3:0|0:0,0:0:0:0:
21,261,77022,6,1,B|43:187|43:186|-9:102|-9:100|22:16,1,250,8|8,0:1|0:2,0:0:0:0:
291,51,77468,6,1,B|261:145|261:147|330:257|330:258|289:368,1,300,8|8,0:1|0:2,0:0:0:0:
126,346,77913,5,4,0:1:0:0:
21,261,78062,1,0,0:0:0:0:
67,133,78210,1,8,0:3:0:0:
200,140,78359,1,4,0:3:0:0:
239,269,78507,1,2,3:1:0:0:
126,346,78804,5,0,3:0:0:0:
239,269,78953,2,1,L|304:263,1,62.5,8|12,0:2|0:1,0:0:0:0:
374,322,79250,1,0,0:0:0:0:
489,195,79398,2,1,L|427:190,1,62.5,0|2,0:0|3:1,0:0:0:0:
356,127,79695,6,1,P|411:98|472:108,1,125,8|8,0:2|0:2,0:0:0:0:
471,107,80141,1,0,3:0:0:0:
389,21,80290,2,1,P|358:18|328:10,1,62.5,8|0,0:1|0:0,0:0:0:0:
251,133,80587,2,1,P|242:102|239:71,1,62.5,8|8,0:2|0:1,0:0:0:0:
245,64,80809,1,0,0:0:0:0:
251,57,80884,1,2,3:1:0:0:
251,57,81181,6,1,L|179:48,1,62.5,0|0,3:0|0:0,0:0:0:0:
330,98,81478,1,8,0:1:0:0:
194,202,81626,1,0,0:0:0:0:
194,202,81775,2,1,P|189:233|191:266,1,62.5,8|2,0:2|3:1,0:0:0:0:
295,241,82072,5,8,0:2:0:0:
178,364,82220,1,8,0:1:0:0:
295,241,82517,1,0,3:0:0:0:
96,221,82666,2,1,B|-24:192|-24:192|16:180,1,156.25,12|0,0:1|0:0,0:0:0:0:
70,133,83111,2,1,L|76:98,2,31.25,8|0|6,0:1|0:0|3:1,0:0:0:0:
81,371,83557,5,0,3:0:0:0:
81,371,83705,2,1,P|89:332|100:291,1,62.5,0|8,0:0|0:1,0:0:0:0:
181,187,84002,2,1,P|218:173|259:162,2,62.5,0|8|2,0:0|0:2|3:1,0:0:0:0:
101,219,84448,1,8,0:2:0:0:
177,367,84596,2,1,P|205:360|256:354,1,62.5,8|8,0:2|0:2,0:0:0:0:
322,272,84893,2,1,P|350:278|401:285,1,62.5,0|8,3:0|0:1,0:0:0:0:
445,201,85191,1,0,0:0:0:0:
507,315,85339,2,1,P|501:359|458:380,1,93.75,8|0,0:2|0:0,0:0:0:0:
445,367,85636,5,2,3:1:0:0:
383,283,85785,2,1,P|352:278|322:272,1,62.5,8|8,0:1|0:2,0:0:0:0:
430,106,86082,2,1,P|399:110|368:117,1,62.5,0|12,3:0|0:1,0:0:0:0:
272,173,86379,1,8,0:2:0:0:
253,51,86527,2,1,P|265:93|272:183,1,125,8|8,0:1|0:0,0:0:0:0:
253,51,86973,2,1,P|255:18|263:-14,1,62.5,8|0,0:1|3:0,0:0:0:0:
256,192,87418,12,1,88012,0:0:0:0:
