osu file format v14

[General]
AudioFilename: audio.mp3
AudioLeadIn: 0
PreviewTime: 39671
Countdown: 0
SampleSet: Soft
StackLeniency: 0.3
Mode: 0
LetterboxInBreaks: 0
WidescreenStoryboard: 1

[Editor]
Bookmarks: 9596,19101,28606,38111,40339,59497,66626,68408,76131,77913,87418
DistanceSpacing: 1.7
BeatDivisor: 8
GridSize: 4
TimelineZoom: 1.1

[Metadata]
Title:Mousou <3 Express (TV Size)
TitleUnicode:もうそう♡えくすぷれす (TV Size)
Artist:Sengoku Nadeko (CV: Hanazawa Kana)
ArtistUnicode:千石撫子(CV: 花澤香菜)
Creator:O K U
Version:Mirai's Extra
Source:〈物語〉シリーズ セカンドシーズン
Tags:囮物語 Monogatari Series Second Season Otorimonogatari opening op japanese j-pop jpop pop female vocal vocalist zglock o_k_u dt best mod dt_best_mod le mirai le_mirai sirmirai cacturne sanayui theshadowofdark not your kitty not_your_kitty
BeatmapID:4262832
BeatmapSetID:2041805

[Difficulty]
HPDrainRate:5
CircleSize:4.5
OverallDifficulty:8.5
ApproachRate:9.2
SliderMultiplier:1.7
SliderTickRate:1

[Events]
//Background and Video events
0,0,"bg.jpg",0,0
Video,-400,"Video.mp4"
//Break Periods
//Storyboard Layer 0 (Background)
//Storyboard Layer 1 (Fail)
//Storyboard Layer 2 (Pass)
//Storyboard Layer 3 (Foreground)
//Storyboard Layer 4 (Overlay)
//Storyboard Sound Samples

[TimingPoints]
92,594.059405940594,4,2,2,50,1,0
92,-222.222222222221,4,2,2,50,0,0
240,-222.222222222221,4,2,2,5,0,0
389,-100,4,2,2,50,0,0
2468,-222.222222222221,4,2,2,50,0,0
3062,-100,4,2,2,50,0,0
4844,-222.222222222221,4,2,2,50,0,0
5066,-222.222222222221,4,2,2,5,0,0
5141,-100,4,2,2,50,0,0
7220,-222.222222222221,4,2,2,50,0,0
7517,-100,4,2,2,50,0,0
9596,-83.3333333333333,4,2,1,70,0,0
9818,-83.3333333333333,4,2,1,5,0,0
9893,-83.3333333333333,4,2,1,70,0,0
12195,-83.3333333333333,4,2,1,5,0,0
12270,-83.3333333333333,4,2,1,70,0,0
14571,-83.3333333333333,4,2,1,5,0,0
14646,-83.3333333333333,4,2,1,70,0,0
17765,-76.9230769230769,4,2,1,70,0,0
17987,-76.9230769230769,4,2,1,5,0,0
18062,-76.9230769230769,4,2,1,70,0,0
19101,-100,4,2,1,60,0,0
19323,-100,4,2,1,5,0,0
19398,-100,4,2,1,60,0,0
28606,-100,4,2,1,70,0,0
29052,-83.3333333333333,4,2,1,70,0,0
30983,-71.4285714285714,4,2,1,70,0,0
33359,-83.3333333333333,4,2,1,70,0,0
34398,-76.9230769230769,4,2,1,70,0,0
36478,-71.4285714285714,4,2,1,70,0,0
36775,-66.6666666666667,4,2,1,70,0,0
38111,-250.000000000001,4,2,1,80,0,0
39002,-166.666666666667,4,2,1,80,0,0
39448,-111.111111111111,4,2,1,80,0,0
40488,-58.8235294117647,4,2,1,80,0,0
40710,-58.8235294117647,4,2,1,5,0,0
40785,-58.8235294117647,4,2,1,80,0,0
41527,-100,4,2,1,80,0,0
42270,-58.8235294117647,4,2,1,80,0,0
43086,-58.8235294117647,4,2,1,5,0,0
43161,-58.8235294117647,4,2,1,80,0,0
43903,-100,4,2,1,80,0,0
44646,-58.8235294117647,4,2,1,80,0,0
49398,-111.111111111111,4,2,1,80,0,0
49992,-58.8235294117647,4,2,1,80,0,0
50214,-58.8235294117647,4,2,1,5,0,0
50290,-58.8235294117647,4,2,1,80,0,0
51254,-58.8235294117647,4,2,1,5,0,0
51329,-58.8235294117647,4,2,1,80,0,0
52591,-58.8235294117647,4,2,1,5,0,0
52666,-58.8235294117647,4,2,1,80,0,0
53630,-58.8235294117647,4,2,1,5,0,0
53705,-58.8235294117647,4,2,1,80,0,0
54967,-58.8235294117647,4,2,1,5,0,0
55042,-58.8235294117647,4,2,1,80,0,0
55710,-58.8235294117647,4,2,1,5,0,0
55785,-58.8235294117647,4,2,1,80,0,0
59497,-52.6315789473684,4,2,1,80,0,0
59719,-52.6315789473684,4,2,1,5,0,0
59794,-52.6315789473684,4,2,1,80,0,0
61502,-52.6315789473684,4,2,1,5,0,0
61577,-52.6315789473684,4,2,1,80,0,0
62690,-52.6315789473684,4,2,1,5,0,0
62765,-52.6315789473684,4,2,1,80,0,0
63804,-66.6666666666667,4,2,1,80,0,0
64026,-66.6666666666667,4,2,1,5,0,0
64101,-66.6666666666667,4,2,1,80,0,0
64250,-52.6315789473684,4,2,1,80,0,0
64472,-52.6315789473684,4,2,1,5,0,0
64547,-52.6315789473684,4,2,1,80,0,0
66254,-52.6315789473684,4,2,1,5,0,0
66329,-52.6315789473684,4,2,1,80,0,0
66626,-50,4,2,1,80,0,0
66848,-50,4,2,1,5,0,0
66923,-100,4,2,1,80,0,0
67517,-50,4,2,1,80,0,0
67739,-50,4,2,1,5,0,0
67814,-50,4,2,1,80,0,0
68185,-50,4,2,1,80,0,0
68260,-50,4,2,1,80,0,0
68705,-100,4,2,1,80,0,0
69002,-52.6315789473684,4,2,1,80,0,0
69224,-52.6315789473684,4,2,1,5,0,0
69299,-52.6315789473684,4,2,1,80,0,0
71007,-52.6315789473684,4,2,1,5,0,0
71082,-52.6315789473684,4,2,1,80,0,0
71601,-52.6315789473684,4,2,1,5,0,0
71676,-52.6315789473684,4,2,1,80,0,0
73680,-52.6315789473684,4,2,1,5,0,0
73755,-52.6315789473684,4,2,1,80,0,0
74571,-52.6315789473684,4,2,1,5,0,0
74646,-52.6315789473684,4,2,1,80,0,0
75165,-52.6315789473684,4,2,1,5,0,0
75240,-52.6315789473684,4,2,1,80,0,0
75759,-52.6315789473684,4,2,1,5,0,0
75834,-52.6315789473684,4,2,1,80,0,0
76131,-50,4,2,1,80,0,0
76353,-50,4,2,1,5,0,0
76428,-100,4,2,1,80,0,0
77022,-50,4,2,1,80,0,0
77244,-50,4,2,1,5,0,0
77319,-50,4,2,1,80,0,0
77690,-50,4,2,1,5,0,0
77765,-50,4,2,1,80,0,0
78210,-55.5555555555556,4,2,1,80,0,0
78729,-55.5555555555556,4,2,1,5,0,0
78804,-55.5555555555556,4,2,1,80,0,0
87418,-142.857142857143,4,2,1,50,0,0

[Colours]
Combo1 : 127,127,127
Combo2 : 186,200,168
Combo3 : 155,158,114
Combo4 : 207,207,207

[HitObjects]
88,288,92,6,1,L|80:312,1,19.1249994163513,8|0,0:3|0:0,0:0:0:0:
152,279,389,2,1,L|111:266,1,42.5,8|0,0:3|0:0,0:0:0:0:
63,216,686,2,1,L|75:175,2,42.5,8|0|0,0:0|0:0|0:0,0:0:0:0:
142,151,1131,6,1,P|164:109|149:67,1,85,8|0,0:3|0:0,0:0:0:0:
93,41,1577,1,8,0:3:0:0:
35,80,1725,1,0,0:0:0:0:
142,151,1874,5,8,0:0:0:0:
142,151,2022,1,0,0:0:0:0:
210,177,2171,1,8,0:3:0:0:
210,177,2319,1,0,0:0:0:0:
88,288,2468,6,1,L|81:311,1,19.1250000000001,8|0,0:3|0:0,0:0:0:0:
155,272,2765,1,8,0:3:0:0:
75,175,3062,2,1,L|63:216,1,42.5,8|0,0:0|0:0,0:0:0:0:
4,255,3359,1,0,0:0:0:0:
142,151,3507,6,1,P|164:109|149:67,1,85,8|0,0:3|0:0,0:0:0:0:
93,41,3953,1,8,0:3:0:0:
35,80,4101,1,0,0:0:0:0:
142,151,4250,6,1,L|195:167,1,42.5,8|0,0:0|0:0,0:0:0:0:
215,224,4547,1,8,0:3:0:0:
215,224,4695,1,0,0:0:0:0:
88,288,4844,6,1,L|80:315,1,28.6875000000002,8|0,0:3|0:0,0:0:0:0:
152,279,5141,2,1,L|111:266,1,42.5,8|0,0:3|0:0,0:0:0:0:
63,216,5438,2,1,L|75:175,2,42.5,8|0|0,0:0|0:0|0:0,0:0:0:0:
147,191,5884,2,1,L|159:150,1,42.5,8|0,0:3|0:0,0:0:0:0:
164,75,6181,5,0,0:0:0:0:
103,42,6329,1,8,0:3:0:0:
35,80,6478,1,0,0:0:0:0:
164,154,6626,5,8,0:0:0:0:
212,209,6775,1,0,0:0:0:0:
281,173,6923,1,8,0:3:0:0:
329,228,7072,1,0,0:0:0:0:
88,288,7220,6,1,L|81:311,1,19.1250000000001,8|0,0:3|0:0,0:0:0:0:
169,273,7517,6,1,L|154:322,1,42.5,8|0,0:3|0:0,0:0:0:0:
208,366,7814,1,8,0:0:0:0:
208,366,7963,1,0,0:0:0:0:
277,339,8111,1,0,0:0:0:0:
169,273,8260,6,1,L|154:322,2,42.5,8|0|0,0:3|0:0|0:0,0:0:0:0:
88,288,8705,1,8,0:3:0:0:
28,237,8854,1,0,0:0:0:0:
169,273,9002,5,8,0:0:0:0:
238,304,9596,2,1,P|253:270|239:224,1,76.5,4|0,3:1|0:0,0:0:0:0:
228,227,9893,2,1,P|232:199|234:171,1,51,0|0,3:0|0:0,0:0:0:0:
137,67,10191,2,1,P|134:93|145:117,1,50.9999984436036,10|0,0:1|0:0,0:0:0:0:
224,44,10488,1,8,0:2:0:0:
231,52,10636,1,0,3:0:0:0:
238,61,10785,2,1,P|280:64|340:19,1,102,10|8,0:2|3:2,0:0:0:0:
158,21,11230,5,0,0:0:0:0:
158,21,11379,2,1,P|141:57|135:80,1,51,10|0,0:1|0:0,0:0:0:0:
73,152,11676,2,1,P|54:128|52:105,1,50.9999984436036,8|0,0:2|0:0,0:0:0:0:
163,190,11973,2,1,P|148:212|122:268,1,76.5,2|0,3:2|0:0,0:0:0:0:
111,269,12270,2,1,P|118:298|122:323,1,51,8|0,3:2|0:0,0:0:0:0:
187,349,12567,1,8,0:1:0:0:
245,308,12715,1,0,0:0:0:0:
254,317,12864,1,8,0:2:0:0:
264,329,13012,2,1,P|299:338|368:373,1,102,8|0,3:2|0:0,0:0:0:0:
427,330,13458,1,0,3:0:0:0:
491,367,13606,1,0,0:0:0:0:
362,288,13755,6,1,P|348:261|347:227,1,51,10|0,0:1|0:0,0:0:0:0:
454,207,14052,2,1,P|434:223|421:245,1,51,10|0,0:2|0:0,0:0:0:0:
380,177,14349,2,1,P|362:140|317:118,1,76.5,2|0,3:2|0:0,0:0:0:0:
319,130,14646,2,1,P|304:104|310:65,1,51,0|0,3:0|0:0,0:0:0:0:
360,34,14943,1,8,0:1:0:0:
421,77,15092,1,0,0:0:0:0:
424,89,15240,1,8,0:2:0:0:
427,102,15389,2,1,P|475:106|515:66,1,102,0|8,3:0|0:3,0:0:0:0:
505,0,15834,6,1,P|480:4|459:18,1,51,0|0,3:0|0:0,0:0:0:0:
316,108,16131,2,1,P|278:75|278:25,1,102,10|8,0:1|0:2,0:0:0:0:
192,79,16577,1,0,0:0:0:0:
58,98,16725,6,1,P|81:106|114:114,1,51,2|0,3:2|0:0,0:0:0:0:
57,188,17022,2,1,P|32:194|8:202,1,51,0|0,3:0|0:0,0:0:0:0:
141,213,17319,1,8,0:1:0:0:
100,274,17468,1,0,0:0:0:0:
100,274,17765,6,1,P|113:307|129:361,1,82.875,0|0,3:0|0:0,0:0:0:0:
143,356,18062,1,8,0:2:0:0:
201,298,18210,1,0,3:0:0:0:
271,350,18359,1,0,0:0:0:0:
329,292,18507,1,8,0:1:0:0:
329,292,18804,5,8,0:2:0:0:
398,270,19101,6,1,P|408:230|418:193,1,63.75,6|0,3:1|0:0,0:0:0:0:
440,207,19398,1,0,3:0:0:0:
421,127,19547,1,0,0:0:0:0:
499,44,19695,2,1,P|494:65|489:86,1,42.5,8|0,0:1|0:0,0:0:0:0:
420,52,19992,2,1,P|415:31|410:11,1,42.5,8|2,0:2|3:2,0:0:0:0:
352,86,20290,1,8,0:2:0:0:
154,137,20587,5,0,3:0:0:0:
229,152,20735,1,0,0:0:0:0:
276,94,20884,1,8,0:1:0:0:
105,233,21181,6,1,P|82:220|55:215,1,42.5,8|0,0:2|0:0,0:0:0:0:
112,301,21478,2,1,P|73:311|39:353,1,85,2|0,3:2|3:0,0:0:0:0:
110,374,21923,1,0,0:0:0:0:
176,343,22072,1,8,0:1:0:0:
248,367,22220,2,1,P|271:379|295:381,1,42.5,0|8,0:0|0:2,0:0:0:0:
394,349,22517,6,1,P|399:293|289:317,1,212.5,2|8,3:2|0:1,0:0:0:0:
289,314,23854,6,1,P|320:322|344:333,1,42.5,2|0,3:2|0:0,0:0:0:0:
340,247,24151,2,1,P|360:240|381:237,1,42.5,0|0,3:0|0:0,0:0:0:0:
452,246,24448,1,8,0:1:0:0:
448,319,24596,2,1,P|425:313|403:298,1,42.5,0|8,0:0|0:2,0:0:0:0:
437,137,24893,6,1,P|429:156|425:177,1,42.5,2|8,3:2|0:2,0:0:0:0:
338,125,25191,2,1,P|345:144|349:165,1,42.5,0|0,0:0|3:0,0:0:0:0:
380,237,25488,1,0,0:0:0:0:
380,237,25636,1,8,0:1:0:0:
273,159,25785,6,1,P|261:135|264:110,1,42.5,0|8,0:0|0:2,0:0:0:0:
304,63,26082,1,8,0:2:0:0:
212,192,26230,1,10,3:2:0:0:
212,192,26527,5,0,3:0:0:0:
157,245,26676,1,0,0:0:0:0:
289,284,26824,1,8,0:1:0:0:
261,350,26973,1,0,0:0:0:0:
180,343,27121,1,8,0:2:0:0:
365,265,27270,2,1,P|403:285|451:309,1,85,2|0,3:2|0:0,0:0:0:0:
440,303,27715,5,0,3:0:0:0:
492,253,27864,1,0,0:0:0:0:
404,147,28012,1,8,0:1:0:0:
359,90,28161,1,0,0:0:0:0:
424,53,28309,2,1,P|426:36|431:11,1,42.5,8|0,0:2|0:0,0:0:0:0:
290,130,28606,5,6,3:1:0:0:
232,172,28755,1,0,0:0:0:0:
163,162,28903,1,0,3:0:0:0:
125,103,29052,1,0,0:0:0:0:
190,227,29200,6,1,P|187:250|167:276,1,50.9999984436036,8|0,0:1|0:0,0:0:0:0:
265,343,29497,2,1,P|261:317|246:297,1,50.9999984436036,8|2,0:2|3:2,0:0:0:0:
363,173,29794,5,8,0:2:0:0:
405,229,29943,1,0,0:0:0:0:
396,298,30091,1,0,3:0:0:0:
338,337,30240,1,0,3:0:0:0:
461,270,30388,6,1,P|484:272|510:292,1,50.9999984436036,8|0,0:1|0:0,0:0:0:0:
456,338,30685,1,8,0:2:0:0:
231,256,30983,6,1,P|216:198|193:143,1,119,2|0,3:2|3:0,0:0:0:0:
279,107,31428,1,0,0:0:0:0:
133,89,31577,1,8,0:1:0:0:
251,105,31725,1,0,0:0:0:0:
258,176,31874,1,8,0:2:0:0:
153,225,32022,6,1,B|38:203|125:154|21:56|-85:182|16:245|87:174,1,297.5,2|8,3:2|0:1,0:0:0:0:
78,181,33359,6,1,P|70:132|62:74,1,102,2|0,3:2|3:0,0:0:0:0:
168,23,33804,2,1,P|147:47|127:72,1,51,0|8,0:0|0:1,0:0:0:0:
44,81,34101,2,1,P|35:49|26:21,1,51,0|8,0:0|0:2,0:0:0:0:
162,128,34398,6,1,P|196:141|261:190,1,110.5,2|0,3:2|0:0,0:0:0:0:
332,175,34844,2,1,P|351:149|345:103,1,55.25,0|0,3:0|0:0,0:0:0:0:
303,71,35141,1,8,0:1:0:0:
303,71,35438,6,1,P|298:46|286:12,1,55.25,8|0,0:2|0:0,0:0:0:0:
493,34,35735,6,1,P|470:77|408:76,1,110.5,2|0,3:2|3:0,0:0:0:0:
297,143,36181,2,1,P|329:138|353:124,1,55.25,0|10,0:0|0:1,0:0:0:0:
476,188,36478,2,1,P|453:168|425:159,1,59.5,0|8,0:0|0:2,0:0:0:0:
305,259,36775,6,1,P|377:303|415:227,1,191.25,2|0,3:2|3:0,0:0:0:0:
415,227,38111,6,1,P|412:204|408:172,1,50.9999999999998,4|0,3:1|0:0,0:0:0:0:
294,89,38705,1,12,0:1:0:0:
320,25,38854,1,0,0:0:0:0:
201,63,39002,6,1,P|208:76|211:94,1,25.4999999999999,0|8,3:0|0:1,0:0:0:0:
66,211,39299,5,8,0:1:0:0:
130,179,39448,2,1,P|133:163|147:93,1,76.5000000000001,8|0,0:1|3:0,0:0:0:0:
1,70,39893,6,1,P|8:92|30:107,1,38.25,12|0,0:1|3:0,0:0:0:0:
79,66,40191,2,1,P|71:43|49:28,1,38.25,12|8,0:1|0:1,0:0:0:0:
130,179,40488,6,1,P|175:193|231:237,1,108.375,6|0,3:1|0:0,0:0:0:0:
295,226,40785,2,1,P|314:194|302:151,1,72.25,0|0,3:0|0:0,0:0:0:0:
155,269,41082,2,1,P|136:301|148:344,1,72.25,8|0,0:1|0:0,0:0:0:0:
203,372,41379,1,8,0:2:0:0:
477,341,41527,6,1,P|485:321|498:298,1,42.5,10|8,0:1|0:2,0:0:0:0:
301,357,41824,6,1,P|290:338|282:318,1,42.5,8|8,0:1|3:2,0:0:0:0:
374,366,42121,1,0,0:0:0:0:
454,246,42270,6,1,P|455:210|434:181,1,72.25,8|0,0:1|0:0,0:0:0:0:
360,204,42567,1,8,0:2:0:0:
193,72,42715,1,8,0:1:0:0:
450,101,42864,6,1,P|393:113|339:140,1,108.375,2|0,3:2|0:0,0:0:0:0:
281,165,43161,2,1,P|240:160|202:140,1,72.25,0|0,3:0|0:0,0:0:0:0:
56,254,43458,2,1,P|91:250|124:236,1,72.25,8|0,0:1|0:0,0:0:0:0:
142,166,43755,1,8,0:2:0:0:
236,314,43903,6,1,P|251:299|260:280,1,42.5,10|8,0:1|0:2,0:0:0:0:
91,360,44200,6,1,P|75:345|66:326,1,42.5,8|0,0:1|3:0,0:0:0:0:
163,368,44497,1,0,0:0:0:0:
323,322,44646,6,1,P|339:288|319:237,1,72.25,8|0,0:1|0:0,0:0:0:0:
355,184,44943,1,8,0:2:0:0:
166,270,45092,1,8,0:1:0:0:
244,73,45240,6,1,B|162:52|210:17|115:-2,1,144.5,2|0,3:2|3:0,0:0:0:0:
51,30,45686,1,0,0:0:0:0:
161,109,45834,2,1,B|124:123|151:136|105:155,1,72.25,8|0,0:1|0:0,0:0:0:0:
42,123,46131,1,8,0:2:0:0:
207,179,46280,2,1,P|193:228|168:336,1,144.5,10|8,0:1|0:1,0:0:0:0:
298,350,46725,6,1,P|261:358|231:376,1,72.25,0|0,3:0|0:0,0:0:0:0:
88,313,47022,2,1,P|51:321|21:339,1,72.25,8|0,0:1|0:0,0:0:0:0:
225,292,47319,2,1,P|193:273|158:266,1,72.25,8|8,0:2|0:1,0:0:0:0:
65,158,47616,5,2,3:2:0:0:
1,187,47765,1,0,0:0:0:0:
32,250,47913,1,0,3:0:0:0:
96,220,48062,1,0,0:0:0:0:
14,326,48210,5,8,0:1:0:0:
21,338,48359,1,0,0:0:0:0:
178,315,48656,6,1,P|148:286|112:282,1,72.25,10|8,0:1|0:2,0:0:0:0:
91,216,48953,2,1,P|56:223|32:249,2,72.25,8|8|0,0:1|0:2|3:0,0:0:0:0:
236,354,49398,6,1,P|245:335|247:315,1,38.2499988327027,12|0,0:1|0:0,0:0:0:0:
164,209,49695,2,1,P|159:190|147:172,1,38.25,8|8,0:1|0:1,0:0:0:0:
384,265,49992,6,1,P|410:224|401:152,1,108.375,14|0,3:1|0:0,0:0:0:0:
391,162,50290,2,1,P|361:132|366:90,1,72.25,0|0,3:0|0:0,0:0:0:0:
435,0,50587,2,1,P|477:42|406:99,1,144.5,8|8,0:1|0:2,0:0:0:0:
286,122,51032,2,1,B|221:95|273:77|173:49,1,108.375,10|0,0:1|0:0,0:0:0:0:
175,66,51329,2,1,P|159:97|167:132,1,72.25,8|0,0:1|3:0,0:0:0:0:
224,177,51626,1,0,0:0:0:0:
164,312,51775,6,1,P|89:322|25:352,1,144.5,8|8,0:1|0:2,0:0:0:0:
78,288,52220,1,8,0:1:0:0:
238,353,52369,6,1,B|249:302|291:328|297:247,1,108.375,2|0,3:2|0:0,0:0:0:0:
273,274,52666,2,1,P|242:251|240:196,1,72.25,0|0,3:0|0:0,0:0:0:0:
353,143,52963,2,1,P|342:176|313:197,1,72.25,8|0,0:1|0:0,0:0:0:0:
254,149,53260,1,8,0:2:0:0:
417,296,53408,6,1,P|457:307|503:367,1,108.375,10|0,0:1|0:0,0:0:0:0:
486,369,53705,2,1,P|457:348|465:291,1,72.25,8|0,0:1|3:0,0:0:0:0:
512,252,54002,1,0,0:0:0:0:
385,201,54151,2,1,P|417:186|463:221,1,72.25,8|0,0:1|0:0,0:0:0:0:
512,252,54448,1,8,0:1:0:0:
327,275,54596,1,8,0:1:0:0:
214,202,54745,6,1,P|158:174|108:200,1,108.375,6|0,3:1|0:0,0:0:0:0:
107,207,55042,2,1,P|68:221|32:207,1,72.25,0|0,3:0|0:0,0:0:0:0:
142,92,55339,1,8,0:1:0:0:
162,252,55488,2,1,P|142:288|74:304,1,108.375,0|0,0:0|0:0,0:0:0:0:
70,322,55785,2,1,L|-11:282,1,72.25,10|8,0:1|0:2,0:0:0:0:
214,202,56082,5,8,0:1:0:0:
277,246,56230,2,1,P|261:285|251:323,1,72.25,0|0,3:0|0:0,0:0:0:0:
278,169,56527,2,1,P|252:135|224:107,1,72.25,8|0,0:1|0:0,0:0:0:0:
341,205,56824,2,1,P|382:199|420:189,1,72.25,8|0,0:2|0:0,0:0:0:0:
456,140,57121,5,6,3:1:0:0:
502,196,57270,1,0,0:0:0:0:
356,317,57418,1,0,3:0:0:0:
407,267,57567,1,0,0:0:0:0:
504,364,57715,5,8,0:1:0:0:
497,371,57864,1,0,0:0:0:0:
272,255,58012,1,8,0:1:0:0:
220,303,58161,1,6,3:1:0:0:
161,264,58309,1,0,0:1:0:0:
342,74,58458,5,8,0:3:0:0:
210,206,58606,1,4,0:3:0:0:
153,153,58755,1,8,0:0:0:0:
31,341,58903,5,8,0:0:0:0:
272,255,59052,1,4,0:3:0:0:
85,120,59200,1,0,3:0:0:0:
82,134,59349,1,8,0:3:0:0:
268,171,59497,6,1,B|339:152|295:116|381:103,1,121.125,6|0,3:1|0:0,0:0:0:0:
431,122,59794,2,1,P|406:164|372:173,1,80.75,0|0,3:0|0:0,0:0:0:0:
259,95,60092,2,1,P|243:50|226:2,1,80.75,8|0,0:1|0:0,0:0:0:0:
312,34,60389,1,8,0:2:0:0:
171,73,60537,5,2,3:2:0:0:
268,171,60686,1,8,0:2:0:0:
228,233,60834,1,0,3:0:0:0:
29,156,60983,5,8,0:2:0:0:
98,177,61131,1,0,3:0:0:0:
122,247,61280,2,1,B|65:285|108:295|35:350,1,121.125,8|0,0:1|0:0,0:0:0:0:
6,283,61577,2,1,P|51:271|89:290,1,80.75,8|8,0:2|0:1,0:0:0:0:
247,362,61874,6,1,P|292:374|330:355,1,80.75,2|0,3:2|0:0,0:0:0:0:
374,306,62171,1,0,3:0:0:0:
438,356,62319,1,0,0:0:0:0:
284,291,62468,2,1,B|295:249|359:249|356:190,1,121.125,8|0,0:1|0:0,0:0:0:0:
287,186,62765,2,1,P|250:158|251:117,1,80.75,8|2,0:2|3:2,0:0:0:0:
390,18,63062,5,8,0:2:0:0:
437,94,63210,1,0,3:0:0:0:
423,92,63359,1,8,0:2:0:0:
368,147,63507,1,0,3:0:0:0:
143,29,63656,5,12,0:1:0:0:
207,61,63804,2,1,P|166:70|109:103,1,95.625,0|0,3:0|0:0,0:0:0:0:
53,77,64101,1,8,0:1:0:0:
146,159,64250,6,1,P|105:190|71:261,1,121.125,6|0,3:1|0:0,0:0:0:0:
21,304,64547,2,1,P|56:325|110:309,1,80.75,0|0,3:0|0:0,0:0:0:0:
280,220,64844,2,1,P|245:199|191:215,1,80.75,8|0,0:1|0:0,0:0:0:0:
156,264,65141,1,8,0:2:0:0:
311,362,65290,5,2,3:1:0:0:
378,320,65438,2,1,P|415:335|457:357,1,80.75,8|0,0:2|3:0,0:0:0:0:
363,237,65735,2,1,P|396:215|428:190,1,80.75,8|0,0:2|3:0,0:0:0:0:
280,220,66032,2,1,P|269:147|266:74,1,121.125,8|0,0:1|0:0,0:0:0:0:
334,80,66329,2,1,P|340:36|342:-7,1,80.75,8|8,0:1|0:1,0:0:0:0:
187,88,66626,6,1,B|113:67|162:50|73:23,1,127.5,2|0,3:1|0:0,0:0:0:0:
60,46,66923,1,0,3:0:0:0:
47,117,67072,2,0,P|27:125|9:135,1,42.5,0|8,3:0|0:1,0:0:0:0:
160,160,67369,5,0,0:0:0:0:
212,213,67517,2,1,P|176:256|149:336,1,127.5,8|0,0:1|0:0,0:0:0:0:
161,330,67814,1,0,0:0:0:0:
35,300,67963,1,8,0:1:0:0:
248,281,68111,5,8,0:2:0:0:
341,344,68260,1,0,3:0:0:0:
322,269,68408,1,12,0:1:0:0:
389,234,68557,1,0,0:0:0:0:
424,298,68705,2,1,P|447:307|474:324,1,42.5,8|8,0:2|0:1,0:0:0:0:
466,346,69002,6,1,B|453:289|405:313|391:229,1,121.125,6|0,3:1|0:0,0:0:0:0:
465,238,69299,2,1,P|501:215|508:168,1,80.75,0|0,3:0|0:0,0:0:0:0:
307,119,69596,2,1,P|324:162|334:204,1,80.75,8|0,0:1|0:0,0:0:0:0:
411,173,69893,1,8,0:2:0:0:
280,259,70042,1,2,3:1:0:0:
367,81,70191,5,8,0:2:0:0:
234,143,70339,1,0,3:0:0:0:
151,89,70488,1,8,0:2:0:0:
89,133,70636,1,0,3:0:0:0:
4,7,70785,6,1,P|52:-1|80:60,1,121.125,8|0,0:1|0:0,0:0:0:0:
12,77,71082,1,8,0:2:0:0:
191,26,71230,1,8,0:1:0:0:
154,167,71379,6,1,P|131:213|111:292,1,121.125,2|0,3:1|0:0,0:0:0:0:
49,314,71676,2,1,P|81:348|135:347,1,80.75,0|0,3:0|0:0,0:0:0:0:
263,313,71973,2,1,P|317:254|410:256,1,161.5,8|8,0:1|0:2,0:0:0:0:
449,303,72418,1,2,3:1:0:0:
496,131,72567,5,8,0:2:0:0:
488,151,72715,1,0,3:0:0:0:
402,133,72864,1,8,0:2:0:0:
375,59,73012,1,0,3:0:0:0:
243,147,73161,5,8,0:1:0:0:
144,105,73309,2,1,P|98:57|196:56,1,201.874994609356,4|0,0:1|0:0,0:0:0:0:
255,4,73755,2,1,P|265:41|235:80,1,80.7499978437424,6|0,3:1|0:0,0:0:0:0:
176,182,74052,1,0,3:0:0:0:
73,164,74200,1,0,0:0:0:0:
29,353,74349,6,1,P|67:318|145:322,1,121.125,8|0,0:1|0:0,0:0:0:0:
182,381,74646,1,8,0:2:0:0:
103,383,74794,1,2,3:1:0:0:
305,267,74943,2,1,P|364:265|409:303,1,121.125,8|0,0:2|0:0,0:0:0:0:
467,343,75240,2,1,P|500:313|492:253,1,80.75,8|0,0:2|3:0,0:0:0:0:
420,196,75537,2,1,P|433:136|450:60,1,121.125,12|0,0:1|0:0,0:0:0:0:
377,75,75834,2,1,P|364:31|346:-7,1,80.75,8|8,0:1|0:1,0:0:0:0:
212,136,76131,6,1,P|155:148|116:74,1,127.5,6|0,3:1|0:0,0:0:0:0:
249,58,76428,1,8,0:2:0:0:
138,97,76577,6,0,P|145:77|156:44,1,42.5,0|8,3:0|0:1,0:0:0:0:
246,69,76874,1,0,0:0:0:0:
123,111,77022,6,1,P|137:154|159:241,1,127.5,8|0,0:1|0:0,0:0:0:0:
140,247,77319,1,8,0:2:0:0:
89,306,77468,2,1,B|168:331|102:356|218:376,1,127.5,8|0,0:1|0:0,0:0:0:0:
270,349,77765,1,8,0:2:0:0:
232,289,77913,1,4,0:1:0:0:
287,241,78062,1,0,0:0:0:0:
265,220,78210,2,1,P|255:177|248:142,1,76.4999999999999,8|4,0:3|0:3,0:0:0:0:
441,11,78507,6,1,P|493:39|476:98,1,114.75,2|0,3:1|0:0,0:0:0:0:
420,76,78804,1,0,3:0:0:0:
314,32,78953,1,8,0:2:0:0:
133,141,79101,1,12,0:1:0:0:
191,96,79250,2,1,P|183:58|173:13,1,76.4999999999999,0|0,0:0|0:0,0:0:0:0:
258,122,79547,5,2,3:1:0:0:
204,178,79695,1,8,0:2:0:0:
207,189,79844,1,0,3:0:0:0:
58,321,79992,5,8,0:2:0:0:
122,250,80141,1,0,3:0:0:0:
250,367,80290,1,8,0:1:0:0:
190,329,80438,2,1,P|154:339|119:371,1,76.4999999999999,0|8,0:0|0:2,0:0:0:0:
58,321,80735,1,8,0:1:0:0:
254,292,80884,6,1,P|275:255|261:205,1,76.4999999999999,2|0,3:1|0:0,0:0:0:0:
156,152,81181,1,0,3:0:0:0:
194,212,81329,1,0,0:0:0:0:
385,161,81478,6,1,P|422:169|457:182,1,76.4999999999999,8|0,0:1|0:0,0:0:0:0:
437,246,81775,2,1,P|401:232|364:224,1,76.4999999999999,8|2,0:2|3:1,0:0:0:0:
254,292,82072,5,8,0:2:0:0:
194,212,82220,2,1,P|184:172|165:111,1,76.4999999999999,8|10,0:1|0:2,0:0:0:0:
260,301,82517,5,0,3:0:0:0:
309,164,82666,2,1,P|319:124|338:63,1,76.4999999999999,12|0,0:1|0:0,0:0:0:0:
264,312,82963,5,8,0:2:0:0:
93,207,83111,1,8,0:1:0:0:
136,263,83260,2,1,P|125:304|115:356,1,76.4999999999999,6|0,3:1|0:0,0:0:0:0:
194,212,83557,1,0,3:0:0:0:
53,279,83705,5,0,0:0:0:0:
264,230,83854,2,1,P|298:247|348:270,1,76.4999999999999,8|0,0:1|0:0,0:0:0:0:
486,257,84151,1,8,0:2:0:0:
409,294,84299,1,2,3:1:0:0:
444,360,84448,5,8,0:2:0:0:
465,368,84596,1,8,0:2:0:0:
452,376,84745,1,8,0:2:0:0:
407,211,84893,5,0,3:0:0:0:
291,318,85042,2,1,P|233:336|136:372,1,153,8|8,0:1|0:2,0:0:0:0:
42,317,85488,1,8,0:1:0:0:
114,299,85636,1,2,3:1:0:0:
64,200,85785,5,8,0:1:0:0:
9,156,85933,1,8,0:2:0:0:
177,52,86082,1,0,3:0:0:0:
79,129,86230,2,1,P|67:86|53:45,1,76.4999999999999,12|8,0:1|0:2,0:0:0:0:
132,182,86527,1,8,0:1:0:0:
136,192,86676,1,2,3:1:0:0:
275,119,86824,6,1,P|289:72|306:29,1,76.4999999999999,8|8,0:0|0:1,0:0:0:0:
340,164,87121,1,0,3:0:0:0:
209,288,87270,1,8,0:1:0:0:
413,334,87418,6,1,P|405:316|396:300,1,29.75,0|0,0:0|0:0,0:0:0:0:
339,335,87715,2,1,P|345:348|351:361,1,29.75,0|0,0:0|0:0,0:0:0:0:
