osu file format v14

[General]
AudioFilename: Sengoku Nadeko (Hanazawa Kana) - Ren'ai Circulation (NOSLO Remix).mp3
AudioLeadIn: 2000
PreviewTime: 36480
Countdown: 0
SampleSet: Soft
StackLeniency: 0.7
Mode: 0
LetterboxInBreaks: 0
WidescreenStoryboard: 1

[Editor]
DistanceSpacing: 1.4
BeatDivisor: 4
GridSize: 4
TimelineZoom: 1

[Metadata]
Title:Renai Circulation (NOSLO Remix)
TitleUnicode:恋愛サーキュレーション (NOSLO Remix)
Artist:Sengoku Nadekko (CV:Hanazawa Kana)
ArtistUnicode:千石撫子 (CV:花澤香菜)
Creator:guineaQ
Version:Normal
Source:
Tags:
BeatmapID:1178960
BeatmapSetID:311043

[Difficulty]
HPDrainRate:4
CircleSize:3.5
OverallDifficulty:4
ApproachRate:5
SliderMultiplier:1.2
SliderTickRate:1

[Events]
//Background and Video events
0,0,"MOE.jpg",0,0
//Break Periods
2,22562,35280
2,64915,77633
2,93150,105868
2,135503,148221
2,165503,178221
//Storyboard Layer 0 (Background)
//Storyboard Layer 1 (Fail)
//Storyboard Layer 2 (Pass)
//Storyboard Layer 3 (Foreground)
//Storyboard Sound Samples

[TimingPoints]
1186,441.176470588235,4,2,1,40,1,0
36480,-100,4,2,1,50,0,1
64715,-100,4,2,1,40,0,0
107068,-100,4,2,1,50,0,1
135303,-100,4,2,1,40,0,0
165303,-100,4,2,1,50,0,0
179421,-100,4,2,1,50,0,1
193538,-100,4,2,1,40,0,0

[Colours]
Combo1 : 255,194,128
Combo2 : 255,172,209
Combo3 : 151,216,255
Combo4 : 252,71,184

[HitObjects]
212,123,1186,6,0,P|271:141|301:191,1,120,4|0,0:1|0:0,0:0:0:0:
218,207,1847,1,0,0:0:0:0:
136,227,2068,2,0,L|126:128,2,90,0|0|0,0:0|0:0|0:0,0:0:0:0:
89,297,2950,6,0,P|164:274|225:284,1,120,0|0,0:0|0:0,0:0:0:0:
274,323,3612,1,0,0:0:0:0:
354,297,3833,2,0,L|344:198,2,90,0|0|0,0:0|0:0|0:0,0:0:0:0:
436,315,4715,6,0,L|422:181,1,120,0|0,0:0|0:0,0:0:0:0:
473,128,5377,1,0,0:0:0:0:
400,86,5597,2,0,P|363:99|319:159,2,90,0|0|0,0:0|0:0|0:0,0:0:0:0:
473,128,6480,6,0,L|482:217,2,90,0|0|0,0:0|0:0|0:0,0:0:0:0:
474,43,7362,1,0,0:0:0:0:
328,135,7803,1,8,0:0:0:0:
328,135,8244,6,0,L|189:135,1,120,6|8,0:0|0:0,0:0:0:0:
123,135,8906,2,0,P|127:90|86:30,1,120,0|2,0:0|0:0,0:0:0:0:
44,103,9568,1,8,0:0:0:0:
44,103,10009,6,0,L|44:232,1,120,2|8,0:0|0:0,0:0:0:0:
103,282,10671,2,0,L|103:348,2,60,0|0|2,0:0|0:0|0:0,0:0:0:0:
162,222,11333,1,8,0:0:0:0:
162,222,11774,6,0,L|162:102,1,120,2|8,0:0|0:0,0:0:0:0:
147,19,12435,2,0,P|197:23|246:97,1,120,0|2,0:0|0:0,0:0:0:0:
249,156,13097,1,8,0:0:0:0:
249,156,13538,6,0,L|391:156,1,120,2|8,0:0|0:0,0:0:0:0:
437,204,14200,1,0,0:0:0:0:
361,240,14421,2,0,P|346:296|350:346,2,90,0|0|2,0:0|0:0|0:0,0:0:0:0:
437,204,15303,6,0,L|437:68,1,120,2|8,0:0|0:0,0:0:0:0:
377,24,15965,2,0,L|243:24,1,120,0|2,0:0|0:0,0:0:0:0:
197,83,16627,1,8,0:0:0:0:
197,83,17068,6,0,P|230:108|242:191,1,120,2|8,0:0|0:0,0:0:0:0:
163,160,17730,2,0,P|116:188|106:216,2,60,0|0|2,0:0|0:0|0:0,0:0:0:0:
184,240,18391,1,8,0:0:0:0:
184,240,18833,6,0,L|323:240,1,120,2|8,0:0|0:0,0:0:0:0:
361,300,19494,2,0,L|361:168,1,120,0|2,0:0|0:0,0:0:0:0:
420,120,20156,1,8,0:0:0:0:
420,120,20597,6,0,P|376:92|287:88,1,120,2|8,0:0|0:0,0:0:0:0:
256,148,21259,1,0,0:0:0:0:
202,83,21480,2,0,P|143:89|97:117,2,90,0|0|2,0:0|0:0|0:0,0:0:0:0:
256,148,22362,5,6,0:1:0:0:
298,154,36480,6,0,P|316:95|296:41,1,120,6|8,0:0|0:0,0:0:0:0:
214,42,37141,2,0,P|195:98|214:154,1,120,0|2,0:0|0:0,0:0:0:0:
256,224,37803,2,0,L|336:231,1,60,8|0,0:0|0:0,0:0:0:0:
382,177,38244,6,0,P|362:240|375:302,2,120,2|8|0,0:0|0:0|0:0,0:0:0:0:
452,131,39347,1,2,0:0:0:0:
401,63,39568,2,0,P|362:62|323:77,1,60,8|0,0:0|0:0,0:0:0:0:
269,110,40009,6,0,L|155:99,2,90,2|0|0,0:0|0:0|0:0,0:0:0:0:
316,179,40891,2,0,L|430:168,2,90,0|0|0,0:0|0:0|0:0,0:0:0:0:
244,223,41774,6,0,L|130:212,2,90,2|0|0,0:0|0:0|0:0,0:0:0:0:
290,293,42656,1,0,0:0:0:0:
405,170,43097,2,0,L|398:87,1,60,8|0,0:0|0:0,0:0:0:0:
427,30,43538,6,0,P|376:69|314:69,1,120,2|8,0:0|0:0,0:0:0:0:
240,91,44200,2,0,P|189:52|127:52,1,120,0|2,0:0|0:0,0:0:0:0:
165,128,44862,2,0,L|165:194,1,60,8|0,0:0|0:0,0:0:0:0:
232,236,45303,6,0,L|114:255,2,120,2|8|0,0:0|0:0|0:0,0:0:0:0:
303,280,46406,1,2,0:0:0:0:
375,322,46627,2,0,P|386:272|374:241,1,60,8|0,0:0|0:0,0:0:0:0:
349,188,47068,6,0,P|402:185|449:212,2,90,2|0|0,0:0|0:0|0:0,0:0:0:0:
299,257,47950,2,0,P|269:213|269:158,2,90,0|0|0,0:0|0:0|0:0,0:0:0:0:
349,188,48833,6,0,L|352:82,2,90,2|0|0,0:0|0:0|0:0,0:0:0:0:
299,257,49715,2,0,L|239:269,1,60,0|2,0:0|0:0,0:0:0:0:
169,222,50156,2,0,L|109:210,1,60,8|2,0:0|0:0,0:0:0:0:
47,153,50597,6,0,P|60:202|47:279,2,120,6|8|0,0:0|0:0|0:0,0:0:0:0:
3,81,51700,1,2,0:0:0:0:
79,46,51921,2,0,L|160:52,1,60,8|0,0:0|0:0,0:0:0:0:
205,102,52362,6,0,L|342:114,2,120,2|8|0,0:0|0:0|0:0,0:0:0:0:
126,132,53465,1,2,0:0:0:0:
190,184,53685,2,0,P|199:227|197:259,1,60,8|2,0:0|0:0,0:0:0:0:
142,306,54127,6,0,P|204:294|266:310,1,120,2|8,0:0|0:0,0:0:0:0:
326,257,54788,2,0,P|326:180|308:122,1,120,0|2,0:0|0:0,0:0:0:0:
247,89,55450,2,0,L|247:21,1,60,8|0,0:0|0:0,0:0:0:0:
162,29,55891,6,0,L|162:166,1,120,2|8,0:0|0:0,0:0:0:0:
162,233,56553,1,2,0:0:0:0:
235,272,56774,2,0,P|204:304|161:317,2,90,2|2|2,0:0|0:0|0:0,0:0:0:0:
278,199,57656,6,0,P|314:193|404:216,2,120,2|8|0,0:0|0:0|0:0,0:0:0:0:
204,240,58759,1,2,0:0:0:0:
170,162,58980,2,0,L|170:86,1,60,8|0,0:0|0:0,0:0:0:0:
91,72,59421,6,0,L|91:192,1,120,2|8,0:0|0:0,0:0:0:0:
33,253,60083,2,0,P|82:274|148:250,1,120,2|2,0:0|0:0,0:0:0:0:
176,177,60744,2,0,P|211:204|227:239,1,60,8|2,0:0|0:0,0:0:0:0:
213,301,61185,5,2,0:0:0:0:
355,211,61627,1,10,0:0:0:0:
261,71,62068,1,2,0:0:0:0:
119,161,62510,1,10,0:0:0:0:
213,301,62950,6,0,L|320:292,2,90,2|2|0,0:0|0:0|0:0,0:0:0:0:
164,231,63833,2,0,L|57:222,2,90,0|2|2,0:0|0:0|0:0,0:0:0:0:
244,204,64715,5,6,0:1:0:0:
256,288,78833,6,0,L|256:140,1,120,6|8,0:0|0:0,0:0:0:0:
196,108,79494,2,0,L|48:108,1,120,0|2,0:0|0:0,0:0:0:0:
16,167,80156,1,8,0:0:0:0:
16,167,80597,6,0,P|41:221|119:244,1,120,2|8,0:0|0:0,0:0:0:0:
170,211,81259,2,0,P|177:243|168:279,2,60,0|0|2,0:0|0:0|0:0,0:0:0:0:
103,160,81921,1,8,0:0:0:0:
103,160,82362,6,0,L|235:104,1,120,2|8,0:0|0:0,0:0:0:0:
298,113,83024,2,0,L|409:160,1,120,0|2,0:0|0:0,0:0:0:0:
486,192,83685,1,8,0:0:0:0:
486,192,84127,6,0,P|419:207|367:247,1,120,2|8,0:0|0:0,0:0:0:0:
325,301,84788,1,2,0:0:0:0:
256,252,85009,2,0,L|256:152,2,90,2|2|2,0:0|0:0|0:0,0:0:0:0:
187,301,85891,6,0,P|126:269|83:224,1,120,2|8,0:0|0:0,0:0:0:0:
89,150,86553,2,0,P|133:109|187:83,1,120,0|2,0:0|0:0,0:0:0:0:
256,132,87215,1,8,0:0:0:0:
256,132,87656,6,0,L|393:132,1,120,2|8,0:0|0:0,0:0:0:0:
436,192,88318,2,0,L|504:192,2,60,0|0|2,0:0|0:0|0:0,0:0:0:0:
376,252,88980,1,8,0:0:0:0:
376,252,89421,6,0,L|256:252,1,120,2|8,0:0|0:0,0:0:0:0:
191,305,90083,2,0,P|175:272|202:188,1,120,0|2,0:0|0:0,0:0:0:0:
256,136,90744,1,8,0:0:0:0:
256,136,91185,6,0,L|120:136,1,120,2|8,0:0|0:0,0:0:0:0:
76,192,91847,2,0,L|8:192,2,60,2|2|2,0:0|0:0|0:0,0:0:0:0:
136,252,92509,2,0,L|208:252,1,60,8|2,0:0|0:0,0:0:0:0:
280,252,92950,5,6,0:1:0:0:
184,153,107068,6,0,L|217:22,1,120,6|8,0:0|0:0,0:0:0:0:
298,36,107730,2,0,L|328:153,1,120,0|2,0:0|0:0,0:0:0:0:
256,196,108391,2,0,P|206:212|180:233,1,60,8|0,0:0|0:0,0:0:0:0:
163,292,108833,6,0,L|122:161,2,120,2|8|0,0:0|0:0|0:0,0:0:0:0:
228,344,109935,1,2,0:0:0:0:
245,261,110156,2,0,P|283:248|329:244,1,60,8|0,0:0|0:0,0:0:0:0:
382,271,110597,6,0,P|416:313|431:359,2,90,2|0|0,0:0|0:0|0:0,0:0:0:0:
333,201,111480,2,0,P|352:150|384:114,2,90,0|0|0,0:0|0:0|0:0,0:0:0:0:
295,276,112362,6,0,P|241:284|194:274,2,90,2|0|0,0:0|0:0|0:0,0:0:0:0:
367,232,113244,1,0,0:0:0:0:
294,80,113685,2,0,L|294:161,1,60,8|2,0:0|0:0,0:0:0:0:
234,199,114127,6,0,L|114:199,1,120,2|8,0:0|0:0,0:0:0:0:
56,260,114788,2,0,L|56:116,1,120,0|2,0:0|0:0,0:0:0:0:
114,79,115450,2,0,L|188:79,1,60,8|0,0:0|0:0,0:0:0:0:
258,79,115891,6,0,B|310:79|310:79|326:91|326:91|391:91,2,120,2|8|0,0:0|0:0|0:0,0:0:0:0:
198,138,116994,1,2,0:0:0:0:
138,197,117215,2,0,L|138:263,1,60,8|0,0:0|0:0,0:0:0:0:
96,330,117656,6,0,P|60:286|55:232,2,90,2|0|0,0:0|0:0|0:0,0:0:0:0:
180,330,118538,2,0,P|216:286|220:232,2,90,0|0|0,0:0|0:0|0:0,0:0:0:0:
138,257,119421,6,0,L|138:150,2,90,2|0|0,0:0|0:0|0:0,0:0:0:0:
180,330,120303,2,0,L|263:330,1,60,0|2,0:0|0:0,0:0:0:0:
310,284,120744,2,0,L|393:284,1,60,8|2,0:0|0:0,0:0:0:0:
429,224,121185,6,0,P|456:151|426:98,2,120,6|8|0,0:0|0:0|0:0,0:0:0:0:
371,162,122288,1,2,0:0:0:0:
313,100,122509,2,0,L|240:100,1,60,8|0,0:0|0:0,0:0:0:0:
193,159,122950,6,0,L|52:159,2,120,2|8|0,0:0|0:0|0:0,0:0:0:0:
252,218,124053,1,2,0:0:0:0:
311,277,124274,2,0,L|380:277,1,60,8|2,0:0|0:0,0:0:0:0:
433,333,124715,6,0,P|453:294|424:212,1,120,2|8,0:0|0:0,0:0:0:0:
356,193,125377,2,0,P|336:153|365:71,1,120,0|2,0:0|0:0,0:0:0:0:
418,137,126038,2,0,L|498:137,1,60,8|0,0:0|0:0,0:0:0:0:
478,52,126480,6,0,L|342:52,1,120,2|8,0:0|0:0,0:0:0:0:
274,52,127141,1,2,0:0:0:0:
274,136,127362,2,0,L|274:250,2,90,2|2|2,0:0|0:0|0:0,0:0:0:0:
274,51,128244,6,0,L|143:51,2,120,2|8|0,0:0|0:0|0:0,0:0:0:0:
346,94,129347,1,2,0:0:0:0:
422,129,129568,2,0,P|453:162|465:190,1,60,8|0,0:0|0:0,0:0:0:0:
380,203,130009,6,0,P|349:251|296:287,1,120,2|8,0:0|0:0,0:0:0:0:
214,286,130671,2,0,P|164:252|132:203,1,120,2|2,0:0|0:0,0:0:0:0:
58,162,131333,2,0,P|77:138|125:121,1,60,8|2,0:0|0:0,0:0:0:0:
184,103,131774,5,2,0:0:0:0:
344,153,132215,1,10,0:0:0:0:
292,312,132656,1,2,0:0:0:0:
132,262,133097,1,10,0:0:0:0:
184,103,133538,6,0,P|172:44|155:-1,2,90,2|2|0,0:0|0:0|0:0,0:0:0:0:
258,142,134421,2,0,P|317:130|362:113,2,90,2|2|2,0:0|0:0|0:0,0:0:0:0:
186,186,135303,5,6,0:1:0:0:
299,251,149421,6,0,L|299:130,1,120,6|8,0:0|0:0,0:0:0:0:
213,131,150083,2,0,L|213:251,1,120,2|0,0:0|0:0,0:0:0:0:
256,324,150744,1,8,0:0:0:0:
299,251,150965,6,0,P|356:256|426:227,1,120,2|0,0:0|0:0,0:0:0:0:
414,148,151627,2,0,P|358:128|299:133,1,120,8|0,0:0|0:0,0:0:0:0:
144,192,152509,1,8,0:0:0:0:
256,320,152950,6,0,L|299:198,1,120,2|8,0:0|0:0,0:0:0:0:
216,177,153612,2,0,L|256:64,1,120,2|0,0:0|0:0,0:0:0:0:
340,64,154274,1,8,0:0:0:0:
423,64,154494,6,0,L|462:177,1,120,2|0,0:0|0:0,0:0:0:0:
401,235,155156,2,0,L|270:235,1,120,8|0,0:0|0:0,0:0:0:0:
120,192,156038,1,8,0:0:0:0:
102,24,156480,6,0,P|174:33|229:74,1,120,2|8,0:0|0:0,0:0:0:0:
298,57,157141,2,0,P|350:28|409:24,1,120,2|0,0:0|0:0,0:0:0:0:
457,93,157803,1,8,0:0:0:0:
383,134,158024,6,0,L|360:272,1,120,2|0,0:0|0:0,0:0:0:0:
279,252,158685,2,0,L|259:133,1,120,8|0,0:0|0:0,0:0:0:0:
403,46,159568,1,8,0:0:0:0:
259,133,160009,6,0,L|116:152,1,120,2|8,0:0|0:0,0:0:0:0:
140,235,160671,2,0,L|259:251,1,120,2|0,0:0|0:0,0:0:0:0:
316,192,161333,1,8,0:0:0:0:
372,130,161553,6,0,P|420:123|495:160,1,120,2|0,0:0|0:0,0:0:0:0:
484,234,162215,2,0,P|431:259|372:254,1,120,8|0,0:0|0:0,0:0:0:0:
216,192,163097,1,8,0:0:0:0:
256,192,163538,12,6,165303,0:1:0:0:
205,170,179421,6,0,L|194:29,2,120,6|8|0,0:0|0:0|0:0,0:0:0:0:
197,253,180524,1,2,0:0:0:0:
273,218,180744,2,0,L|352:216,1,60,8|0,0:0|0:0,0:0:0:0:
401,167,181185,6,0,P|383:224|386:302,2,120,2|8|0,0:0|0:0|0:0,0:0:0:0:
467,114,182288,1,2,0:0:0:0:
388,84,182509,2,0,L|328:85,1,60,8|2,0:0|0:0,0:0:0:0:
259,134,182950,6,0,P|195:121|138:89,1,120,2|8,0:0|0:0,0:0:0:0:
77,47,183612,2,0,P|94:89|97:179,1,120,0|2,0:0|0:0,0:0:0:0:
50,230,184274,2,0,P|32:266|31:301,1,60,8|0,0:0|0:0,0:0:0:0:
113,285,184715,6,0,L|239:285,1,120,2|8,0:0|0:0,0:0:0:0:
298,231,185377,1,2,0:0:0:0:
362,177,185597,2,0,P|380:215|369:272,2,90,0|2|2,0:0|0:0|0:0,0:0:0:0:
282,149,186480,6,0,P|322:103|395:101,2,120,2|8|0,0:0|0:0|0:0,0:0:0:0:
298,231,187583,1,2,0:0:0:0:
218,203,187803,2,0,L|148:203,1,60,8|0,0:0|0:0,0:0:0:0:
92,150,188244,6,0,L|110:283,1,120,0|8,0:0|0:0,0:0:0:0:
50,330,188906,2,0,L|197:330,1,120,2|2,0:0|0:0,0:0:0:0:
239,282,189568,2,0,L|299:282,1,60,8|2,0:0|0:0,0:0:0:0:
355,219,190009,5,2,0:0:0:0:
254,84,190450,1,10,0:0:0:0:
119,184,190891,1,2,0:0:0:0:
220,319,191332,1,10,0:0:0:0:
355,219,191774,6,0,L|465:213,2,90,2|2|2,0:0|0:0|0:0,0:0:0:0:
286,170,192656,2,0,L|176:164,2,90,0|2|2,0:0|0:0|0:0,0:0:0:0:
356,123,193538,6,0,P|333:60|286:12,1,120,6|8,0:0|0:0,0:0:0:0:
213,20,194200,2,0,P|175:66|156:123,1,120,2|2,0:0|0:0,0:0:0:0:
208,192,194862,1,8,0:0:0:0:
208,192,195303,6,0,P|254:232|256:305,1,120,2|8,0:0|0:0,0:0:0:0:
178,272,195965,2,0,P|144:292|125:326,2,60,0|0|2,0:0|0:0|0:0,0:0:0:0:
205,351,196627,1,8,0:0:0:0:
205,351,197068,6,0,L|338:351,1,120,2|8,0:0|0:0,0:0:0:0:
384,291,197730,2,0,L|384:158,1,120,0|2,0:0|0:0,0:0:0:0:
384,87,198391,1,8,0:0:0:0:
384,87,198833,6,0,P|327:104|266:138,1,120,2|8,0:0|0:0,0:0:0:0:
212,192,199494,1,0,0:0:0:0:
273,251,199715,2,0,P|326:279|375:295,2,90,0|0|2,0:0|0:0|0:0,0:0:0:0:
212,192,200597,6,0,L|82:192,1,120,2|8,0:0|0:0,0:0:0:0:
92,107,201259,2,0,L|212:107,1,120,0|2,0:0|0:0,0:0:0:0:
296,107,201921,1,8,0:0:0:0:
296,107,202362,6,0,P|337:137|365:206,1,120,2|8,0:0|0:0,0:0:0:0:
302,256,203024,2,0,P|302:310|317:336,2,60,0|0|2,0:0|0:0|0:0,0:0:0:0:
380,284,203685,1,8,0:0:0:0:
380,284,204127,6,0,L|501:230,1,120,2|8,0:0|0:0,0:0:0:0:
489,148,204788,2,0,L|380:100,1,120,0|2,0:0|0:0,0:0:0:0:
295,100,205450,1,8,0:0:0:0:
295,100,205891,6,0,L|295:226,1,120,2|8,0:0|0:0,0:0:0:0:
256,296,206553,1,0,0:0:0:0:
217,220,206774,2,0,L|217:113,2,90,0|2|2,0:0|0:0|0:0,0:0:0:0:
256,296,207656,6,0,P|304:312|365:312,2,90,6|0|0,0:0|0:0|0:0,0:0:0:0:
217,220,208538,2,0,L|93:234,1,120,0|8,0:0|0:0,0:0:0:0:
256,296,209421,6,0,P|208:312|147:312,2,90,2|0|0,0:0|0:0|0:0,0:0:0:0:
295,220,210303,2,0,L|419:234,1,120,0|8,0:0|0:0,0:0:0:0:
308,102,211185,6,0,P|252:94|188:124,1,120,2|8,0:0|0:0,0:0:0:0:
204,282,212068,2,0,P|260:290|324:260,1,120,0|8,0:0|0:0,0:0:0:0:
397,118,212950,6,0,L|341:8,1,120,0|8,0:0|0:0,0:0:0:0:
169,11,213833,2,0,L|115:118,1,120,2|0,0:0|0:0,0:0:0:0:
256,208,214715,6,0,L|352:208,2,90,2|0|0,0:0|0:0|0:0,0:0:0:0:
226,286,215597,2,0,P|180:297|100:305,1,120,0|8,0:0|0:0,0:0:0:0:
247,210,216480,6,0,L|151:210,2,90,2|0|2,0:0|0:0|0:0,0:0:0:0:
286,286,217362,2,0,P|332:297|412:305,1,120,0|8,0:0|0:0,0:0:0:0:
363,141,218244,6,0,P|345:97|344:17,1,120,0|8,0:0|0:0,0:0:0:0:
169,25,219127,2,0,P|169:84|149:141,1,120,0|8,0:0|0:0,0:0:0:0:
38,267,220009,6,0,L|162:304,1,120,2|8,0:0|0:0,0:0:0:0:
256,168,220891,1,2,0:0:0:0:
