osu file format v14

[General]
AudioFilename: audio.mp3
AudioLeadIn: 0
PreviewTime: 54970
Countdown: 1
SampleSet: Soft
StackLeniency: 0.7
Mode: 0
LetterboxInBreaks: 0
WidescreenStoryboard: 0

[Editor]
DistanceSpacing: 1.5
BeatDivisor: 4
GridSize: 4
TimelineZoom: 2

[Metadata]
Title:Start Line!
TitleUnicode:スタートライン!
Artist:Sena. Rie from AIKATSU*STARS!
ArtistUnicode:せな・りえ from AIKATSU☆STARS!
Creator:kusano
Version:Insane
Source:アイカツスターズ!
Tags:aikatsu stars! op
BeatmapID:1433235
BeatmapSetID:677744

[Difficulty]
HPDrainRate:7
CircleSize:4
OverallDifficulty:7
ApproachRate:8.5
SliderMultiplier:1.9
SliderTickRate:1

[Events]
//Background and Video events
0,0,"aista.png",0,0
Video,-708,"AiSta.avi"
//Break Periods
//Storyboard Layer 0 (Background)
//Storyboard Layer 1 (Fail)
//Storyboard Layer 2 (Pass)
//Storyboard Layer 3 (Foreground)
//Storyboard Sound Samples

[TimingPoints]
382,379.746835443038,4,2,1,75,1,0
382,-133.333333333333,4,2,1,75,0,0
9495,-100,4,2,1,85,0,0
18609,-133.333333333333,4,2,1,75,0,0
30382,-100,4,2,1,85,0,0
54685,-100,4,2,1,90,0,0
55065,-90.9090909090909,4,2,1,95,0,1
85445,-100,4,2,1,95,0,0

[Colours]
Combo1 : 128,128,255
Combo2 : 249,241,98
Combo3 : 255,104,180
Combo4 : 243,119,44

[HitObjects]
320,76,382,5,4,0:0:0:0:
200,48,571,1,0,0:0:0:0:
100,120,761,1,0,0:0:0:0:
100,120,951,2,0,P|92:156|88:200,1,71.2500027179719
248,128,1331,2,0,P|216:147|182:176,1,71.2500027179719
348,236,1711,2,0,P|311:228|267:224,1,71.2500027179719,0|0,1:0|0:0,0:0:0:0:
80,276,2090,6,0,P|188:268|260:348,1,213.750008153916,0|0,1:0|0:0,0:0:0:0:
400,352,2850,2,0,P|415:320|427:286,1,71.2500027179719
444,192,3230,1,0,0:0:0:0:
384,120,3419,2,0,P|312:104|252:144,1,142.500005435944,2|2,1:2|0:0,0:0:0:0:
176,188,3989,1,0,0:0:0:0:
176,188,4179,2,0,P|100:200|44:160,1,142.500005435944,2|2,0:0|0:0,0:0:0:0:
16,80,4749,1,2,0:0:0:0:
80,16,4938,5,0,1:0:0:0:
160,68,5128,1,2,0:0:0:0:
160,68,5223,1,0,0:0:0:0:
160,68,5318,1,0,0:0:0:0:
248,40,5508,2,0,L|276:44,4,17.812500679493,2|0|0|0|0,0:0|0:0|0:0|0:0|1:0,0:0:0:0:
344,16,5888,1,2,0:0:0:0:
472,80,6078,1,0,0:0:0:0:
424,216,6268,1,2,0:0:0:0:
340,176,6457,6,0,L|240:184,1,71.2500027179719,2|0,1:2|0:0,0:0:0:0:
176,192,6837,1,2,0:0:0:0:
92,152,7027,2,0,L|40:140,2,35.625001358986,0|0|2,0:0|0:0|0:0,0:0:0:0:
216,108,7407,2,0,L|256:84,2,35.625001358986
100,240,7787,6,0,L|108:320,1,71.2500027179719,0|0,1:0|0:0,0:0:0:0:
288,144,8166,2,0,L|280:64,1,71.2500027179719,0|0,1:0|0:0,0:0:0:0:
92,152,8546,1,0,1:0:0:0:
188,264,8736,1,0,0:0:0:0:
220,260,8831,1,0,0:0:0:0:
252,256,8926,1,0,0:0:0:0:
284,252,9021,1,0,0:0:0:0:
316,248,9116,1,0,0:0:0:0:
348,244,9211,1,0,0:0:0:0:
380,240,9306,1,0,0:0:0:0:
412,236,9400,1,0,0:0:0:0:
444,232,9495,5,4,1:2:0:0:
356,140,9685,1,0,0:0:0:0:
340,144,9780,1,0,0:0:0:0:
324,148,9875,1,4,1:2:0:0:
252,72,10065,1,0,0:0:0:0:
236,68,10160,1,0,0:0:0:0:
220,64,10255,1,4,1:2:0:0:
128,40,10445,1,0,0:0:0:0:
48,96,10635,1,4,1:2:0:0:
216,152,10825,5,0,0:0:0:0:
212,172,10919,1,0,0:0:0:0:
208,192,11014,1,2,0:0:0:0:
132,124,11204,1,0,0:0:0:0:
28,216,11394,2,0,L|36:260,7,23.75,2|0|0|0|0|0|0|0,0:0|0:0|0:0|0:0|0:0|0:0|0:0|0:0,0:0:0:0:
28,216,11774,2,0,P|68:228|120:212,1,95,0|2,0:0|0:0,0:0:0:0:
256,52,12154,1,4,0:0:0:0:
256,52,12249,1,0,0:0:0:0:
256,52,12344,1,0,0:0:0:0:
256,52,12438,1,0,0:0:0:0:
256,52,12533,6,0,P|304:56|364:68,1,95,4|0,0:0|0:0,0:0:0:0:
440,100,12913,1,0,1:0:0:0:
480,184,13103,1,0,0:0:0:0:
436,196,13198,1,0,0:0:0:0:
396,184,13293,2,0,P|304:172|236:236,1,190,0|0,1:0|1:0,0:0:0:0:
240,328,13863,6,0,P|284:316|324:272,1,95,0|0,0:0|1:0,0:0:0:0:
304,172,14242,1,0,0:0:0:0:
180,156,14432,2,0,P|146:189|134:234,1,95,0|0,1:0|0:0,0:0:0:0:
380,352,14812,2,0,P|402:312|399:253,1,95,0|0,1:0|0:0,0:0:0:0:
448,180,15192,2,0,P|436:136|391:96,1,95,0|0,1:0|0:0,0:0:0:0:
316,64,15571,6,0,P|224:80|148:20,1,190,0|0,1:0|1:0,0:0:0:0:
52,28,16141,1,0,0:0:0:0:
0,108,16331,2,0,L|12:212,1,95,0|0,1:0|0:0,0:0:0:0:
160,164,16711,1,0,1:0:0:0:
160,164,16806,1,0,0:0:0:0:
160,164,16900,6,0,P|162:213|148:264,1,95,0|0,0:0|1:0,0:0:0:0:
88,332,17280,1,0,0:0:0:0:
240,264,17470,2,0,L|312:280,2,47.5,0|0|2,1:0|0:0|0:0,0:0:0:0:
372,292,17850,1,0,0:0:0:0:
464,256,18040,1,0,1:0:0:0:
484,228,18135,1,0,0:0:0:0:
496,196,18230,1,0,1:0:0:0:
500,164,18325,1,0,0:0:0:0:
496,132,18419,1,0,0:0:0:0:
484,100,18514,1,0,0:0:0:0:
464,72,18609,6,0,L|384:48,1,71.2500027179719,4|0,0:0|0:0,0:0:0:0:
308,84,18989,2,0,P|276:84|236:100,1,71.2500027179719,2|0,0:0|0:0,0:0:0:0:
152,68,19369,2,0,P|120:68|80:52,2,71.2500027179719,0|0|2,0:0|0:0|0:0,0:0:0:0:
8,100,19938,6,0,P|-4:168|24:236,1,142.500005435944,0|2,0:0|0:0,0:0:0:0:
308,300,20698,2,0,P|316:232|292:164,1,142.500005435944,0|2,0:0|0:0,0:0:0:0:
224,108,21268,1,0,0:0:0:0:
136,112,21457,6,0,P|104:132|76:172,1,71.2500027179719
112,248,21837,2,0,P|144:268|172:308,1,71.2500027179719,0|2,0:0|0:0,0:0:0:0:
256,272,22217,2,0,P|328:264|388:308,1,142.500005435944
464,96,22976,6,0,P|392:88|324:140,1,142.500005435944,2|0,0:0|0:0,0:0:0:0:
288,200,23546,1,2,0:0:0:0:
376,200,23736,2,0,P|420:140|400:68,1,142.500005435944,0|2,0:0|0:0,0:0:0:0:
328,32,24306,1,0,0:0:0:0:
240,12,24495,6,0,P|168:20|88:68,1,142.500005435944,0|2,0:0|0:0,0:0:0:0:
56,128,25065,1,0,0:0:0:0:
108,204,25255,1,2,0:0:0:0:
32,252,25445,1,0,0:0:0:0:
144,124,25635,2,0,P|184:152|200:180,1,71.2500027179719
228,260,26014,6,0,P|268:232|284:204,1,71.2500027179719,2|0,0:0|0:0,0:0:0:0:
276,124,26394,1,0,0:0:0:0:
195,170,26584,1,0,0:0:0:0:
324,296,26774,2,0,P|364:236|352:164,1,142.500005435944,2|2,0:0|0:0,0:0:0:0:
276,124,27344,1,0,0:0:0:0:
196,76,27533,6,0,P|124:72|64:120,1,142.500005435944,2|2,0:0|0:0,0:0:0:0:
44,200,28103,1,0,0:0:0:0:
152,152,28293,1,0,0:0:0:0:
128,240,28483,1,2,0:0:0:0:
196,76,28673,1,0,0:0:0:0:
236,180,28863,2,0,L|264:252,1,71.2500027179719,2|0,0:0|0:0,0:0:0:0:
292,100,29242,5,2,0:0:0:0:
444,212,29432,2,0,P|372:220|316:168,2,142.500005435944,0|2|2,0:0|0:0|0:0,0:0:0:0:
292,100,30382,2,0,L|140:72,1,142.5,4|0,0:0|0:0,0:0:0:0:
72,56,30761,5,4,1:2:0:0:
28,140,30951,1,0,0:0:0:0:
160,96,31141,1,0,1:0:0:0:
116,180,31331,1,0,0:0:0:0:
120,196,31426,1,0,0:0:0:0:
124,212,31521,1,0,0:0:0:0:
244,140,31711,2,0,P|292:148|344:160,1,95,8|0,0:0|0:0,0:0:0:0:
416,264,32090,6,0,P|372:268|320:244,1,95,0|0,1:0|0:0,0:0:0:0:
244,140,32470,1,8,0:0:0:0:
304,68,32660,2,0,P|348:64|400:88,1,95,0|0,1:0|0:0,0:0:0:0:
164,192,33040,2,0,P|120:196|68:172,1,95,8|8,0:0|0:0,0:0:0:0:
24,96,33419,1,0,1:0:0:0:
144,24,33609,1,0,0:0:0:0:
144,24,33704,1,0,0:0:0:0:
144,24,33799,6,0,L|132:120,1,95,8|0,0:0|0:0,0:0:0:0:
252,80,34179,2,0,L|264:176,1,95,2|0,0:0|0:0,0:0:0:0:
276,268,34559,1,2,0:0:0:0:
200,324,34749,2,0,P|240:360|296:360,1,95,8|0,0:0|0:0,0:0:0:0:
368,332,35128,1,0,1:0:0:0:
196,232,35318,6,0,P|140:232|104:256,1,95,0|2,0:0|0:0,0:0:0:0:
76,288,35603,1,0,0:0:0:0:
76,288,35698,1,0,1:0:0:0:
124,368,35888,1,2,0:0:0:0:
280,276,36078,2,0,P|288:228|272:176,1,95,8|8,0:0|0:0,0:0:0:0:
232,100,36457,1,0,1:0:0:0:
136,108,36647,1,0,0:0:0:0:
136,108,36742,1,0,0:0:0:0:
136,108,36837,6,0,L|32:100,1,95,8|0,0:0|0:0,0:0:0:0:
176,24,37217,1,0,1:0:0:0:
268,8,37407,2,0,P|308:28|336:72,1,95
244,188,37787,2,0,L|248:80,1,95,8|0,0:0|0:0,0:0:0:0:
424,52,38166,6,0,L|420:160,1,95,0|0,1:0|0:0,0:0:0:0:
415,243,38546,1,8,0:0:0:0:
324,212,38736,2,0,P|276:216|232:240,1,95,0|0,1:0|0:0,0:0:0:0:
160,296,39116,2,0,P|112:292|68:268,1,95,8|8,0:0|0:0,0:0:0:0:
20,192,39495,1,0,1:0:0:0:
76,116,39685,1,0,0:0:0:0:
76,116,39780,1,0,0:0:0:0:
76,116,39875,6,0,P|116:92|168:84,1,95,8|0,0:0|0:0,0:0:0:0:
256,100,40255,1,2,0:0:0:0:
340,56,40445,1,0,0:0:0:0:
260,8,40635,1,0,0:0:0:0:
148,164,40825,2,0,P|164:248|172:272,1,95,8|2,0:0|0:0,0:0:0:0:
380,224,41204,6,0,P|392:178|398:131,1,95,0|0,1:0|0:0,0:0:0:0:
392,36,41584,1,10,0:0:0:0:
308,80,41774,1,0,1:0:0:0:
232,24,41964,1,2,0:0:0:0:
232,24,42059,1,0,0:0:0:0:
232,24,42154,1,8,0:0:0:0:
392,36,42344,1,2,0:0:0:0:
240,140,42533,1,0,1:0:0:0:
208,132,42628,1,0,0:0:0:0:
176,124,42723,1,2,0:0:0:0:
144,116,42818,1,0,0:0:0:0:
112,108,42913,5,12,0:0:0:0:
60,312,43293,1,0,0:0:0:0:
128,244,43483,1,8,0:0:0:0:
208,296,43673,1,2,1:2:0:0:
212,204,43863,1,0,0:0:0:0:
40,220,44052,1,0,0:0:0:0:
120,124,44242,1,0,0:0:0:0:
120,124,44432,5,10,0:0:0:0:
304,296,44717,1,8,0:0:0:0:
444,84,45002,1,0,0:0:0:0:
444,84,45097,1,0,0:0:0:0:
444,84,45192,2,0,P|352:56|276:112,1,190,2|0,1:2|0:0,0:0:0:0:
196,152,45761,1,8,0:0:0:0:
196,152,45856,1,0,0:0:0:0:
196,152,45951,6,0,L|80:140,1,95,2|0,1:2|0:0,0:0:0:0:
24,88,46331,1,0,0:0:0:0:
48,216,46521,1,0,0:0:0:0:
196,152,46711,2,0,L|80:140,1,95,2|0,1:2|0:0,0:0:0:0:
28,308,47090,2,0,P|80:304|116:280,1,95
172,204,47470,5,10,0:0:0:0:
364,40,47755,1,8,0:0:0:0:
484,272,48040,1,8,0:0:0:0:
484,272,48135,1,0,0:0:0:0:
484,272,48230,2,0,P|452:312|400:336,1,95,2|0,1:2|0:0,0:0:0:0:
320,340,48609,1,0,0:0:0:0:
244,280,48799,1,8,0:0:0:0:
244,280,48894,1,0,0:0:0:0:
244,280,48989,6,0,P|140:252|68:284,1,190,2|0,1:2|0:0,0:0:0:0:
272,196,49559,2,0,P|320:200|380:180,1,95,8|2,0:0|1:2,0:0:0:0:
440,128,49938,1,0,0:0:0:0:
408,40,50128,1,0,0:0:0:0:
312,52,50318,1,0,0:0:0:0:
312,52,50413,1,0,0:0:0:0:
312,52,50508,6,0,P|264:36|204:32,1,95,2|0,1:2|0:0,0:0:0:0:
124,40,50888,1,0,0:0:0:0:
124,40,50983,1,0,0:0:0:0:
124,40,51078,1,0,0:0:0:0:
124,40,51173,1,0,0:0:0:0:
124,40,51268,1,2,1:2:0:0:
36,128,51457,1,0,0:0:0:0:
144,192,51647,1,0,0:0:0:0:
72,292,51837,1,0,0:0:0:0:
72,292,51932,1,0,0:0:0:0:
72,292,52027,6,0,P|112:316|160:324,1,95,2|0,1:2|0:0,0:0:0:0:
256,248,52407,1,2,1:2:0:0:
352,324,52597,2,0,P|399:316|440:292,1,95,8|2,0:0|1:2,0:0:0:0:
256,80,52976,1,2,0:0:0:0:
256,108,53071,1,0,0:0:0:0:
256,136,53166,1,2,1:2:0:0:
256,164,53261,1,0,0:0:0:0:
256,192,53356,1,0,0:0:0:0:
256,220,53451,1,0,0:0:0:0:
256,248,53546,5,2,0:0:0:0:
416,204,53736,2,0,P|404:155|388:96,1,95
96,204,54116,2,0,P|107:155|124:96,1,95,2|0,0:0|0:0,0:0:0:0:
256,248,54495,1,2,0:0:0:0:
260,52,54685,1,6,0:0:0:0:
260,52,54780,1,0,0:0:0:0:
260,52,54875,1,0,0:0:0:0:
260,52,54970,1,0,0:0:0:0:
260,52,55065,5,4,1:2:0:0:
144,16,55255,1,2,0:0:0:0:
72,116,55445,1,0,1:0:0:0:
192,104,55635,1,2,0:0:0:0:
248,212,55825,1,8,0:0:0:0:
156,296,56014,1,2,0:0:0:0:
48,232,56204,1,0,1:0:0:0:
48,232,56394,6,0,P|88:208|144:200,1,104.500003189087,2|12,0:0|0:0,0:0:0:0:
280,128,56774,2,0,P|332:136|376:163,1,104.500003189087,2|0,0:0|1:0,0:0:0:0:
400,204,57059,1,0,0:0:0:0:
400,204,57154,1,0,0:0:0:0:
376,56,57344,1,12,0:0:0:0:
296,216,57533,1,0,0:0:0:0:
460,140,57723,1,0,1:0:0:0:
264,40,57913,1,0,0:0:0:0:
264,40,58008,1,0,0:0:0:0:
264,40,58103,6,0,P|164:20|84:80,1,209.000006378174,12|0,0:0|1:0,0:0:0:0:
40,164,58673,2,0,P|28:216|40:268,1,104.500003189087,0|8,0:0|0:0,0:0:0:0:
104,332,59052,1,0,0:0:0:0:
188,292,59242,2,0,P|236:284|304:300,1,104.500003189087,0|0,1:0|0:0,0:0:0:0:
376,332,59622,5,8,0:0:0:0:
460,292,59812,2,0,P|452:244|452:172,1,104.500003189087,2|0,0:0|1:0,0:0:0:0:
364,152,60192,2,0,P|356:104|356:32,1,104.500003189087,2|8,0:0|0:0,0:0:0:0:
432,0,60571,1,0,0:0:0:0:
264,148,60761,1,0,1:0:0:0:
180,84,60951,1,0,0:0:0:0:
180,84,61046,1,0,0:0:0:0:
180,84,61141,6,0,P|84:68|4:144,1,209.000006378174,12|0,0:0|1:0,0:0:0:0:
44,224,61711,2,0,P|100:224|148:240,1,104.500003189087,2|8,0:0|0:0,0:0:0:0:
208,168,62090,1,2,0:0:0:0:
228,292,62280,1,0,1:0:0:0:
432,240,62470,6,0,L|424:136,1,104.500003189087,4|8,0:0|0:0,0:0:0:0:
364,64,62850,2,0,P|316:52|256:84,1,104.500003189087,2|0,0:0|1:0,0:0:0:0:
112,132,63230,2,0,P|160:120|220:152,1,104.500003189087,2|8,0:0|0:0,0:0:0:0:
268,208,63609,1,2,0:0:0:0:
148,328,63799,1,0,1:0:0:0:
40,196,63989,1,2,0:0:0:0:
112,132,64179,5,4,1:2:0:0:
220,192,64369,1,0,0:0:0:0:
220,192,64464,1,0,0:0:0:0:
220,192,64559,2,0,L|340:184,1,104.500003189087,4|0,1:2|0:0,0:0:0:0:
388,116,64938,1,4,1:2:0:0:
440,220,65127,1,0,0:0:0:0:
132,256,65318,2,0,P|136:176|152:80,1,156.750004783631,4|0,1:2|0:0,0:0:0:0:
164,56,65698,5,2,1:2:0:0:
52,136,65888,1,8,0:0:0:0:
220,192,66078,1,2,1:2:0:0:
236,188,66173,1,0,0:0:0:0:
252,184,66268,1,0,0:0:0:0:
336,140,66457,1,10,0:0:0:0:
280,272,66647,1,8,0:0:0:0:
260,92,66837,1,0,1:0:0:0:
296,60,66932,1,0,0:0:0:0:
344,52,67027,1,0,0:0:0:0:
388,68,67122,1,0,0:0:0:0:
420,108,67217,5,12,0:0:0:0:
448,228,67407,1,2,0:0:0:0:
332,184,67597,2,0,P|280:188|220:204,1,104.500003189087,0|2,1:0|0:0,0:0:0:0:
76,164,67976,1,8,0:0:0:0:
40,284,68166,1,2,0:0:0:0:
160,252,68356,1,0,1:0:0:0:
238,199,68546,6,0,P|252:158|280:96,1,95,2|12,0:0|0:0,0:0:0:0:
348,44,68926,1,2,0:0:0:0:
464,200,69116,2,0,P|388:212|328:164,1,156.750004783631,0|0,1:0|0:0,0:0:0:0:
272,110,69495,2,0,P|227:92|172:72,1,104.500003189087,12|2,0:0|0:0,0:0:0:0:
84,60,69875,1,0,1:0:0:0:
24,212,70065,1,2,0:0:0:0:
124,340,70255,6,0,P|224:352|284:268,1,209.000006378174,12|0,0:0|1:0,0:0:0:0:
232,196,70825,2,0,P|188:184|120:172,1,104.500003189087,0|8,0:0|0:0,0:0:0:0:
36,184,71204,1,0,0:0:0:0:
80,88,71394,1,0,1:0:0:0:
184,96,71584,1,0,0:0:0:0:
184,96,71679,1,0,0:0:0:0:
184,96,71774,6,0,P|228:84|292:72,1,104.500003189087,8|2,0:0|0:0,0:0:0:0:
380,68,72154,1,0,1:0:0:0:
332,184,72344,1,2,0:0:0:0:
285,72,72533,1,8,0:0:0:0:
432,148,72723,1,2,0:0:0:0:
340,312,72913,1,0,1:0:0:0:
232,160,73103,1,0,0:0:0:0:
232,160,73198,1,0,0:0:0:0:
232,160,73293,6,0,P|204:124|156:84,1,104.500003189087,12|0,0:0|0:0,0:0:0:0:
76,48,73673,1,0,1:0:0:0:
8,116,73863,2,0,P|56:144|108:140,1,104.500003189087,2|8,0:0|0:0,0:0:0:0:
256,64,74242,1,2,0:0:0:0:
156,220,74432,1,0,1:0:0:0:
356,192,74622,6,0,L|344:88,1,104.500003189087,4|8,0:0|0:0,0:0:0:0:
136,40,75002,2,0,L|148:148,1,104.500003189087,0|0,0:0|1:0,0:0:0:0:
428,256,75382,2,0,P|448:180|408:116,1,156.750004783631,2|0,0:0|0:0,0:0:0:0:
368,100,75761,1,2,0:0:0:0:
252,256,75951,1,0,1:0:0:0:
76,184,76141,1,0,0:0:0:0:
76,184,76236,1,0,0:0:0:0:
76,184,76331,5,4,1:2:0:0:
180,112,76521,1,0,0:0:0:0:
180,112,76616,1,0,0:0:0:0:
180,112,76711,2,0,L|168:216,1,104.500003189087,4|0,1:2|0:0,0:0:0:0:
156,312,77090,1,4,1:2:0:0:
76,248,77280,1,0,0:0:0:0:
260,172,77470,6,0,P|336:156|404:200,1,156.750004783631,4|0,1:2|0:0,0:0:0:0:
424,236,77850,1,10,0:0:0:0:
348,72,78040,1,8,0:0:0:0:
320,236,78230,2,0,L|328:292,2,52.2500015945435,8|0|0,1:3|0:0|0:0,0:0:0:0:
244,76,78609,1,2,1:3:0:0:
320,236,78799,1,10,0:0:0:0:
136,84,78989,1,4,1:2:0:0:
128,128,79084,1,0,1:0:0:0:
120,172,79179,1,0,1:0:0:0:
112,216,79274,1,0,1:0:0:0:
104,260,79369,6,0,P|144:320|228:324,1,156.750004783631,4|0,1:2|0:0,0:0:0:0:
264,296,79749,2,0,P|296:264|352:216,1,104.500003189087,0|0,1:0|0:0,0:0:0:0:
396,68,80128,1,8,0:0:0:0:
440,164,80318,1,2,0:0:0:0:
264,176,80508,2,0,P|228:136|180:96,1,104.500003189087,0|0,1:0|0:0,0:0:0:0:
104,56,80888,6,0,P|36:124|36:236,1,209.000006378174,12|0,0:0|1:0,0:0:0:0:
96,308,81457,1,2,0:0:0:0:
184,264,81647,1,8,0:0:0:0:
248,340,81837,1,8,0:0:0:0:
444,216,82027,1,0,1:0:0:0:
404,224,82122,1,0,0:0:0:0:
364,232,82217,1,0,0:0:0:0:
324,240,82312,1,0,0:0:0:0:
284,248,82407,5,4,0:0:0:0:
348,128,82597,1,0,0:0:0:0:
348,128,82692,1,0,0:0:0:0:
348,128,82787,2,0,P|400:128|448:160,1,104.500003189087,0|0,1:0|0:0,0:0:0:0:
272,56,83166,2,0,P|172:36|88:100,1,209.000006378174,12|0,0:0|1:0,0:0:0:0:
56,184,83736,1,2,0:0:0:0:
116,264,83926,6,0,L|176:252,3,52.2500015945435,2|0|0|0,1:3|0:0|0:0|0:0,0:0:0:0:
228,188,84306,2,0,L|284:204,3,52.2500015945435,2|0|0|0,1:2|0:0|0:0|0:0,0:0:0:0:
328,284,84685,2,0,L|380:264,3,52.2500015945435,2|0|0|0,1:2|0:0|0:0|0:0,0:0:0:0:
444,212,85065,5,2,1:2:0:0:
408,180,85160,1,2,1:2:0:0:
384,140,85255,1,2,1:2:0:0:
368,96,85350,1,2,1:2:0:0:
360,52,85445,1,4,0:0:0:0:
