osu file format v14

[General]
AudioFilename: audio.mp3
AudioLeadIn: 0
PreviewTime: 49713
Countdown: 1
SampleSet: Soft
StackLeniency: 0.7
Mode: 0
LetterboxInBreaks: 0
WidescreenStoryboard: 0

[Editor]
DistanceSpacing: 0.8
BeatDivisor: 4
GridSize: 4
TimelineZoom: 1.6

[Metadata]
Title:MUSIC of DREAM!!!
TitleUnicode:MUSIC of DREAM!!!
Artist:Sena, Rie, Miki, Kana from AIKATSU*STARS!
ArtistUnicode:せな・りえ・みき・かな from AIKATSU☆STARS!
Creator:kusano
Version:Insane
Source:アイカツスターズ!
Tags:Aikatsu Stars! opening
BeatmapID:1438393
BeatmapSetID:680257

[Difficulty]
HPDrainRate:7
CircleSize:4
OverallDifficulty:7
ApproachRate:8.7
SliderMultiplier:1.8
SliderTickRate:1

[Events]
//Background and Video events
Video,-440,"Music of Dream.avi"
0,0,"63915891_p0.png",0,0
//Break Periods
//Storyboard Layer 0 (Background)
//Storyboard Layer 1 (Fail)
//Storyboard Layer 2 (Pass)
//Storyboard Layer 3 (Foreground)
//Storyboard Sound Samples

[TimingPoints]
-71,368.098159509202,4,2,1,85,1,0
296,368.098159509202,4,2,1,85,1,0
9130,-100,4,2,1,75,0,0
32688,-133.333333333333,4,2,1,70,0,0
38578,-100,4,2,1,85,0,0
49069,-100,4,2,1,75,0,0
49437,-100,4,2,1,85,0,0
49805,-100,4,2,1,85,0,0
50173,-100,4,2,1,95,0,0
50357,-90.9090909090909,4,2,1,95,0,1
75295,-90.9090909090909,4,2,1,85,0,0
76860,-90.9090909090909,4,2,1,90,0,0
84130,-90.9090909090909,4,2,1,40,0,0

[Colours]
Combo1 : 128,128,255
Combo2 : 249,241,98
Combo3 : 255,104,180
Combo4 : 243,119,44

[HitObjects]
72,244,113,5,2,0:0:0:0:
72,244,205,1,0,0:0:0:0:
72,244,297,2,0,P|144:280|240:264,1,180,4|0,1:0|0:0,0:0:0:0:
300,200,848,2,0,L|312:164,3,22.5,8|0|0|0,0:0|0:0|0:0|0:0,0:0:0:0:
272,104,1032,1,2,1:2:0:0:
196,168,1216,1,8,3:0:0:0:
328,288,1400,1,2,0:0:0:0:
424,264,1584,6,0,P|472:188|460:88,1,180,4|2,1:0|0:0,0:0:0:0:
396,32,2136,1,0,0:0:0:0:
296,36,2320,2,0,P|256:56|200:88,1,90,0|0,1:0|0:0,0:0:0:0:
140,32,2688,1,8,3:0:0:0:
76,128,2872,2,0,P|116:148|172:180,1,90,4|0,3:0|0:0,0:0:0:0:
192,196,3148,1,0,0:0:0:0:
192,196,3240,6,0,P|272:164|372:192,1,180,4|0,1:0|1:0,0:0:0:0:
440,240,3792,1,0,0:0:0:0:
508,168,3976,1,8,0:0:0:0:
428,112,4161,1,2,0:0:0:0:
332,280,4345,1,0,1:0:0:0:
248,248,4529,6,0,P|200:252|136:264,1,90,4|0,1:0|0:0,0:0:0:0:
72,212,4897,1,2,1:2:0:0:
36,308,5081,1,0,0:0:0:0:
248,248,5265,2,0,P|264:200|272:140,1,90,0|0,1:0|0:0,0:0:0:0:
256,64,5633,1,4,1:2:0:0:
80,96,5817,1,0,1:0:0:0:
124,88,5909,1,0,1:0:0:0:
168,80,6001,1,0,1:0:0:0:
212,72,6093,1,0,1:0:0:0:
256,64,6185,5,4,1:0:0:0:
340,116,6369,1,2,0:0:0:0:
412,48,6553,1,2,0:0:0:0:
284,160,6737,1,4,1:0:0:0:
328,4,6921,1,2,0:0:0:0:
400,148,7105,2,0,P|440:196|436:272,1,135,2|0,0:0|0:0,0:0:0:0:
416,304,7473,1,4,1:0:0:0:
256,192,7565,12,0,8762,1:0:0:0:
192,320,9130,6,0,P|100:316|40:224,1,180,12|0,0:0|1:0,0:0:0:0:
44,160,9682,2,0,P|60:116|108:72,1,90
172,48,10050,1,8,0:0:0:0:
256,84,10234,2,0,L|360:76,1,90,0|0,1:0|0:0,0:0:0:0:
436,72,10602,5,8,0:0:0:0:
484,180,10786,1,0,0:0:0:0:
396,152,10970,2,0,L|292:160,1,90,0|0,1:0|0:0,0:0:0:0:
216,168,11338,1,8,0:0:0:0:
168,276,11522,1,8,0:0:0:0:
256,248,11706,2,0,L|360:256,1,90,0|0,1:0|0:0,0:0:0:0:
438,264,12075,6,0,P|398:340|310:341,1,180,10|0,0:0|1:0,0:0:0:0:
220,336,12627,2,0,P|180:304|164:268,1,90
184,180,12995,1,8,0:0:0:0:
172,92,13179,2,0,P|152:52|116:25,1,90,0|2,1:0|0:0,0:0:0:0:
72,24,13455,1,2,0:0:0:0:
32,44,13547,6,0,P|8:84|0:136,1,90,8|0,0:0|0:0,0:0:0:0:
12,216,13915,1,0,1:0:0:0:
248,256,14099,2,0,P|272:216|280:164,1,90,8|0,0:0|0:0,0:0:0:0:
280,84,14467,1,8,0:0:0:0:
188,96,14651,2,0,P|176:144|184:184,1,90,0|0,1:0|0:0,0:0:0:0:
348,244,15019,6,0,L|460:228,1,90,8|0,0:0|0:0,0:0:0:0:
500,168,15388,1,0,1:0:0:0:
436,104,15572,2,0,P|348:88|280:148,1,180,0|8,0:0|0:0,0:0:0:0:
216,204,16124,2,0,L|104:220,1,90,0|0,1:0|0:0,0:0:0:0:
40,228,16492,5,10,0:0:0:0:
96,300,16676,1,0,0:0:0:0:
305,225,16860,2,0,P|303:181|282:142,1,90,0|0,1:0|0:0,0:0:0:0:
216,80,17228,1,8,0:0:0:0:
380,156,17412,1,8,0:0:0:0:
281,308,17596,2,0,P|283:264|304:225,1,90,0|0,1:0|0:0,0:0:0:0:
432,84,17964,6,0,P|484:152|472:252,1,180,10|0,0:0|1:0,0:0:0:0:
420,312,18516,1,0,0:0:0:0:
356,248,18700,1,0,0:0:0:0:
268,276,18884,2,0,L|164:268,1,90,8|0,0:0|1:0,0:0:0:0:
92,236,19253,6,0,P|68:276|60:320,1,90,10|0,0:0|0:0,0:0:0:0:
284,188,19621,1,2,0:0:0:0:
240,108,19805,1,0,1:0:0:0:
152,88,19989,1,2,0:0:0:0:
178,269,20173,1,8,0:0:0:0:
192,184,20357,1,8,0:0:0:0:
104,164,20541,1,0,1:0:0:0:
272,264,20725,1,0,1:0:0:0:
292,260,20817,1,0,1:0:0:0:
312,256,20909,6,0,L|408:236,1,90,12|0,0:0|0:0,0:0:0:0:
488,216,21277,1,0,1:0:0:0:
424,152,21461,1,0,0:0:0:0:
336,132,21645,2,0,P|292:136|248:160,1,90,8|8,0:0|0:0,0:0:0:0:
192,224,22013,1,0,1:0:0:0:
20,84,22197,1,0,0:0:0:0:
20,84,22289,1,0,0:0:0:0:
20,83,22381,6,0,P|112:76|169:138,1,180,10|0,0:0|1:0,0:0:0:0:
192,224,22934,1,0,0:0:0:0:
112,264,23118,2,0,P|88:228|80:180,1,90,8|8,0:0|0:0,0:0:0:0:
232,64,23486,2,0,P|256:100|264:148,1,90,0|8,1:0|0:0,0:0:0:0:
288,236,23854,6,0,P|364:276|456:240,1,180,10|0,0:0|1:0,0:0:0:0:
492,168,24406,2,0,L|484:60,1,90
416,20,24774,1,10,0:0:0:0:
328,40,24958,2,0,L|220:32,1,90,0|0,1:0|0:0,0:0:0:0:
148,28,25326,5,10,0:0:0:0:
224,120,25510,1,0,0:0:0:0:
60,72,25694,2,0,L|72:172,1,90,0|0,1:0|0:0,0:0:0:0:
148,28,26062,1,0,0:0:0:0:
72,160,26246,1,0,0:0:0:0:
224,120,26430,2,0,L|213:209,1,90,0|0,1:0|0:0,0:0:0:0:
356,96,26799,6,0,P|348:184|328:288,1,180,12|0,0:0|1:0,0:0:0:0:
248,312,27351,2,0,P|240:268|232:208,1,90
240,132,27719,1,8,0:0:0:0:
436,152,27903,2,0,P|429:196|421:240,1,90,0|0,1:0|0:0,0:0:0:0:
148,284,28271,6,0,P|131:195|123:105,1,180,12|0,0:0|1:0,0:0:0:0:
164,24,28823,2,0,P|252:8|324:80,1,180,0|8,0:0|0:0,0:0:0:0:
344,148,29375,1,0,1:0:0:0:
436,120,29559,1,0,0:0:0:0:
436,120,29651,1,0,0:0:0:0:
436,120,29743,6,0,P|452:168|448:212,1,90,12|0,0:0|0:0,0:0:0:0:
288,292,30111,2,0,P|272:244|276:200,1,90,0|2,1:0|0:0,0:0:0:0:
294,163,30388,1,0,0:0:0:0:
294,163,30480,1,0,0:0:0:0:
184,264,30664,1,0,1:0:0:0:
360,236,30848,1,8,0:3:0:0:
260,84,31032,6,0,P|176:68|104:124,1,180,4|2,0:0|1:2,0:0:0:0:
84,164,31492,1,0,1:0:0:0:
84,164,31584,1,2,1:2:0:0:
196,148,31768,1,10,0:0:0:0:
156,256,31952,1,2,0:0:0:0:
40,252,32136,1,8,3:0:0:0:
92,356,32320,1,0,1:0:0:0:
212,332,32504,1,2,0:0:0:0:
212,332,32596,1,0,0:0:0:0:
212,332,32688,6,0,P|272:304|348:308,1,135.000005149842,4|0,0:0|0:0,0:0:0:0:
428,320,33240,2,0,P|460:304|504:264,1,67.5000025749208,8|0,0:0|0:0,0:0:0:0:
508,200,33608,1,2,0:0:0:0:
384,168,33792,2,0,L|392:240,1,67.5000025749208,0|2,1:0|0:0,0:0:0:0:
312,92,34161,6,0,P|280:152|236:216,1,135.000005149842,10|0,0:0|0:0,0:0:0:0:
48,152,34713,2,0,P|80:212|124:276,1,135.000005149842,2|8,3:2|3:0,0:0:0:0:
279,300,35265,2,0,P|306:279|331:256,1,67.5000025749208,4|0,3:0|0:0,0:0:0:0:
72,344,35633,6,0,P|136:356|192:316,1,135.000005149842,10|0,0:0|0:0,0:0:0:0:
220,236,36185,1,8,0:0:0:0:
172,156,36369,1,0,0:0:0:0:
284,304,36553,1,0,0:0:0:0:
128,236,36737,1,0,1:0:0:0:
312,220,36921,1,8,0:0:0:0:
216,84,37105,6,0,P|148:76|96:116,1,135.000005149842,10|0,0:0|1:0,0:0:0:0:
60,196,37657,1,10,0:0:0:0:
96,276,37842,1,8,3:0:0:0:
180,244,38026,1,2,0:0:0:0:
212,228,38118,1,0,0:0:0:0:
248,224,38210,1,4,0:0:0:0:
284,228,38302,1,0,0:0:0:0:
316,244,38394,1,0,0:0:0:0:
352,252,38486,1,0,0:0:0:0:
388,248,38578,6,0,P|448:180|444:84,1,180,4|10,1:0|0:0,0:0:0:0:
380,36,39130,2,0,P|332:40|272:48,1,90,0|0,1:0|0:0,0:0:0:0:
204,16,39498,1,2,0:0:0:0:
68,128,39682,2,0,P|107:144|151:168,1,90,0|0,1:0|0:0,0:0:0:0:
180,200,39958,1,0,0:0:0:0:
180,200,40050,6,0,P|248:244|348:208,1,180,12|8,0:0|0:0,0:0:0:0:
392,148,40602,2,0,P|420:104|444:72,1,90,0|0,1:0|0:0,0:0:0:0:
268,160,40970,1,0,1:0:0:0:
264,144,41062,1,0,1:0:0:0:
264,128,41154,1,0,1:0:0:0:
120,200,41338,1,0,1:0:0:0:
96,172,41430,1,0,1:0:0:0:
88,136,41522,6,0,P|88:92|104:36,1,90,4|0,1:0|0:0,0:0:0:0:
216,56,41891,2,0,P|247:24|298:-3,1,90,0|0,1:0|0:0,0:0:0:0:
376,76,42259,1,8,0:0:0:0:
316,176,42443,1,8,0:0:0:0:
452,128,42627,1,0,1:0:0:0:
288,280,42811,1,0,0:0:0:0:
288,280,42903,1,0,0:0:0:0:
288,280,42995,6,0,B|244:204|184:264|144:156,1,180,8|0,0:0|1:0,0:0:0:0:
136,84,43547,1,0,0:0:0:0:
64,200,43731,1,0,0:0:0:0:
52,60,43915,1,0,0:0:0:0:
151,173,44099,1,0,1:0:0:0:
4,132,44283,1,0,0:0:0:0:
116,0,44467,6,0,P|208:-12|272:40,1,180,12|0,0:0|1:0,0:0:0:0:
296,128,45019,1,0,0:0:0:0:
380,92,45203,2,0,P|424:88|480:84,2,90,8|10|0,0:0|0:0|1:0,0:0:0:0:
204,108,45756,6,0,P|116:96|48:156,1,180,2|0,0:0|0:0,0:0:0:0:
20,236,46308,1,0,1:0:0:0:
144,176,46492,1,2,0:0:0:0:
144,176,46584,1,0,0:0:0:0:
144,176,46676,1,8,0:0:0:0:
112,264,46860,1,10,0:0:0:0:
204,108,47044,1,0,1:0:0:0:
296,300,47228,1,2,0:0:0:0:
440,232,47412,6,0,P|376:220|316:264,1,135,4|0,1:0|0:0,0:0:0:0:
296,300,47780,1,0,1:0:0:0:
352,144,47964,2,0,P|340:104|320:48,1,90,12|2,0:0|1:2,0:0:0:0:
256,0,48332,1,8,0:0:0:0:
424,76,48516,1,10,0:0:0:0:
276,188,48700,6,0,L|180:176,1,90,4|0,1:0|0:0,0:0:0:0:
96,168,49069,1,2,1:2:0:0:
184,92,49253,1,2,1:2:0:0:
208,208,49437,1,2,1:2:0:0:
80,204,49621,5,2,1:2:0:0:
168,64,49805,1,0,1:0:0:0:
188,228,49989,1,0,1:0:0:0:
76,104,50173,1,0,1:0:0:0:
238,140,50357,6,0,P|316:132|420:112,1,148.50000453186,12|0,0:0|0:0,0:0:0:0:
432,100,50725,1,0,1:0:0:0:
340,216,50909,2,0,P|312:272|296:316,1,99.0000030212403,10|0,0:0|0:0,0:0:0:0:
212,352,51277,1,8,0:0:0:0:
144,280,51461,1,0,1:0:0:0:
184,188,51645,6,0,P|240:140|324:128,1,148.50000453186,10|0,0:0|0:0,0:0:0:0:
360,136,52013,1,0,0:0:0:0:
228,48,52197,1,0,1:0:0:0:
280,212,52381,2,0,P|328:228|384:228,1,99.0000030212403,10|0,0:0|0:0,0:0:0:0:
468,192,52749,1,8,0:0:0:0:
504,284,52934,1,0,1:0:0:0:
424,344,53118,1,0,0:0:0:0:
200,272,53302,6,0,P|184:212|220:136,1,148.50000453186,12|0,0:0|0:0,0:0:0:0:
257,104,53670,1,0,1:0:0:0:
100,184,53854,2,0,L|44:212,2,49.5000015106202,10|0|0,0:0|0:0|0:0,0:0:0:0:
140,96,54222,1,8,0:0:0:0:
272,212,54406,1,0,1:0:0:0:
356,156,54590,1,2,0:0:0:0:
356,156,54682,1,0,0:0:0:0:
356,156,54774,6,0,L|460:164,1,99.0000030212403,8|0,0:0|0:0,0:0:0:0:
512,84,55142,1,0,1:0:0:0:
396,244,55326,2,0,P|300:248|236:164,1,198.000006042481,10|8,0:0|0:0,0:0:0:0:
220,76,55878,1,0,1:0:0:0:
124,100,56062,1,0,1:0:0:0:
124,100,56154,1,0,1:0:0:0:
124,100,56246,6,0,L|20:92,1,99.0000030212403,4|0,1:0|0:0,0:0:0:0:
64,192,56615,1,0,1:0:0:0:
156,232,56799,2,0,P|256:216|328:288,1,198.000006042481,10|8,0:0|0:0,0:0:0:0:
380,356,57351,1,0,1:0:0:0:
436,168,57535,6,0,P|336:152|264:224,1,198.000006042481,10|0,0:0|0:0,0:0:0:0:
236,304,58087,1,0,1:0:0:0:
136,288,58271,2,0,P|100:248|84:204,1,99.0000030212403,10|0,0:0|0:0,0:0:0:0:
92,108,58639,1,0,0:0:0:0:
4,148,58823,1,2,1:3:0:0:
176,204,59007,1,0,0:0:0:0:
332,116,59191,6,0,P|316:68|284:24,1,99.0000030212403,4|0,1:2|0:0,0:0:0:0:
176,204,59559,2,0,P|192:252|224:296,1,99.0000030212403,0|0,1:0|0:0,0:0:0:0:
304,340,59927,1,4,1:2:0:0:
108,288,60111,1,8,0:0:0:0:
288,204,60295,1,0,1:0:0:0:
88,204,60480,6,0,P|92:128|136:72,1,148.50000453186,4|0,1:0|0:0,0:0:0:0:
180,48,60848,1,2,0:0:0:0:
256,112,61032,1,2,1:2:0:0:
352,76,61216,1,2,1:2:0:0:
352,76,61308,1,0,1:2:0:0:
352,76,61400,1,0,0:0:0:0:
435,218,61584,2,0,L|280:204,1,148.50000453186,12|0,0:0|0:0,0:0:0:0:
240,200,61952,2,0,L|200:248,1,49.5000015106202,0|0,1:0|1:0,0:0:0:0:
44,260,62136,6,0,P|12:192|24:112,1,148.50000453186,4|0,1:0|0:0,0:0:0:0:
40,76,62504,1,0,1:0:0:0:
136,48,62688,2,0,L|240:56,1,99.0000030212403,2|0,0:0|0:0,0:0:0:0:
332,64,63056,1,8,0:0:0:0:
228,148,63240,1,0,1:0:0:0:
424,196,63424,6,0,L|412:96,1,99.0000030212403,2|8,0:0|0:0,0:0:0:0:
234,55,63792,1,0,0:0:0:0:
144,16,63976,1,0,1:0:0:0:
56,64,64161,2,0,P|12:148|32:248,1,198.000006042481,10|8,0:0|0:0,0:0:0:0:
108,304,64713,1,0,1:0:0:0:
192,248,64897,1,0,0:0:0:0:
192,248,64989,1,0,0:0:0:0:
192,248,65081,6,0,P|268:228|336:264,1,148.50000453186,12|0,0:0|0:0,0:0:0:0:
360,296,65449,1,0,1:0:0:0:
268,144,65633,2,0,P|216:144|168:164,1,99.0000030212403,10|0,0:0|0:0,0:0:0:0:
256,312,66001,1,8,0:0:0:0:
360,168,66185,1,0,1:0:0:0:
340,72,66369,6,0,P|292:52|244:48,1,99.0000030212403,2|8,0:0|0:0,0:0:0:0:
148,68,66737,1,0,0:0:0:0:
100,152,66921,1,0,1:0:0:0:
304,268,67105,2,0,P|312:192|268:124,1,148.50000453186,10|0,0:0|0:0,0:0:0:0:
240,97,67473,1,8,0:0:0:0:
392,140,67657,1,0,1:0:0:0:
216,212,67842,1,0,1:0:0:0:
216,212,67934,1,0,1:0:0:0:
216,212,68026,6,0,L|96:204,1,99.0000030212403,4|0,1:0|0:0,0:0:0:0:
20,196,68394,1,0,1:0:0:0:
76,116,68578,2,0,L|196:124,1,99.0000030212403,2|0,0:0|0:0,0:0:0:0:
272,128,68946,1,8,0:0:0:0:
356,76,69130,1,0,1:0:0:0:
452,108,69314,6,0,P|476:152|480:216,1,99.0000030212403,2|8,0:0|0:0,0:0:0:0:
448,292,69682,1,0,0:0:0:0:
372,228,69866,1,0,1:0:0:0:
276,252,70050,2,0,P|252:296|248:360,1,99.0000030212403,10|0,0:0|0:0,0:0:0:0:
464,200,70418,1,8,0:0:0:0:
408,48,70602,1,0,1:0:0:0:
304,172,70786,1,0,0:0:0:0:
228,108,70970,6,0,P|160:96|80:144,1,148.50000453186,4|0,1:2|0:0,0:0:0:0:
60,168,71338,1,0,1:0:0:0:
224,296,71522,1,0,0:0:0:0:
224,296,71615,1,0,0:0:0:0:
224,296,71707,2,0,L|216:196,1,99.0000030212403,4|0,1:2|0:0,0:0:0:0:
208,100,72075,1,0,1:0:0:0:
24,244,72259,6,0,P|76:248|120:224,1,99.0000030212403,4|0,1:0|0:0,0:0:0:0:
208,100,72627,1,0,1:0:0:0:
168,108,72719,1,0,1:0:0:0:
140,136,72811,1,0,1:0:0:0:
84,312,72995,1,8,1:3:0:0:
236,236,73179,1,0,1:0:0:0:
232,212,73271,1,0,1:0:0:0:
228,188,73363,1,0,1:0:0:0:
60,168,73547,1,8,1:3:0:0:
168,312,73731,1,0,1:0:0:0:
168,312,73823,1,0,1:0:0:0:
168,312,73915,6,0,P|252:336|332:268,1,198.000006042481,4|0,1:0|0:0,0:0:0:0:
348,172,74467,1,0,0:0:0:0:
424,316,74651,1,4,1:0:0:0:
448,152,74835,1,0,0:0:0:0:
331,270,75019,1,0,0:0:0:0:
496,244,75203,1,4,1:0:0:0:
256,192,75295,12,0,76492,1:0:0:0:
184,76,76860,6,0,P|132:76|88:96,1,99.0000030212403,12|0,0:0|0:0,0:0:0:0:
36,180,77228,2,0,L|52:296,1,99.0000030212403,0|0,1:0|0:0,0:0:0:0:
360,156,77596,2,0,L|346:254,1,99.0000030212403,8|8,0:0|0:0,0:0:0:0:
152,156,77964,2,0,L|165:254,1,99.0000030212403,0|0,1:0|0:0,0:0:0:0:
476,180,78332,6,0,L|460:296,1,99.0000030212403,8|0,0:0|0:0,0:0:0:0:
392,348,78700,1,0,1:0:0:0:
256,292,78884,2,0,L|256:188,1,99.0000030212403,8|0,0:0|0:0,0:0:0:0:
256,92,79253,1,8,0:0:0:0:
160,72,79437,2,0,P|124:108|108:164,1,99.0000030212403,0|0,1:0|0:0,0:0:0:0:
336,240,79805,6,0,L|444:224,1,99.0000030212403,8|0,0:0|0:0,0:0:0:0:
504,156,80173,1,0,1:0:0:0:
440,80,80357,2,0,P|396:60|336:64,1,99.0000030212403,8|0,0:0|0:0,0:0:0:0:
256,92,80725,1,10,0:0:0:0:
160,56,80909,1,0,1:0:0:0:
324,16,81093,1,0,0:0:0:0:
308,212,81277,6,0,P|216:236|144:156,1,198.000006042481,10|0,0:0|1:0,0:0:0:0:
336,128,81829,2,0,P|380:112|432:120,1,99.0000030212403,10|0,0:0|0:0,0:0:0:0:
512,176,82197,1,0,1:0:0:0:
512,176,82289,1,0,1:0:0:0:
512,176,82381,1,0,1:0:0:0:
340,300,82565,1,0,1:0:0:0:
340,300,82657,1,0,1:0:0:0:
340,300,82749,6,0,P|290:303|244:287,1,99.0000030212403,4|0,1:2|0:0,0:0:0:0:
172,220,83118,1,8,0:0:0:0:
296,124,83302,2,0,P|301:175|304:236,1,99.0000030212403,2|0,1:2|0:0,0:0:0:0:
84,276,83670,2,0,P|78:226|76:164,1,99.0000030212403,4|0,1:3|0:0,0:0:0:0:
84,80,84038,1,4,0:0:0:0:
256,192,84130,12,0,87903,0:0:0:0:
