osu file format v14

[General]
AudioFilename: audio.ogg
AudioLeadIn: 0
PreviewTime:50326
Countdown: 0
SampleSet: Soft
StackLeniency: 0.7
Mode: 0
LetterboxInBreaks: 0
WidescreenStoryboard: 1

[Editor]
DistanceSpacing: 1.6
BeatDivisor: 4
GridSize: 4
TimelineZoom: 1.1

[Metadata]
Title:MUSIC of DREAM!!! (TV Size)
TitleUnicode:MUSIC of DREAM!!! (TV Size)
Artist:Sena, Rie, Miki, Kana from AIKATSU * STARS!
ArtistUnicode:せな・りえ・みき・かな from AIKATSU☆STARS!
Creator:Niizuma Yae
Version:HARD!!!
Source:アイカツスターズ!
Tags:Yayoi Takatsuki aikatsu stars! s2 season 2 星のツバサシリーズ Hoshi no Tsubasa Series japanese jidol idol j-pop j pop jpop anime opening 5 op insert yume nijino 虹野 ゆめ rola sakuraba 桜庭 ローラ tomohiro akiura 秋浦智裕 miho karasawa 唐沢美帆 female vocals vocalist 香澄 真昼 Kasumi Mahiru 早乙女 あこ Saotome Ako Natsumi Murakami 村上奈津実 宮本侑芽 Miyamoto Yume Karasawa Miho 南田健吾 Minamida Kengo 蔦谷好位置 Tsutaya Koichi 成瀬裕介 Yusuke Naruse onetrap
BeatmapID:4284724
BeatmapSetID:2050339

[Difficulty]
HPDrainRate:4
CircleSize:3.8
OverallDifficulty:7
ApproachRate:7.8
SliderMultiplier:1.3
SliderTickRate:1

[Events]
//Background and Video events
0,0,"music of dream.jpg",0,0
Video,0,"v.mp4"
//Break Periods
//Storyboard Layer 0 (Background)
//Storyboard Layer 1 (Fail)
//Storyboard Layer 2 (Pass)
//Storyboard Layer 3 (Foreground)
//Storyboard Layer 4 (Overlay)
//Storyboard Sound Samples

[TimingPoints]
817,368.098159509202,4,2,2,70,1,0
817,-111.111111111111,4,2,2,70,0,0
5418,-111.111111111111,4,2,2,67,0,0
9651,-125,4,2,2,60,0,0
39099,-111.111111111111,4,2,2,65,0,0
49590,-111.111111111111,4,2,2,70,0,0
50878,-100,4,2,2,80,0,1
74436,-111.111111111111,4,2,2,80,0,0
76829,-111.111111111111,4,2,2,70,0,0
84559,-142.857142857143,4,2,2,70,0,0
84743,-142.857142857143,4,2,2,5,0,0

[Colours]
Combo1 : 254,18,142
Combo2 : 255,236,0

[HitObjects]
9,323,817,6,0,P|95:303|242:281,1,233.999992858887,12|0,0:2|3:2,0:2:0:0:
326,327,1736,1,0,3:2:0:0:
326,327,1920,1,0,3:2:0:0:
370,244,2104,6,0,P|359:197|347:107,2,116.999996429443,12|0|10,0:2|0:0|0:2,0:2:0:0:
500,378,3208,1,2,3:2:0:0:
448,299,3392,1,0,3:2:0:0:
371,347,3576,1,2,3:2:0:0:
371,347,3668,1,2,3:2:0:0:
371,347,3760,2,0,L|246:319,2,116.999996429443,12|8|0,0:2|0:2|3:2,0:2:0:0:
439,282,4681,5,2,3:2:0:0:
393,200,4865,1,2,3:2:0:0:
465,140,5049,6,0,P|473:97|495:18,1,116.999996429443,12|8,3:2|0:2,0:2:0:0:
313,81,5785,1,8,0:2:0:0:
413,244,6153,1,8,0:2:0:0:
413,244,6338,6,0,L|417:284,4,29.2499991073609,0|0|0|0|12,3:2|3:2|3:2|3:2|0:2,0:0:0:0:
391,152,6889,1,0,3:2:0:0:
481,174,7073,1,0,3:2:0:0:
450,85,7257,5,14,0:2:0:0:
272,144,7625,1,10,0:2:0:0:
109,51,7993,1,12,0:2:0:0:
256,192,8177,12,2,9282,0:2:0:0:
379,347,9651,6,0,P|385:307|396:235,2,104,12|0|0,0:2|3:2|0:2,0:2:0:0:
303,376,10570,1,2,3:2:0:0:
303,376,10754,1,10,0:2:0:0:
255,307,10938,6,0,P|207:297|149:290,1,104,2|0,0:2|0:2,0:2:0:0:
85,241,11490,2,0,P|93:218|98:177,1,52,10|0,0:2|0:2,0:2:0:0:
176,164,11858,2,0,P|168:141|163:100,1,52,2|2,0:2|3:2,0:0:0:0:
90,72,12227,2,0,P|85:46|77:21,1,52,10|0,0:2|0:0,0:2:0:0:
159,6,12595,6,0,P|195:4|246:47,1,104,2|10,3:2|0:2,0:2:0:0:
325,65,13147,2,0,L|379:52,1,52,2|0,0:2|0:2,0:2:0:0:
397,133,13515,2,0,L|343:146,1,52,2|10,3:2|0:2,0:0:0:0:
288,204,13883,1,2,0:2:0:0:
288,204,13975,1,2,0:2:0:0:
288,204,14067,2,0,P|301:246|311:311,1,104,2|8,3:2|0:2,0:2:0:0:
389,332,14619,1,0,3:2:0:0:
445,270,14803,2,0,P|431:227|426:193,1,52,2|2,0:2|3:2,0:0:0:0:
363,170,15171,2,0,P|377:127|382:93,1,52,10|0,0:2|0:0,0:2:0:0:
409,41,15539,6,0,P|450:54|514:63,1,104,2|10,3:2|0:2,0:2:0:0:
496,146,16092,2,0,P|475:139|443:134,1,52,2|0,0:2|0:2,0:2:0:0:
388,194,16460,2,0,P|362:198|337:206,1,52,2|10,3:2|0:2,0:0:0:0:
294,134,16828,2,0,P|269:132|244:124,1,52,2|0,0:2|3:2,0:0:0:0:
187,185,17196,1,0,0:2:0:0:
104,187,17380,6,0,P|92:128|66:67,1,104,10|2,0:2|0:2,0:2:0:0:
133,27,17932,1,0,3:2:0:0:
208,62,18116,2,0,P|213:92|227:124,1,52,10|0,0:2|0:0,0:2:0:0:
269,179,18484,6,0,P|326:163|379:155,1,104,2|10,3:2|0:2,0:2:0:0:
427,215,19036,2,0,P|454:233|463:305,1,104,2|0,0:2|3:2,0:2:0:0:
404,356,19589,1,8,0:2:0:0:
322,337,19773,6,0,P|271:317|214:297,1,104,2|2,0:2|0:2,0:2:0:0:
146,329,20325,1,10,0:2:0:0:
101,258,20509,1,2,3:2:0:0:
163,203,20693,6,0,P|157:176|153:149,1,52,2|0,0:2|3:2,0:2:0:0:
205,86,21061,1,10,0:2:0:0:
270,153,21245,5,2,3:2:0:0:
270,153,21337,1,2,3:2:0:0:
270,153,21429,2,2,P|331:163|391:171,1,104,6|10,3:2|0:2,0:2:0:0:
433,112,21981,1,0,0:2:0:0:
389,40,22165,2,0,P|361:52|328:54,1,52,2|0,0:2|3:2,0:2:0:0:
271,19,22533,1,10,0:2:0:0:
202,67,22717,2,0,P|197:118|219:164,1,104,2|0,0:2|0:0,0:0:0:0:
186,240,23269,5,10,0:2:0:0:
186,240,23454,1,0,0:0:0:0:
240,302,23638,2,0,P|265:296|298:291,1,52,2|0,0:2|3:2,0:0:0:0:
332,220,24006,2,0,P|357:216|383:210,1,52,10|0,0:2|0:0,0:2:0:0:
448,262,24375,6,0,P|470:314|459:364,1,104,2|10,3:2|0:2,0:2:0:0:
378,364,24926,2,0,P|371:333|359:294,1,52,2|0,0:2|0:0,0:2:0:0:
430,259,25294,1,0,3:2:0:0:
430,259,25478,2,0,P|436:228|448:189,1,52,8|2,0:2|0:2,0:0:0:0:
417,128,25846,6,0,P|368:117|312:94,1,104,2|8,3:2|0:2,0:2:0:0:
262,43,26398,1,0,3:2:0:0:
262,43,26582,2,0,P|235:53|196:59,1,52,2|0,0:2|0:0,0:2:0:0:
173,131,26950,2,0,P|146:120|107:114,1,52,10|0,0:2|0:0,0:2:0:0:
39,119,27319,6,0,P|10:176|31:221,1,104,6|10,3:2|0:2,0:2:0:0:
103,226,27871,2,0,P|132:169|111:124,1,104,2|0,0:2|3:2,0:2:0:0:
95,54,28423,1,8,0:2:0:0:
170,18,28607,5,2,0:2:0:0:
225,79,28791,2,0,P|276:95|328:108,1,104,6|10,3:2|0:2,0:2:0:0:
384,165,29343,2,0,P|375:189|369:217,1,52,2|0,0:2|0:2,0:2:0:0:
402,291,29711,1,2,3:2:0:0:
343,349,29895,1,10,0:2:0:0:
275,300,30079,1,2,0:2:0:0:
197,268,30263,6,0,P|147:284|97:297,1,104,6|10,3:2|0:2,0:2:0:0:
73,217,30815,2,0,P|123:204|172:187,1,104,2|0,0:2|3:2,0:2:0:0:
254,202,31368,1,8,0:2:0:0:
309,139,31552,6,0,L|284:69,1,52,6|0,3:2|0:0,0:2:0:0:
259,13,31920,2,0,L|291:-1,2,26,0|0|8,3:2|3:2|0:2,0:0:0:0:
189,55,32288,1,0,3:2:0:0:
189,55,32472,2,0,P|164:52|137:47,1,52,0|0,0:2|3:2,0:2:0:0:
87,113,32840,1,8,0:2:0:0:
151,181,33024,5,2,0:2:0:0:
151,181,33116,1,2,0:2:0:0:
151,181,33208,2,0,P|202:172|253:166,1,104,6|10,3:2|0:2,0:2:0:0:
301,98,33760,2,0,P|327:102|355:105,1,52,2|2,3:2|0:2,0:0:0:0:
408,166,34128,1,2,0:2:0:0:
491,163,34312,2,0,L|483:217,1,52,10|0,0:2|0:0,0:2:0:0:
466,296,34681,6,0,P|415:294|367:257,1,104,2|10,3:2|0:2,0:2:0:0:
306,314,35233,2,0,P|255:319|196:332,1,104,2|0,3:2|3:2,0:2:0:0:
133,294,35785,1,8,0:2:0:0:
133,294,35969,1,0,0:2:0:0:
71,350,36153,6,0,P|48:289|57:239,1,104,2|10,3:2|0:2,0:2:0:0:
103,186,36705,1,2,0:2:0:0:
179,218,36889,2,0,P|187:248|202:279,1,52,2|0,0:2|0:2,0:2:0:0:
176,348,37257,1,10,0:2:0:0:
253,377,37441,1,2,3:2:0:0:
314,320,37625,6,0,P|316:262|266:228,1,104,2|10,3:2|0:2,0:2:0:0:
213,275,38177,1,2,3:2:0:0:
204,191,38362,2,0,P|177:183|145:163,1,52,0|0,3:2|3:2,0:0:0:0:
103,236,38730,2,0,P|67:218|23:209,1,78,8|0,0:2|0:0,0:0:0:0:
36,163,39099,6,0,P|31:82|75:56,1,116.999996429443,6|10,3:2|0:2,0:2:0:0:
149,92,39650,1,0,3:2:0:0:
149,92,39834,2,2,P|181:84|230:79,1,58.4999982147217,10|2,0:2|0:2,0:2:0:0:
285,30,40202,1,2,3:2:0:0:
285,30,40386,1,2,0:2:0:0:
373,59,40570,6,0,P|382:118|396:175,1,116.999996429443,10|10,0:2|0:2,0:2:0:0:
304,194,41122,2,0,P|299:161|291:129,1,58.4999982147217,2|0,3:2|0:2,0:2:0:0:
230,67,41490,2,0,L|193:73,2,29.2499991073609,2|2|2,3:2|3:2|3:2,0:0:0:0:
311,16,41858,5,0,3:2:0:0:
311,16,41950,1,0,3:2:0:0:
311,16,42042,2,0,B|378:38|345:58|417:78,1,116.999996429443,14|10,3:2|0:2,0:2:0:0:
483,134,42595,2,0,P|470:165|460:212,1,58.4999982147217,2|0,0:2|3:2,0:2:0:0:
389,244,42963,1,0,3:2:0:0:
389,244,43147,2,0,P|402:275|412:322,1,58.4999982147217,10|2,0:2|0:2,0:0:0:0:
315,288,43515,6,0,P|301:223|325:172,1,116.999996429443,0|8,3:2|0:2,0:2:0:0:
382,109,44067,1,2,0:2:0:0:
382,109,44251,2,0,P|349:101|321:76,1,58.4999982147217,2|2,3:2|3:2,0:0:0:0:
247,130,44619,2,0,P|214:138|186:163,1,58.4999982147217,10|2,0:2|0:2,0:0:0:0:
113,199,44987,6,0,P|148:143|125:87,1,116.999996429443,14|10,3:2|0:2,0:2:0:0:
43,76,45539,2,0,P|8:132|31:188,1,116.999996429443,2|0,0:2|3:2,0:2:0:0:
51,266,46092,1,10,0:2:0:0:
115,198,46276,2,0,P|144:193|191:186,1,58.4999982147217,2|2,0:2|3:2,0:0:0:0:
249,250,46644,1,0,0:0:0:0:
249,250,46828,1,8,0:2:0:0:
190,323,47012,2,0,P|161:328|114:335,1,58.4999982147217,0|0,0:2|3:2,0:2:0:0:
45,296,47380,5,2,3:2:0:0:
1,213,47564,1,10,0:2:0:0:
57,138,47748,1,2,0:2:0:0:
134,85,47932,6,0,P|196:78|266:65,1,116.999996429443,14|8,3:2|0:2,0:2:0:0:
306,142,48484,2,0,P|274:146|237:152,1,58.4999982147217,2|0,3:2|0:2,0:2:0:0:
171,203,48852,1,0,3:2:0:0:
86,161,49036,1,10,0:2:0:0:
75,68,49220,1,6,3:2:0:0:
75,68,49589,6,0,L|145:47,1,58.4999982147217,8|8,3:2|3:2,0:0:0:0:
215,89,49957,2,0,L|236:159,1,58.4999982147217,8|8,3:2|3:2,0:0:0:0:
311,193,50325,5,10,0:2:0:0:
395,152,50509,1,10,0:2:0:0:
356,66,50693,1,10,0:2:0:0:
342,72,50878,6,0,B|257:63|293:97|200:88,1,130,14|10,0:2|0:2,0:2:0:0:
133,24,51429,2,0,P|96:32|56:34,1,65,2|0,0:2|0:2,0:2:0:0:
13,122,51797,1,2,3:2:0:0:
96,184,51981,1,10,0:2:0:0:
33,267,52165,6,0,P|84:211|143:202,1,130,2|2,0:2|0:2,0:2:0:0:
221,258,52717,1,10,0:2:0:0:
156,339,52901,2,0,P|218:348|293:369,1,130,2|0,3:2|3:2,0:2:0:0:
386,348,53454,1,8,0:2:0:0:
318,268,53638,1,2,0:2:0:0:
404,209,53822,6,0,B|418:184|444:161|444:161|433:123|435:72,1,130,2|10,3:2|0:2,0:2:0:0:
340,51,54374,2,0,P|328:88|322:121,1,65,2|0,0:2|0:2,0:2:0:0:
244,181,54742,2,0,P|237:149|226:118,1,65,2|10,3:2|0:2,0:0:0:0:
236,15,55110,6,0,P|174:21|127:91,1,130,2|2,0:2|0:2,0:2:0:0:
43,124,55662,1,10,0:2:0:0:
126,186,55846,2,0,P|138:250|149:314,1,130,2|0,3:2|3:2,0:2:0:0:
228,380,56398,1,8,0:2:0:0:
310,315,56582,5,2,3:2:0:0:
310,315,56674,1,2,3:2:0:0:
310,315,56766,2,0,P|382:330|455:340,1,130,14|10,3:2|0:2,0:0:0:0:
500,254,57319,2,8,P|505:221|511:190,1,65,2|0,0:2|0:2,0:2:0:0:
482,90,57687,1,2,3:2:0:0:
386,131,57871,1,10,0:2:0:0:
335,221,58055,6,0,B|272:203|300:180|224:156,1,130,2|2,0:2|0:2,0:2:0:0:
127,195,58607,1,10,0:2:0:0:
155,94,58791,2,0,P|148:60|144:29,1,65,2|0,3:2|0:2,3:2:0:0:
45,49,59159,1,2,3:2:0:0:
45,49,59344,2,0,P|51:80|55:112,1,65,10|2,0:2|0:2,0:0:0:0:
127,195,59711,6,0,P|178:242|246:240,1,130,14|10,3:2|0:2,0:2:0:0:
317,179,60263,1,0,0:2:0:0:
384,257,60447,6,0,P|389:225|399:194,1,65,14|2,3:2|3:2,0:0:0:0:
470,118,60815,1,10,0:2:0:0:
395,45,61000,6,0,B|324:61|333:14|261:32,1,130,14|0,0:2|0:2,0:2:0:0:
201,109,61552,1,8,0:2:0:0:
104,69,61736,1,0,3:2:0:0:
23,260,62104,1,2,0:2:0:0:
126,261,62288,1,10,0:2:0:0:
197,350,62472,1,2,3:2:0:0:
197,350,62564,1,2,3:2:0:0:
197,350,62656,6,0,P|224:286|294:279,1,130,14|10,3:2|0:2,0:2:0:0:
376,308,63208,2,8,P|363:273|355:234,1,65,2|0,0:2|0:0,0:2:0:0:
269,190,63576,1,2,3:2:0:0:
319,99,63760,1,8,0:2:0:0:
227,50,63944,6,0,P|165:66|94:83,1,130,2|2,0:2|0:2,0:2:0:0:
58,176,64496,1,10,0:2:0:0:
122,258,64681,2,0,P|185:272|248:289,1,130,2|0,3:2|3:2,0:2:0:0:
318,366,65233,1,8,0:2:0:0:
416,332,65417,1,2,0:2:0:0:
380,234,65601,6,0,P|418:183|409:121,1,130,2|10,3:2|0:2,0:2:0:0:
306,134,66153,2,0,P|269:122|236:116,1,65,2|0,0:2|0:2,0:2:0:0:
185,30,66521,2,0,P|153:23|122:13,1,65,2|10,3:2|0:2,0:0:0:0:
49,86,66889,6,0,B|68:157|90:125|105:201,1,130,2|2,0:2|0:2,0:2:0:0:
48,287,67441,1,10,0:2:0:0:
137,340,67625,2,0,P|199:351|273:374,1,130,2|0,3:2|3:2,0:2:0:0:
345,306,68177,1,8,0:2:0:0:
441,368,68362,5,2,3:2:0:0:
441,368,68454,1,2,3:2:0:0:
441,368,68547,2,0,P|456:298|484:234,1,130,14|10,3:2|0:2,0:2:0:0:
443,147,69098,2,0,P|411:156|376:161,1,65,2|0,0:2|0:2,0:2:0:0:
305,233,69466,1,2,3:2:0:0:
211,188,69650,1,10,0:2:0:0:
115,229,69834,6,0,P|123:164|139:101,1,130,2|2,0:2|0:2,0:2:0:0:
241,81,70386,1,10,0:2:0:0:
164,11,70570,2,0,P|131:6|99:0,1,65,2|0,3:2|0:2,0:2:0:0:
7,56,70938,1,2,3:2:0:0:
7,56,71122,2,0,P|13:87|17:119,1,65,10|2,0:2|0:2,0:0:0:0:
55,217,71490,6,0,P|116:198|182:192,1,130,14|10,3:2|0:2,0:2:0:0:
267,133,72042,1,0,0:2:0:0:
359,181,72228,6,0,P|351:149|347:117,1,65,14|2,0:2|3:2,0:0:0:0:
330,14,72596,1,10,0:2:0:0:
233,53,72779,6,0,P|240:84|244:116,1,65,6|0,3:2|0:0,0:2:0:0:
203,211,73147,2,0,L|157:222,2,32.5,8|0|0,3:2|3:2|3:2,0:0:0:0:
306,243,73515,1,8,3:2:0:0:
306,243,73699,2,0,L|337:235,2,32.5,8|0|0,3:2|3:2|3:2,0:2:0:0:
228,312,74067,2,0,L|196:319,2,32.5,8|0|0,3:2|3:2|3:2,0:0:0:0:
268,353,74343,1,0,3:2:0:0:
268,353,74436,6,0,P|355:362|451:380,1,175.499994644165,14|0,0:2|0:2,0:2:0:0:
497,302,75171,2,0,P|504:235|517:163,1,116.999996429443,14|2,0:2|0:2,0:2:0:0:
444,121,75723,6,0,B|313:103|377:37|216:23,1,233.999992858887,14|0,0:2|0:0,0:2:0:0:
71,113,76828,2,0,L|64:141,2,29.2499991073609,0|0|0,3:2|3:2|3:2,0:0:0:0:
71,113,77380,6,0,P|136:119|173:175,1,116.999996429443,12|10,0:2|0:2,0:2:0:0:
244,209,77932,1,0,0:2:0:0:
170,267,78116,2,0,P|178:295|184:324,1,58.4999982147217,2|0,0:2|3:2,0:2:0:0:
273,296,78484,2,0,P|265:268|259:239,1,58.4999982147217,10|0,0:2|0:2,0:2:0:0:
327,175,78852,6,0,P|280:141|207:140,1,116.999996429443,2|8,3:2|0:2,0:2:0:0:
231,42,79404,2,0,P|176:59|131:117,1,116.999996429443,2|0,3:2|3:2,0:2:0:0:
147,195,79957,1,8,0:2:0:0:
50,355,80325,6,0,P|36:288|18:222,1,116.999996429443,2|10,3:2|0:2,0:2:0:0:
80,166,80877,1,2,0:2:0:0:
172,328,81245,5,2,3:2:0:0:
259,359,81429,1,10,0:2:0:0:
249,265,81613,1,2,0:2:0:0:
202,183,81797,6,0,P|217:123|229:48,1,116.999996429443,10|10,3:2|0:2,0:2:0:0:
316,42,82349,2,0,P|313:72|304:99,1,58.4999982147217,2|0,3:2|0:2,0:2:0:0:
371,178,82717,1,2,3:2:0:0:
371,178,82809,1,2,3:2:0:0:
371,178,82901,2,0,P|362:206|359:235,1,58.4999982147217,10|0,3:2|3:2,0:0:0:0:
284,292,83269,5,12,3:2:0:0:
249,376,83454,1,0,0:2:0:0:
166,342,83638,1,8,3:2:0:0:
199,258,83822,1,10,0:2:0:0:
135,81,84190,5,10,0:2:0:0:
199,258,84559,6,0,B|157:278|127:349|127:349|76:296|30:113|297:70|323:173|317:280|447:300|509:224|476:157|408:15|165:146,1,955.499970840455,12|0,0:2|0:2,0:2:0:0:
