osu file format v14

[General]
AudioFilename: audio.mp3
AudioLeadIn: 0
PreviewTime: 89667
Countdown: 0
SampleSet: Soft
StackLeniency: 0.7
Mode: 0
LetterboxInBreaks: 0
WidescreenStoryboard: 1

[Editor]
Bookmarks: 123549,180372
DistanceSpacing: 1.2
BeatDivisor: 4
GridSize: 32
TimelineZoom: 2.100001

[Metadata]
Title:Gou Zhi Qi Shi
TitleUnicode:勾指起誓
Artist:Semi, Ling Yuan yousa
ArtistUnicode:Semi, 泠鸢yousa
Creator:moonlightleaf
Version:Insane
Source:
Tags:Cover ilem chinese pop japanese
BeatmapID:2357095
BeatmapSetID:1120787

[Difficulty]
HPDrainRate:6
CircleSize:4
OverallDifficulty:7
ApproachRate:8.5
SliderMultiplier:1.4
SliderTickRate:1

[Events]
//Background and Video events
0,0,"bg2.jpg",0,0
//Break Periods
//Storyboard Layer 0 (Background)
//Storyboard Layer 1 (Fail)
//Storyboard Layer 2 (Pass)
//Storyboard Layer 3 (Foreground)
//Storyboard Layer 4 (Overlay)
//Storyboard Sound Samples

[TimingPoints]
20,352.941176470588,4,2,1,55,1,0
21549,-83.3333333333333,4,2,1,55,0,0
67784,-83.3333333333333,4,2,1,55,0,1
88961,-83.3333333333333,4,2,1,55,0,0
135549,-83.3333333333333,4,2,1,55,0,1
157078,-83.3333333333333,4,2,1,55,0,0
157431,-100,4,2,1,55,0,0
158137,-100,4,2,1,30,0,0
169431,-100,4,2,1,45,0,0
175078,-100,4,2,1,25,0,0
179314,-133.333333333333,4,2,1,25,0,0
179402,-133.333333333333,4,2,1,10,0,0

[Colours]
Combo1 : 151,151,255
Combo2 : 255,142,255
Combo3 : 88,250,225
Combo4 : 255,173,134

[HitObjects]
229,319,20,5,2,0:0:0:0:
140,194,196,1,0,0:0:0:0:
270,193,372,1,0,0:0:0:0:
146,285,549,1,0,0:0:0:0:
133,104,725,1,2,0:0:0:0:
335,147,1078,1,2,0:0:0:0:
208,240,1431,5,2,0:0:0:0:
208,240,1784,1,0,0:0:0:0:
228,127,1961,1,0,0:0:0:0:
347,248,2137,1,2,0:0:0:0:
416,65,2490,1,2,0:0:0:0:
347,248,2843,6,0,L|208:240,1,140,2|0,0:0|0:0,0:0:0:0:
117,160,3372,1,0,0:0:0:0:
228,127,3549,2,0,L|367:119,1,140,2|2,0:0|0:0,0:0:0:0:
482,244,4255,5,2,0:0:0:0:
398,222,4431,1,0,0:0:0:0:
317,296,4608,1,0,0:0:0:0:
481,271,4961,5,2,0:0:0:0:
397,249,5137,1,0,0:0:0:0:
316,323,5314,1,2,0:0:0:0:
480,301,5667,5,2,0:0:0:0:
396,279,5843,1,0,0:0:0:0:
315,353,6019,1,0,0:0:0:0:
310,225,6196,1,0,0:0:0:0:
423,359,6372,1,2,0:0:0:0:
480,190,6725,1,2,0:0:0:0:
480,190,7078,5,2,0:0:0:0:
387,129,7255,1,0,0:0:0:0:
492,93,7431,1,0,0:0:0:0:
389,235,7608,1,0,0:0:0:0:
290,81,7784,1,2,0:0:0:0:
290,81,8137,5,2,0:0:0:0:
387,129,8314,1,0,0:0:0:0:
387,129,8667,5,0,0:0:0:0:
389,235,8843,1,0,0:0:0:0:
477,181,9019,1,0,0:0:0:0:
325,185,9196,2,0,L|255:177,1,70,2|0,0:0|0:0,0:0:0:0:
139,252,9549,2,0,L|208:259,1,70,2|0,0:0|0:0,0:0:0:0:
318,350,9902,6,0,L|248:342,1,70,2|0,0:0|0:0,0:0:0:0:
139,252,10255,1,0,0:0:0:0:
85,361,10431,1,0,0:0:0:0:
15,262,10608,1,2,0:0:0:0:
157,334,10784,1,0,0:0:0:0:
141,167,10961,1,2,0:0:0:0:
141,167,11314,6,0,P|209:181|271:152,1,140,2|0,0:0|0:0,0:0:0:0:
196,77,11843,1,0,0:0:0:0:
215,269,12019,1,10,0:0:0:0:
347,140,12372,1,2,0:0:0:0:
414,323,12725,6,0,P|346:301|310:238,1,140,2|0,0:0|0:0,0:0:0:0:
409,222,13255,1,0,0:0:0:0:
299,363,13431,1,10,0:0:0:0:
245,200,13784,1,2,0:0:0:0:
245,200,14137,5,2,0:0:0:0:
177,295,14314,1,0,0:0:0:0:
113,178,14490,1,0,0:0:0:0:
264,287,14667,1,0,0:0:0:0:
270,103,14843,1,10,0:0:0:0:
120,184,15196,1,2,0:0:0:0:
120,184,15549,5,2,0:0:0:0:
163,102,15725,1,0,0:0:0:0:
270,103,15902,1,0,0:0:0:0:
103,156,16255,5,10,0:0:0:0:
145,76,16431,1,0,0:0:0:0:
261,74,16608,1,2,0:0:0:0:
82,130,16961,5,2,0:0:0:0:
130,54,17137,1,0,0:0:0:0:
252,39,17314,1,0,0:0:0:0:
202,142,17490,1,0,0:0:0:0:
30,55,17667,1,10,0:0:0:0:
32,228,18019,1,2,0:0:0:0:
32,228,18372,6,0,P|100:229|152:275,1,140,2|0,0:0|0:0,0:0:0:0:
65,318,18902,1,0,0:0:0:0:
95,136,19078,1,10,0:0:0:0:
95,136,19431,1,2,0:0:0:0:
204,181,19608,1,0,0:0:0:0:
204,181,19961,5,0,0:0:0:0:
319,167,20137,1,0,0:0:0:0:
271,253,20314,1,0,0:0:0:0:
255,104,20490,1,2,0:0:0:0:
255,104,20578,1,2,0:0:0:0:
255,104,20667,1,2,0:0:0:0:
186,264,20843,1,2,0:0:0:0:
359,243,21019,1,2,0:0:0:0:
335,86,21196,5,2,0:0:0:0:
317,48,21284,1,2,0:0:0:0:
282,24,21372,1,2,0:0:0:0:
239,23,21461,1,2,0:0:0:0:
207,34,21549,6,0,L|166:43,1,41.9999987182618,0|2,3:0|0:0,0:0:0:0:
83,116,21725,2,0,L|123:125,1,41.9999987182618,2|2,0:0|0:0,0:0:0:0:
204,152,21902,1,8,0:0:0:0:
216,267,22078,1,0,3:0:0:0:
293,209,22255,1,0,0:0:0:0:
125,214,22431,1,0,3:0:0:0:
179,355,22608,6,0,P|260:354|309:290,1,167.999994873047,0|2,3:0|0:0,0:0:0:0:
289,127,23137,1,2,0:0:0:0:
125,214,23314,2,0,L|292:209,1,167.999994873047,8|2,0:0|0:0,0:0:0:0:
220,77,23843,1,2,0:0:0:0:
46,161,24019,6,0,P|34:241|88:301,2,167.999994873047,0|0|8,0:0|3:0|0:0,0:0:0:0:
146,28,24902,1,0,3:0:0:0:
136,136,25078,1,2,0:0:0:0:
46,67,25255,1,8,0:0:0:0:
125,214,25431,6,0,P|200:187|210:107,1,167.999994873047,0|2,3:0|0:0,0:0:0:0:
136,136,25961,1,2,0:0:0:0:
233,256,26137,2,0,B|286:246|286:246|350:256|350:256|413:235,1,167.999994873047,8|0,0:0|3:0,0:0:0:0:
483,173,26667,2,0,L|479:262,1,83.9999974365235,0|0,3:0|0:0,0:0:0:0:
391,341,27019,5,0,3:0:0:0:
321,210,27196,2,0,L|298:126,1,83.9999974365235,0|2,3:0|0:0,0:0:0:0:
419,121,27549,1,8,0:0:0:0:
396,240,27725,1,0,0:0:0:0:
305,291,27902,2,0,L|222:277,1,83.9999974365235,2|0,0:0|3:0,0:0:0:0:
109,131,28255,6,0,B|94:167|94:167|104:258|104:258|91:292,1,167.999994873047,0|2,3:0|0:0,0:0:0:0:
176,220,28784,1,2,0:0:0:0:
31,123,28961,2,0,B|19:158|19:158|22:204,1,83.9999974365235,8|0,0:0|0:0,0:0:0:0:
167,301,29314,2,0,B|179:266|179:266|176:220,1,83.9999974365235,2|2,0:0|0:0,0:0:0:0:
213,53,29667,6,0,L|294:71,1,83.9999974365235,0|0,0:0|0:0,0:0:0:0:
498,63,30019,2,0,L|416:81,1,83.9999974365235,0|0,3:0|0:0,0:0:0:0:
351,145,30372,1,8,0:0:0:0:
294,72,30549,1,0,3:0:0:0:
297,221,30725,1,2,0:0:0:0:
440,169,30902,1,8,0:0:0:0:
294,72,31078,6,0,P|262:146|297:220,1,167.999994873047,0|2,3:0|0:0,0:0:0:0:
395,280,31608,1,2,0:0:0:0:
509,119,31784,2,0,B|524:171|524:171|505:230|505:230|512:297,1,167.999994873047,8|0,0:0|3:0,0:0:0:0:
440,169,32314,1,0,3:0:0:0:
440,169,32667,5,0,3:0:0:0:
395,280,32843,2,0,P|360:259|335:225,1,83.9999974365235,0|0,3:0|0:0,0:0:0:0:
458,88,33196,2,0,P|456:130|440:169,1,83.9999974365235,8|0,0:0|3:0,0:0:0:0:
263,134,33549,2,0,P|299:114|341:109,1,83.9999974365235,2|0,0:0|3:0,0:0:0:0:
251,229,33902,6,0,P|181:187|172:104,1,167.999994873047,0|2,3:0|0:0,0:0:0:0:
263,134,34431,1,2,0:0:0:0:
144,206,34608,2,0,L|60:197,1,83.9999974365235,8|0,0:0|0:0,0:0:0:0:
171,106,34961,1,2,0:0:0:0:
251,229,35137,1,2,0:0:0:0:
341,109,35314,6,0,B|392:100|392:100|463:111|463:111|506:101,2,167.999994873047,0|0|8,0:0|3:0|0:0,0:0:0:0:
198,121,36196,1,0,3:0:0:0:
251,229,36372,1,2,0:0:0:0:
341,109,36549,1,8,0:0:0:0:
172,201,36725,6,0,P|116:144|133:65,1,167.999994873047,0|2,3:0|0:0,0:0:0:0:
198,121,37255,1,2,0:0:0:0:
63,29,37431,2,0,P|35:106|50:188,1,167.999994873047,8|0,0:0|3:0,0:0:0:0:
138,284,37961,1,0,3:0:0:0:
138,284,38314,5,0,3:0:0:0:
251,229,38490,2,0,L|334:237,1,83.9999974365235,0|0,3:0|0:0,0:0:0:0:
465,157,38843,2,0,L|381:165,1,83.9999974365235,8|0,0:0|3:0,0:0:0:0:
248,100,39196,2,0,L|331:91,1,83.9999974365235,2|0,0:0|3:0,0:0:0:0:
418,235,39549,6,0,P|384:307|304:314,1,167.999994873047,0|2,3:0|0:0,0:0:0:0:
251,229,40078,1,2,0:0:0:0:
162,271,40255,2,0,P|150:311|155:353,1,83.9999974365235,8|0,0:0|0:0,0:0:0:0:
174,182,40608,2,0,P|132:187|97:209,1,83.9999974365235,2|2,0:0|0:0,0:0:0:0:
257,145,40961,6,0,P|231:112|194:92,1,83.9999974365235,0|0,0:0|0:0,0:0:0:0:
331,202,41314,2,0,P|346:163|345:121,1,83.9999974365235,0|0,3:0|0:0,0:0:0:0:
335,308,41667,1,8,0:0:0:0:
247,247,41843,1,0,3:0:0:0:
397,257,42019,1,2,0:0:0:0:
269,354,42196,1,8,0:0:0:0:
211,174,42372,6,0,L|194:92,1,83.9999974365235,0|0,3:0|0:0,0:0:0:0:
296,181,42725,1,2,0:0:0:0:
168,244,42902,1,2,0:0:0:0:
93,107,43078,2,0,B|68:149|68:149|81:211|81:211|79:267,1,167.999994873047,8|0,0:0|3:0,0:0:0:0:
164,362,43608,1,0,3:0:0:0:
164,362,43961,5,0,3:0:0:0:
243,320,44137,2,0,L|259:237,1,83.9999974365235,0|0,3:0|0:0,0:0:0:0:
441,214,44490,2,0,L|486:286,1,83.9999974365235,8|0,0:0|0:0,0:0:0:0:
353,241,44843,2,0,L|370:324,1,83.9999974365235,2|0,0:0|3:0,0:0:0:0:
260,238,45196,6,0,P|295:165|375:150,1,167.999994873047,0|2,3:0|0:0,0:0:0:0:
353,241,45725,1,2,0:0:0:0:
240,152,45902,2,0,L|156:140,1,83.9999974365235,8|0,0:0|0:0,0:0:0:0:
301,79,46255,1,2,0:0:0:0:
353,241,46431,1,2,0:0:0:0:
452,117,46608,6,0,L|375:150,1,83.9999974365235,0|0,0:0|0:0,0:0:0:0:
512,210,46961,2,0,L|434:242,1,83.9999974365235,0|0,3:0|0:0,0:0:0:0:
268,225,47314,1,8,0:0:0:0:
364,319,47490,1,0,3:0:0:0:
375,150,47667,1,2,0:0:0:0:
353,241,47843,1,8,0:0:0:0:
211,334,48019,6,0,P|128:338|65:277,1,167.999994873047,0|2,3:0|0:0,0:0:0:0:
163,244,48549,1,2,0:0:0:0:
264,141,48725,2,0,L|268:225,1,83.9999974365235,8|0,0:0|0:0,0:0:0:0:
176,148,49078,1,0,3:0:0:0:
171,250,49255,1,0,3:0:0:0:
171,250,49608,5,0,3:0:0:0:
88,129,49784,2,0,P|136:65|217:69,1,167.999994873047,0|8,3:0|0:0,0:0:0:0:
264,179,50314,1,0,3:0:0:0:
367,128,50490,2,0,L|459:110,1,83.9999974365235,2|0,0:0|3:0,0:0:0:0:
308,71,50843,6,0,P|289:149|346:205,1,167.999994873047,0|2,3:0|0:0,0:0:0:0:
367,128,51372,1,2,0:0:0:0:
264,179,51549,2,0,L|181:185,1,83.9999974365235,8|0,0:0|0:0,0:0:0:0:
308,71,51902,1,2,0:0:0:0:
288,249,52078,1,2,0:0:0:0:
399,199,52255,6,0,L|481:212,1,83.9999974365235,0|0,0:0|0:0,0:0:0:0:
352,296,52608,2,0,L|434:309,1,83.9999974365235,0|0,3:0|0:0,0:0:0:0:
288,249,52961,1,8,0:0:0:0:
200,346,53137,1,0,3:0:0:0:
182,227,53314,1,2,0:0:0:0:
288,341,53490,1,8,0:0:0:0:
378,194,53667,6,0,P|312:145|232:161,1,167.999994873047,0|2,3:0|0:0,0:0:0:0:
137,295,54196,1,2,0:0:0:0:
59,175,54372,2,0,B|45:230|45:230|47:291|55:345,1,167.999994873047,8|0,0:0|3:0,0:0:0:0:
129,220,54902,1,0,3:0:0:0:
129,220,55255,5,0,3:0:0:0:
220,170,55431,2,0,L|212:86,1,83.9999974365235,0|0,3:0|0:0,0:0:0:0:
401,178,55784,2,0,L|420:96,1,83.9999974365235,8|0,0:0|0:0,0:0:0:0:
311,167,56137,2,0,L|311:83,1,83.9999974365235,2|0,0:0|3:0,0:0:0:0:
220,170,56490,6,0,P|261:240|342:251,1,167.999994873047,0|2,3:0|0:0,0:0:0:0:
311,167,57019,1,2,0:0:0:0:
257,268,57196,2,0,L|255:351,1,83.9999974365235,8|0,0:0|0:0,0:0:0:0:
220,170,57549,1,2,0:0:0:0:
341,251,57725,1,2,0:0:0:0:
423,99,57902,6,0,P|383:89|341:92,1,83.9999974365235,0|0,0:0|0:0,0:0:0:0:
220,170,58255,2,0,P|260:180|302:177,1,83.9999974365235,0|0,3:0|0:0,0:0:0:0:
160,89,58608,2,0,P|120:159|144:237,1,167.999994873047,8|2,0:0|0:0,0:0:0:0:
218,322,59137,1,8,0:0:0:0:
315,280,59314,6,0,L|398:283,1,83.9999974365235,0|0,3:0|0:0,0:0:0:0:
240,242,59667,1,2,0:0:0:0:
302,364,59843,1,2,0:0:0:0:
399,284,60019,2,0,B|415:236|415:236|411:171|424:118,1,167.999994873047,8|0,0:0|3:0,0:0:0:0:
473,33,60549,1,0,3:0:0:0:
473,33,60902,5,0,3:0:0:0:
358,68,61078,2,0,L|274:62,1,83.9999974365235,0|0,3:0|0:0,0:0:0:0:
157,140,61431,2,0,L|240:134,1,83.9999974365235,8|0,0:0|0:0,0:0:0:0:
334,214,61784,2,0,L|250:208,1,83.9999974365235,2|0,0:0|3:0,0:0:0:0:
346,140,62137,6,0,P|408:189|389:267,1,167.999994873047,0|2,3:0|0:0,0:0:0:0:
334,214,62667,1,2,0:0:0:0:
356,65,62843,2,0,P|433:93|482:161,1,167.999994873047,8|2,0:0|0:0,0:0:0:0:
491,270,63372,1,2,0:0:0:0:
398,342,63549,6,0,L|314:349,1,83.9999974365235,0|0,0:0|0:0,0:0:0:0:
221,269,63902,2,0,L|304:276,1,83.9999974365235,0|0,3:0|0:0,0:0:0:0:
183,351,64255,2,0,P|132:288|154:210,1,167.999994873047,8|2,0:0|0:0,0:0:0:0:
221,269,64784,1,8,0:0:0:0:
102,304,64961,6,0,L|13:320,1,83.9999974365235,0|0,3:0|0:0,0:0:0:0:
1,194,65314,2,0,P|74:230|153:210,1,167.999994873047,2|8,0:0|0:0,0:0:0:0:
231,109,65843,1,0,0:0:0:0:
231,109,65931,1,0,0:0:0:0:
231,109,66019,1,0,3:0:0:0:
269,226,66196,1,0,3:0:0:0:
411,166,66372,6,0,P|354:141|294:155,1,125.999996154785,0|0,0:0|0:0,0:0:0:0:
269,226,66725,2,0,L|282:351,1,125.999996154785,0|0,3:0|0:0,0:0:0:0:
282,351,67078,5,8,0:0:0:0:
367,268,67255,1,0,3:0:0:0:
368,353,67431,1,0,3:0:0:0:
269,226,67608,1,0,3:0:0:0:
439,306,67784,6,0,P|442:227|372:186,1,167.999994873047,0|2,3:0|0:0,0:0:0:0:
367,268,68314,1,2,0:0:0:0:
469,203,68490,2,0,L|490:119,1,83.9999974365235,8|0,0:0|0:0,0:0:0:0:
338,84,68843,1,2,0:0:0:0:
372,186,69019,1,2,0:0:0:0:
238,167,69196,6,0,L|113:149,1,125.999996154785,0|0,3:0|0:0,0:0:0:0:
70,226,69549,2,0,L|194:243,1,125.999996154785,0|0,3:0|0:0,0:0:0:0:
280,243,69902,2,0,P|325:177|295:103,1,167.999994873047,8|2,0:0|0:0,0:0:0:0:
238,167,70431,1,8,0:0:0:0:
357,222,70608,6,0,L|440:222,1,83.9999974365235,0|0,3:0|0:0,0:0:0:0:
378,137,70961,1,2,0:0:0:0:
431,300,71137,1,2,0:0:0:0:
511,171,71314,2,0,L|508:87,1,83.9999974365235,8|0,0:0|0:0,0:0:0:0:
378,137,71667,1,0,3:0:0:0:
441,223,71843,1,0,3:0:0:0:
320,277,72019,6,0,P|261:260|231:207,1,125.999996154785,0|0,0:0|0:0,0:0:0:0:
259,133,72372,2,0,P|198:132|154:175,1,125.999996154785,0|0,3:0|0:0,0:0:0:0:
163,253,72725,2,0,P|88:225|78:145,1,167.999994873047,8|2,0:0|0:0,0:0:0:0:
154,175,73255,1,0,3:0:0:0:
185,332,73431,6,0,P|103:334|34:288,1,167.999994873047,0|2,3:0|0:0,0:0:0:0:
78,146,73961,1,2,0:0:0:0:
163,253,74137,2,0,L|244:233,1,83.9999974365235,8|0,0:0|0:0,0:0:0:0:
350,178,74490,1,2,0:0:0:0:
374,305,74667,1,2,0:0:0:0:
488,204,74843,5,0,3:0:0:0:
434,352,75019,1,0,0:0:0:0:
321,251,75196,1,0,3:0:0:0:
459,277,75372,1,0,0:0:0:0:
350,178,75549,5,8,0:0:0:0:
488,204,75725,1,0,3:0:0:0:
439,84,75902,1,2,0:0:0:0:
414,218,76078,1,8,0:0:0:0:
301,113,76255,6,0,B|254:99|254:99|185:115|135:107,1,167.999994873047,0|2,3:0|0:0,0:0:0:0:
14,153,76784,1,2,0:0:0:0:
87,253,76961,2,0,L|83:336,1,83.9999974365235,8|0,0:0|0:0,0:0:0:0:
92,174,77314,1,0,3:0:0:0:
171,288,77490,1,0,3:0:0:0:
279,183,77667,6,0,P|236:175|197:186,1,83.9999974365235,0|0,0:0|0:0,0:0:0:0:
171,288,78019,1,0,3:0:0:0:
352,310,78196,1,0,0:0:0:0:
243,259,78372,1,8,0:0:0:0:
284,353,78549,1,0,3:0:0:0:
356,229,78725,2,0,L|366:145,1,83.9999974365235,2|0,0:0|0:0,0:0:0:0:
465,33,79078,6,0,B|476:83|476:83|459:142|459:142|454:197,1,167.999994873047,0|2,3:0|0:0,0:0:0:0:
448,304,79608,1,2,0:0:0:0:
356,229,79784,2,0,L|188:214,1,167.999994873047,8|2,0:0|0:0,0:0:0:0:
102,330,80314,1,2,0:0:0:0:
224,300,80490,6,0,L|361:314,1,125.999996154785,0|0,3:0|0:0,0:0:0:0:
423,283,80843,2,0,P|443:224|419:167,1,125.999996154785,0|0,3:0|0:0,0:0:0:0:
345,142,81196,2,0,L|261:134,1,83.9999974365235,8|0,0:0|0:0,0:0:0:0:
84,109,81549,1,2,0:0:0:0:
143,221,81725,1,8,0:0:0:0:
217,69,81902,5,0,3:0:0:0:
223,204,82078,1,0,0:0:0:0:
135,48,82255,1,2,0:0:0:0:
76,187,82431,1,2,0:0:0:0:
261,134,82608,5,8,0:0:0:0:
262,274,82784,1,0,0:0:0:0:
152,145,82961,1,0,3:0:0:0:
138,284,83137,1,0,3:0:0:0:
84,109,83314,5,0,0:0:0:0:
223,204,83490,1,0,3:0:0:0:
63,229,83667,1,0,3:0:0:0:
202,336,83843,1,0,0:0:0:0:
152,145,84019,5,8,0:0:0:0:
189,124,84108,1,0,0:0:0:0:
230,118,84196,1,0,3:0:0:0:
270,128,84284,1,0,0:0:0:0:
295,160,84372,1,2,0:0:0:0:
316,313,84549,1,0,3:0:0:0:
223,204,84725,5,0,3:0:0:0:
253,356,84902,1,0,0:0:0:0:
363,203,85078,1,2,0:0:0:0:
394,348,85255,1,2,0:0:0:0:
295,160,85431,5,8,0:0:0:0:
316,313,85608,1,0,0:0:0:0:
442,163,85784,1,2,0:0:0:0:
463,316,85961,1,2,0:0:0:0:
285,242,86137,5,0,3:0:0:0:
436,240,86314,1,0,0:0:0:0:
295,160,86490,1,0,3:0:0:0:
412,94,86667,1,0,0:0:0:0:
215,148,86843,5,8,0:0:0:0:
262,31,87019,1,0,3:0:0:0:
201,226,87196,1,2,0:0:0:0:
149,80,87372,1,8,0:0:0:0:
285,242,87549,6,0,P|363:261|428:212,1,167.999994873047,0|2,3:0|0:0,0:0:0:0:
346,172,88078,1,2,0:0:0:0:
314,336,88255,1,8,0:0:0:0:
201,226,88431,1,0,0:0:0:0:
201,226,88519,1,0,0:0:0:0:
201,226,88608,1,0,3:0:0:0:
357,262,88784,1,0,3:0:0:0:
269,128,88961,6,0,L|244:47,1,83.9999974365235,0|0,0:0|3:0,0:0:0:0:
204,230,89314,2,0,L|179:149,1,83.9999974365235,0|0,3:0|0:0,0:0:0:0:
84,325,89667,5,8,0:0:0:0:
44,208,89843,1,0,3:0:0:0:
124,246,90019,1,0,0:0:0:0:
0,286,90196,1,0,3:0:0:0:
166,315,90372,6,0,B|217:327|217:327|287:315|287:315|331:317,1,167.999994873047,0|2,3:0|0:0,0:0:0:0:
451,340,90902,1,2,0:0:0:0:
512,222,91078,2,0,B|461:210|461:210|391:222|391:222|346:219,1,167.999994873047,8|2,0:0|0:0,0:0:0:0:
230,162,91608,1,2,0:0:0:0:
92,128,91784,6,0,B|69:197|69:197|81:253|81:253|79:290,2,167.999994873047,0|0|8,0:0|3:0|0:0,0:0:0:0:
211,90,92667,1,0,3:0:0:0:
248,230,92843,1,2,0:0:0:0:
338,139,93019,1,8,0:0:0:0:
234,315,93196,6,0,P|170:266|174:186,1,167.999994873047,0|2,3:0|0:0,0:0:0:0:
248,230,93725,1,2,0:0:0:0:
139,299,93902,2,0,L|55:309,1,83.9999974365235,8|0,0:0|0:0,0:0:0:0:
174,186,94255,1,0,3:0:0:0:
234,315,94431,2,0,L|317:303,1,83.9999974365235,0|0,3:0|0:0,0:0:0:0:
372,199,94784,5,0,3:0:0:0:
460,285,94961,2,0,L|464:368,1,83.9999974365235,0|2,3:0|0:0,0:0:0:0:
512,233,95314,2,0,P|433:252|372:198,1,167.999994873047,8|2,0:0|0:0,0:0:0:0:
458,164,95843,1,0,3:0:0:0:
347,305,96019,6,0,P|303:253|281:136,1,167.999994873047,0|2,3:0|0:0,0:0:0:0:
364,78,96549,1,2,0:0:0:0:
254,32,96725,2,0,B|162:22,1,83.9999974365235,8|0,0:0|0:0,0:0:0:0:
58,103,97078,2,0,B|141:93,1,83.9999974365235,2|2,0:0|0:0,0:0:0:0:
279,157,97431,2,0,B|187:147,1,83.9999974365235,0|0,0:0|0:0,0:0:0:0:
83,228,97784,2,0,B|166:218,1,83.9999974365235,0|0,3:0|0:0,0:0:0:0:
279,157,98137,1,8,0:0:0:0:
265,295,98314,1,0,3:0:0:0:
166,218,98490,1,2,0:0:0:0:
328,237,98667,1,8,0:0:0:0:
322,85,98843,6,0,P|242:81|197:147,1,167.999994873047,0|2,3:0|0:0,0:0:0:0:
279,157,99372,1,2,0:0:0:0:
202,54,99549,2,0,L|101:42,1,83.9999974365235,8|0,0:0|0:0,0:0:0:0:
197,147,99902,1,0,3:0:0:0:
110,201,100078,2,0,L|110:285,1,83.9999974365235,0|0,3:0|0:0,0:0:0:0:
189,347,100431,5,0,3:0:0:0:
272,287,100608,2,0,L|272:203,1,83.9999974365235,0|0,3:0|0:0,0:0:0:0:
413,137,100961,2,0,L|467:202,1,83.9999974365235,8|0,0:0|3:0,0:0:0:0:
352,195,101314,2,0,L|381:274,1,83.9999974365235,2|0,0:0|3:0,0:0:0:0:
287,364,101667,6,0,P|211:338|198:259,1,167.999994873047,0|2,3:0|0:0,0:0:0:0:
272,287,102196,1,2,0:0:0:0:
159,353,102372,2,0,L|75:351,1,83.9999974365235,8|0,0:0|0:0,0:0:0:0:
104,234,102725,2,0,L|28:270,1,83.9999974365235,2|2,0:0|0:0,0:0:0:0:
0,160,103078,6,0,P|31:84|115:71,2,167.999994873047,0|0|8,0:0|3:0|0:0,0:0:0:0:
104,234,103961,1,0,3:0:0:0:
189,169,104137,1,2,0:0:0:0:
85,148,104314,1,8,0:0:0:0:
194,252,104490,6,0,P|262:211|264:130,1,167.999994873047,0|2,3:0|0:0,0:0:0:0:
189,169,105019,1,2,0:0:0:0:
294,247,105196,2,0,L|377:237,1,83.9999974365235,8|0,0:0|0:0,0:0:0:0:
277,342,105549,1,0,3:0:0:0:
196,252,105725,2,0,L|189:169,1,83.9999974365235,0|0,3:0|0:0,0:0:0:0:
280,100,106078,5,0,3:0:0:0:
383,149,106255,2,0,L|466:155,1,83.9999974365235,0|0,3:0|0:0,0:0:0:0:
363,66,106608,1,8,0:0:0:0:
283,214,106784,1,0,3:0:0:0:
280,100,106961,1,2,0:0:0:0:
374,227,107137,1,0,3:0:0:0:
253,301,107314,6,0,P|196:243|208:162,1,167.999994873047,0|2,3:0|0:0,0:0:0:0:
283,214,107843,1,2,0:0:0:0:
170,267,108019,2,0,P|129:257|95:232,1,83.9999974365235,8|0,0:0|0:0,0:0:0:0:
253,301,108372,2,0,P|228:334|191:354,1,83.9999974365235,2|2,0:0|0:0,0:0:0:0:
326,247,108725,6,0,P|342:286|340:328,1,83.9999974365235
314,154,109078,2,0,P|355:161|390:183,1,83.9999974365235,0|0,3:0|0:0,0:0:0:0:
453,275,109431,1,8,0:0:0:0:
424,355,109608,1,0,3:0:0:0:
326,247,109784,1,2,0:0:0:0:
340,328,109961,1,8,0:0:0:0:
463,202,110137,6,0,P|440:126|362:113,1,167.999994873047,0|2,3:0|0:0,0:0:0:0:
258,216,110667,1,2,0:0:0:0:
192,125,110843,2,0,B|197:41,1,83.9999974365235,8|0,0:0|0:0,0:0:0:0:
277,130,111196,1,0,3:0:0:0:
153,197,111372,1,0,3:0:0:0:
258,216,111549,5,0,0:0:0:0:
121,282,111725,1,0,3:0:0:0:
77,145,111902,2,0,L|57:63,1,83.9999974365235,0|0,3:0|0:0,0:0:0:0:
199,127,112255,2,0,L|153:197,1,83.9999974365235,8|0,0:0|0:0,0:0:0:0:
258,216,112608,2,0,L|212:286,1,83.9999974365235,0|0,0:0|3:0,0:0:0:0:
335,261,112961,6,0,P|340:180|277:130,1,167.999994873047,0|2,3:0|0:0,0:0:0:0:
258,216,113490,1,2,0:0:0:0:
361,137,113667,2,0,L|444:151,1,83.9999974365235,8|0,0:0|0:0,0:0:0:0:
316,60,114019,1,2,0:0:0:0:
341,210,114196,1,2,0:0:0:0:
200,153,114372,6,0,L|116:154,1,83.9999974365235,0|0,0:0|0:0,0:0:0:0:
29,234,114725,2,0,L|45:316,1,83.9999974365235,0|0,3:0|0:0,0:0:0:0:
35,150,115078,1,8,0:0:0:0:
126,252,115255,1,0,3:0:0:0:
116,154,115431,1,2,0:0:0:0:
29,234,115608,1,8,0:0:0:0:
141,334,115784,6,0,P|204:285|195:205,1,167.999994873047,0|2,3:0|0:0,0:0:0:0:
126,252,116314,1,2,0:0:0:0:
232,328,116490,2,0,L|315:322,1,83.9999974365235,8|0,0:0|0:0,0:0:0:0:
372,219,116843,1,0,3:0:0:0:
422,350,117019,1,0,3:0:0:0:
512,244,117196,6,0,L|433:272,1,83.9999974365235,0|0,0:0|3:0,0:0:0:0:
505,121,117549,2,0,L|450:185,1,83.9999974365235,0|0,3:0|0:0,0:0:0:0:
321,187,117902,1,8,0:0:0:0:
433,273,118078,1,0,3:0:0:0:
280,248,118255,2,0,L|196:238,1,83.9999974365235,2|0,0:0|3:0,0:0:0:0:
298,317,118608,6,0,P|352:259|320:186,1,167.999994873047,0|2,3:0|0:0,0:0:0:0:
280,248,119137,1,2,0:0:0:0:
387,310,119314,2,0,L|470:304,1,83.9999974365235,8|0,0:0|0:0,0:0:0:0:
391,228,119667,1,2,0:0:0:0:
298,318,119843,1,2,0:0:0:0:
202,238,120019,6,0,L|118:230,1,83.9999974365235,0|0,0:0|0:0,0:0:0:0:
265,162,120372,2,0,L|181:154,1,83.9999974365235,0|0,3:0|0:0,0:0:0:0:
283,248,120725,1,8,0:0:0:0:
345,178,120902,1,0,3:0:0:0:
265,162,121078,1,2,0:0:0:0:
364,260,121255,1,8,0:0:0:0:
306,92,121431,6,0,P|226:87|181:154,1,167.999994873047,0|2,3:0|0:0,0:0:0:0:
265,162,121961,1,2,0:0:0:0:
173,71,122137,2,0,L|89:58,1,83.9999974365235,8|0,0:0|0:0,0:0:0:0:
252,31,122490,1,0,3:0:0:0:
181,154,122667,6,0,P|166:188|160:246,1,83.9999974365235,0|0,3:0|0:0,0:0:0:0:
100,143,123019,1,0,3:0:0:0:
243,235,123196,2,0,L|326:226,1,83.9999974365235,0|0,3:0|0:0,0:0:0:0:
231,316,123549,2,0,P|166:269|169:188,1,167.999994873047,8|2,0:0|0:0,0:0:0:0:
243,235,124078,1,0,3:0:0:0:
147,321,124255,6,0,L|63:312,1,83.9999974365235,0|0,3:0|0:0,0:0:0:0:
169,190,124608,1,2,0:0:0:0:
232,317,124784,1,2,0:0:0:0:
327,227,124961,2,0,L|410:218,1,83.9999974365235,8|0,0:0|0:0,0:0:0:0:
280,155,125314,1,2,0:0:0:0:
315,306,125490,1,2,0:0:0:0:
170,268,125667,6,0,P|128:261|87:270,1,83.9999974365235,0|0,0:0|0:0,0:0:0:0:
248,242,126019,2,0,P|224:209|188:187,1,83.9999974365235,0|0,3:0|0:0,0:0:0:0:
240,331,126372,2,0,P|315:301|334:223,1,167.999994873047,8|2,0:0|0:0,0:0:0:0:
248,242,126902,1,8,0:0:0:0:
342,326,127078,6,0,L|425:328,1,83.9999974365235,0|0,3:0|0:0,0:0:0:0:
334,223,127431,1,2,0:0:0:0:
240,331,127608,1,2,0:0:0:0:
177,200,127784,2,0,L|94:186,1,83.9999974365235,8|0,0:0|0:0,0:0:0:0:
248,242,128137,1,0,3:0:0:0:
317,143,128314,2,0,L|399:128,1,83.9999974365235,0|0,3:0|0:0,0:0:0:0:
242,102,128667,5,0,3:0:0:0:
177,200,128843,2,0,P|166:240|172:281,1,83.9999974365235,0|0,3:0|0:0,0:0:0:0:
158,117,129196,2,0,P|101:176|88:258,1,167.999994873047,8|2,0:0|0:0,0:0:0:0:
162,355,129725,1,0,3:0:0:0:
261,284,129902,6,0,L|428:285,1,167.999994873047,0|2,3:0|0:0,0:0:0:0:
344,362,130431,1,2,0:0:0:0:
236,202,130608,2,0,L|403:200,1,167.999994873047,8|2,0:0|0:0,0:0:0:0:
300,284,131137,1,2,0:0:0:0:
236,202,131314,6,0,L|240:118,1,83.9999974365235,0|0,0:0|0:0,0:0:0:0:
156,255,131667,2,0,L|134:173,1,83.9999974365235,0|0,3:0|0:0,0:0:0:0:
226,291,132019,2,0,P|161:337|91:300,1,167.999994873047,8|2,0:0|0:0,0:0:0:0:
23,206,132549,1,8,0:0:0:0:
135,174,132725,6,0,L|221:153,1,83.9999974365235,0|0,3:0|0:0,0:0:0:0:
156,255,133078,2,0,L|319:214,1,167.999994873047,2|8,0:0|0:0,0:0:0:0:
381,106,133608,1,0,0:0:0:0:
381,106,133696,1,0,0:0:0:0:
381,106,133784,1,0,3:0:0:0:
437,227,133961,1,0,3:0:0:0:
302,140,134137,6,0,L|176:127,1,125.999996154785,0|0,0:0|0:0,0:0:0:0:
117,179,134490,2,0,L|128:304,1,125.999996154785,0|0,3:0|0:0,0:0:0:0:
128,304,134843,5,8,0:0:0:0:
39,232,135019,1,0,3:0:0:0:
202,245,135196,1,0,3:0:0:0:
117,179,135372,1,0,3:0:0:0:
228,318,135549,6,0,P|280:259|251:184,1,167.999994873047,0|2,3:0|0:0,0:0:0:0:
202,245,136078,1,2,0:0:0:0:
315,312,136255,2,0,L|398:311,1,83.9999974365235,8|0,0:0|0:0,0:0:0:0:
371,166,136608,1,2,0:0:0:0:
470,236,136784,1,2,0:0:0:0:
407,95,136961,6,0,P|346:88|299:129,1,125.999996154785,0|0,3:0|0:0,0:0:0:0:
304,206,137314,2,0,P|245:187|219:132,1,125.999996154785,0|0,3:0|0:0,0:0:0:0:
245,58,137667,2,0,P|166:70|142:147,1,167.999994873047,8|2,0:0|0:0,0:0:0:0:
219,132,138196,1,8,0:0:0:0:
99,32,138372,6,0,P|64:107|78:189,1,167.999994873047,0|2,3:0|0:0,0:0:0:0:
199,252,138902,1,2,0:0:0:0:
307,184,139078,2,0,L|310:100,1,83.9999974365235,8|0,0:0|0:0,0:0:0:0:
460,148,139431,1,0,3:0:0:0:
400,45,139608,1,0,3:0:0:0:
375,205,139784,6,0,P|334:250|273:244,1,125.999996154785,0|0,0:0|0:0,0:0:0:0:
233,177,140137,2,0,P|197:227|209:287,1,125.999996154785,0|0,3:0|0:0,0:0:0:0:
276,329,140490,2,0,P|205:366|137:322,1,167.999994873047,8|2,0:0|0:0,0:0:0:0:
121,217,141019,1,0,3:0:0:0:
55,84,141196,6,0,B|35:137|35:137|35:248,1,167.999994873047,0|2,3:0|0:0,0:0:0:0:
137,322,141725,1,2,0:0:0:0:
276,329,141902,2,0,L|284:245,1,83.9999974365235,8|0,0:0|0:0,0:0:0:0:
340,114,142255,1,2,0:0:0:0:
448,235,142431,1,2,0:0:0:0:
273,173,142608,5,0,3:0:0:0:
358,288,142784,1,0,0:0:0:0:
421,145,142961,1,0,3:0:0:0:
352,205,143137,1,0,0:0:0:0:
340,114,143314,5,8,0:0:0:0:
448,235,143490,1,0,3:0:0:0:
495,80,143667,1,2,0:0:0:0:
421,145,143843,1,8,0:0:0:0:
298,43,144019,6,0,P|257:104|301:188,1,167.999994873047,0|2,3:0|0:0,0:0:0:0:
340,114,144549,1,2,0:0:0:0:
216,82,144725,2,0,L|132:90,1,83.9999974365235,8|0,0:0|0:0,0:0:0:0:
298,43,145078,1,0,3:0:0:0:
293,183,145255,1,0,3:0:0:0:
177,168,145431,6,0,L|93:176,1,83.9999974365235,0|0,0:0|0:0,0:0:0:0:
216,82,145784,1,0,3:0:0:0:
293,183,145961,1,0,0:0:0:0:
177,168,146137,1,8,0:0:0:0:
254,269,146314,1,0,3:0:0:0:
125,257,146490,2,0,L|41:265,1,83.9999974365235,2|0,0:0|0:0,0:0:0:0:
177,168,146843,6,0,P|225:234|209:314,1,167.999994873047,0|2,3:0|0:0,0:0:0:0:
125,257,147372,1,2,0:0:0:0:
254,198,147549,2,0,L|336:211,1,83.9999974365235,8|0,0:0|0:0,0:0:0:0:
177,168,147902,1,2,0:0:0:0:
210,314,148078,1,2,0:0:0:0:
429,271,148255,6,0,P|397:219|336:211,1,125.999996154785,0|0,3:0|0:0,0:0:0:0:
280,264,148608,2,0,P|257:207|285:152,1,125.999996154785,0|0,3:0|0:0,0:0:0:0:
359,133,148961,2,0,P|340:96|304:76,1,83.9999974365235,8|0,0:0|0:0,0:0:0:0:
148,74,149314,1,2,0:0:0:0:
176,215,149490,1,8,0:0:0:0:
63,126,149667,5,0,3:0:0:0:
211,135,149843,1,0,0:0:0:0:
83,215,150019,1,2,0:0:0:0:
253,210,150196,1,2,0:0:0:0:
136,150,150372,1,8,0:0:0:0:
179,300,150549,1,0,0:0:0:0:
291,144,150725,1,0,3:0:0:0:
258,308,150902,1,0,3:0:0:0:
435,233,151078,5,0,0:0:0:0:
253,210,151255,1,0,3:0:0:0:
403,320,151431,1,0,3:0:0:0:
258,308,151608,1,0,0:0:0:0:
366,159,151784,5,8,0:0:0:0:
364,117,151872,1,0,0:0:0:0:
340,81,151961,1,0,3:0:0:0:
300,67,152049,1,0,0:0:0:0:
258,73,152137,1,2,0:0:0:0:
185,217,152314,1,0,3:0:0:0:
84,100,152490,5,0,3:0:0:0:
114,257,152667,1,0,0:0:0:0:
218,142,152843,1,2,0:0:0:0:
185,309,153019,1,2,0:0:0:0:
85,180,153196,5,8,0:0:0:0:
273,209,153372,1,0,0:0:0:0:
87,328,153549,1,2,0:0:0:0:
273,287,153725,1,2,0:0:0:0:
159,229,153902,5,0,3:0:0:0:
253,356,154078,1,0,0:0:0:0:
273,209,154255,1,0,3:0:0:0:
363,340,154431,1,0,0:0:0:0:
380,125,154608,5,8,0:0:0:0:
334,272,154784,1,0,3:0:0:0:
271,125,154961,1,2,0:0:0:0:
225,272,155137,1,8,0:0:0:0:
192,98,155314,6,0,P|251:43|328:67,1,167.999994873047,0|2,3:0|0:0,0:0:0:0:
383,208,155843,1,2,0:0:0:0:
447,108,156019,1,8,0:0:0:0:
442,270,156196,1,0,0:0:0:0:
442,270,156284,1,0,0:0:0:0:
442,270,156372,1,0,3:0:0:0:
302,199,156549,1,0,3:0:0:0:
217,325,156725,6,0,L|207:241,1,83.9999974365235,0|0,0:0|3:0,0:0:0:0:
99,292,157078,2,0,L|90:208,1,83.9999974365235,0|0,3:0|0:0,0:0:0:0:
71,111,157431,6,0,P|135:139|204:133,1,140,8|0,0:0|3:0,0:0:0:0:
259,69,157961,1,0,3:0:0:0:
341,80,158137,6,0,L|345:231,1,140,0|0,3:0|0:0,0:0:0:0:
469,332,158843,2,0,L|463:192,1,140,2|0,0:0|0:0,0:0:0:0:
413,125,159372,1,0,0:0:0:0:
341,80,159549,6,0,L|200:72,1,140,2|0,0:0|3:0,0:0:0:0:
36,35,160255,2,0,P|65:97|60:166,1,140,2|0,0:0|0:0,0:0:0:0:
8,232,160784,1,0,0:0:0:0:
52,303,160961,6,0,P|117:279|180:306,1,140,0|0,3:0|0:0,0:0:0:0:
340,357,161667,2,0,L|334:217,1,140,2|0,0:0|0:0,0:0:0:0:
453,98,162372,6,0,L|458:237,1,140,2|0,0:0|3:0,0:0:0:0:
340,358,163078,2,0,P|274:338|236:280,1,140,2|0,0:0|3:0,0:0:0:0:
225,196,163608,1,0,0:0:0:0:
245,114,163784,6,0,P|184:81|117:95,1,140,0|0,3:0|0:0,0:0:0:0:
15,229,164490,2,0,P|81:247|145:221,1,140,2|0,0:0|0:0,0:0:0:0:
225,196,165019,1,0,0:0:0:0:
307,213,165196,6,0,B|316:278|316:278|306:351,1,140,2|0,0:0|3:0,0:0:0:0:
464,292,165902,2,0,B|454:218|454:218|463:153,1,140,2|0,0:0|0:0,0:0:0:0:
504,79,166431,1,0,0:0:0:0:
418,75,166608,6,0,P|349:83|281:69,1,140,0|0,3:0|0:0,0:0:0:0:
176,201,167314,2,0,P|245:192|313:206,1,140,2|0,0:0|0:0,0:0:0:0:
213,340,168019,6,0,P|143:348|75:334,1,140,0|0,0:0|3:0,0:0:0:0:
14,177,168725,2,0,P|28:110|87:77,1,140,2|0,0:0|3:0,0:0:0:0:
163,114,169255,1,0,0:0:0:0:
202,187,169431,6,0,B|246:192|246:192|319:163|319:163|336:161,1,140,0|2,3:0|0:0,0:0:0:0:
407,115,169961,1,2,0:0:0:0:
459,180,170137,2,0,B|448:238|448:238|453:318,1,140,8|2,0:0|0:0,0:0:0:0:
378,359,170667,1,2,0:0:0:0:
304,318,170843,6,0,B|205:316|205:316|165:328,1,140,0|0,0:0|3:0,0:0:0:0:
10,264,171549,2,0,P|-9:197|5:129,1,140,8|2,0:0|0:0,0:0:0:0:
65,70,172078,1,8,0:0:0:0:
128,124,172255,6,0,B|179:128|230:112|230:112|265:123,1,140,0|2,3:0|0:0,0:0:0:0:
331,174,172784,1,2,0:0:0:0:
413,156,172961,2,0,B|424:206|424:206|415:247|411:293,1,140,8|0,0:0|3:0,0:0:0:0:
350,351,173490,1,0,3:0:0:0:
186,311,173843,6,0,L|99:303,1,70,0|0,3:0|3:0,0:0:0:0:
278,262,174372,2,0,B|259:226|259:226|254:188|254:188|235:157|235:157|231:132,1,140,8|2,0:0|0:0,0:0:0:0:
174,70,174902,1,0,3:0:0:0:
90,76,175078,6,0,B|83:117|83:117|94:164|93:218,1,140,0|2,3:0|0:0,0:0:0:0:
205,339,175784,2,0,P|274:327|343:340,1,140,0|0,0:0|3:0,0:0:0:0:
426,358,176314,1,0,0:0:0:0:
477,292,176490,6,0,B|487:248|487:248|480:197|488:153,1,140,0|2,3:0|0:0,0:0:0:0:
353,51,177196,2,0,P|287:74|223:50,1,140,0|0,0:0|3:0,0:0:0:0:
57,80,177902,6,0,B|52:116|52:116|63:165|59:219,1,140,0|0,3:0|0:0,0:0:0:0:
169,347,178608,1,0,0:0:0:0:
207,272,178784,2,0,L|225:227,2,35,0|0|0,0:0|0:0|0:0,0:0:0:0:
256,110,179314,6,0,B|393:98|411:174|399:252|399:252|372:238|326:238,1,315.000012016297,0|0,0:0|0:0,0:0:0:0:
