osu file format v14

[General]
AudioFilename: audio.mp3
AudioLeadIn: 0
PreviewTime: 89667
Countdown: 0
SampleSet: Soft
StackLeniency: 0.7
Mode: 0
LetterboxInBreaks: 0
WidescreenStoryboard: 1

[Editor]
Bookmarks: 157255
DistanceSpacing: 1.2
BeatDivisor: 4
GridSize: 32
TimelineZoom: 2.2

[Metadata]
Title:Gou Zhi Qi Shi
TitleUnicode:勾指起誓
Artist:Semi, Ling Yuan yousa
ArtistUnicode:Semi, 泠鸢yousa
Creator:moonlightleaf
Version:Hard
Source:
Tags:Cover ilem chinese pop japanese
BeatmapID:2341872
BeatmapSetID:1120787

[Difficulty]
HPDrainRate:6
CircleSize:4
OverallDifficulty:6
ApproachRate:7.5
SliderMultiplier:1
SliderTickRate:1

[Events]
//Background and Video events
0,0,"bg2.jpg",0,0
//Break Periods
//Storyboard Layer 0 (Background)
//Storyboard Layer 1 (Fail)
//Storyboard Layer 2 (Pass)
//Storyboard Layer 3 (Foreground)
//Storyboard Layer 4 (Overlay)
//Storyboard Sound Samples

[TimingPoints]
20,352.941176470588,4,2,1,55,1,0
22608,-83.3333333333333,4,2,1,55,0,0
67784,-83.3333333333333,4,2,1,55,0,1
88961,-83.3333333333333,4,2,1,55,0,0
135549,-83.3333333333333,4,2,1,55,0,1
157078,-100,4,2,1,55,0,0
158137,-83.3333333333333,4,2,1,30,0,0
169431,-83.3333333333333,4,2,1,45,0,0
175078,-83.3333333333333,4,2,1,25,0,0
179402,-83.3333333333333,4,2,1,10,0,0

[Colours]
Combo1 : 151,151,255
Combo2 : 255,142,255
Combo3 : 88,250,225
Combo4 : 255,173,134

[HitObjects]
500,350,20,6,0,L|448:352,1,50,2|0,0:0|0:0,0:0:0:0:
379,327,372,2,0,P|379:302|385:277,1,50,0|0,0:0|0:0,0:0:0:0:
318,243,725,2,0,P|269:240|221:254,1,100,2|2,0:0|0:0,0:0:0:0:
111,357,1431,5,2,0:0:0:0:
111,357,1784,1,0,0:0:0:0:
131,284,1961,1,0,0:0:0:0:
69,240,2137,2,0,L|72:140,1,100,2|2,0:0|0:0,0:0:0:0:
199,220,2843,6,0,L|202:120,1,100,2|0,0:0|0:0,0:0:0:0:
252,63,3372,1,0,0:0:0:0:
312,109,3549,2,0,L|414:102,1,100,2|2,0:0|0:0,0:0:0:0:
424,252,4255,6,0,L|431:304,2,50,2|0|0,0:0|0:0|0:0,0:0:0:0:
275,276,4961,2,0,L|268:333,2,50,2|0|2,0:0|0:0|0:0,0:0:0:0:
124,274,5667,6,0,L|115:331,1,50,2|0,0:0|0:0,0:0:0:0:
44,343,6019,2,0,L|30:280,1,50,0|0,0:0|0:0,0:0:0:0:
44,219,6372,2,0,L|42:112,1,100,2|2,0:0|0:0,0:0:0:0:
176,51,7078,6,0,P|225:53|262:85,1,100,2|0,0:0|0:0,0:0:0:0:
285,157,7608,2,0,L|293:221,1,50,0|2,0:0|0:0,0:0:0:0:
414,292,8137,2,0,L|428:238,1,50,2|0,0:0|0:0,0:0:0:0:
291,206,8667,5,0,0:0:0:0:
304,279,8843,2,0,L|284:332,1,50,0|0,0:0|0:0,0:0:0:0:
214,347,9196,2,0,L|195:288,1,50,2|0,0:0|0:0,0:0:0:0:
147,244,9549,2,0,L|144:185,1,50,2|0,0:0|0:0,0:0:0:0:
176,126,9902,6,0,L|232:120,1,50,2|0,0:0|0:0,0:0:0:0:
296,145,10255,2,0,L|301:195,1,50,0|0,0:0|0:0,0:0:0:0:
371,220,10608,2,0,L|378:165,1,50,2|0,0:0|0:0,0:0:0:0:
393,96,10961,1,2,0:0:0:0:
393,96,11314,6,0,L|297:60,1,100,2|0,0:0|0:0,0:0:0:0:
227,83,11843,1,0,0:0:0:0:
210,155,12019,1,10,0:0:0:0:
161,38,12372,1,2,0:0:0:0:
210,155,12725,6,0,L|221:263,1,100,2|0,0:0|0:0,0:0:0:0:
230,329,13255,1,0,0:0:0:0:
303,314,13431,1,10,0:0:0:0:
156,347,13784,1,2,0:0:0:0:
156,347,14137,6,0,L|130:249,1,100,2|0,0:0|0:0,0:0:0:0:
112,176,14667,1,0,0:0:0:0:
38,160,14843,1,10,0:0:0:0:
185,186,15196,1,2,0:0:0:0:
330,148,15549,6,0,L|345:100,2,50,2|0|0,0:0|0:0|0:0,0:0:0:0:
387,286,16255,2,0,L|433:304,2,50,10|0|2,0:0|0:0|0:0,0:0:0:0:
253,216,16961,6,0,L|151:231,1,100,2|0,0:0|0:0,0:0:0:0:
79,242,17490,1,0,0:0:0:0:
59,314,17667,1,10,0:0:0:0:
101,170,18019,1,2,0:0:0:0:
198,284,18372,6,0,L|307:278,1,100,2|0,0:0|0:0,0:0:0:0:
355,229,18902,1,0,0:0:0:0:
414,274,19078,1,10,0:0:0:0:
351,151,19431,1,2,0:0:0:0:
351,151,19608,1,0,0:0:0:0:
213,90,19961,6,0,L|216:40,2,50,0|0|0,0:0|0:0|0:0,0:0:0:0:
207,164,20490,2,0,L|234:168,2,25,2|2|2,0:0|0:0|0:0,0:0:0:0:
183,235,20843,2,0,L|164:290,1,50,2|2,0:0|0:0,0:0:0:0:
95,305,21196,6,0,L|85:268,3,25,2|2|2|2,0:0|0:0|0:0|0:0,0:0:0:0:
72,246,21549,2,0,L|75:210,3,25,0|2|2|2,3:0|0:0|0:0|0:0,0:0:0:0:
76,183,21902,2,0,P|87:134|116:94,1,100,8|0,0:0|0:0,0:0:0:0:
216,97,22431,1,0,3:0:0:0:
230,187,22608,6,0,L|230:307,1,119.999996337891,0|2,3:0|0:0,0:0:0:0:
307,353,23137,1,2,0:0:0:0:
383,305,23314,2,0,L|383:185,1,119.999996337891,8|2,0:0|0:0,0:0:0:0:
342,104,23843,1,2,0:0:0:0:
258,71,24019,6,0,L|130:71,2,119.999996337891,0|0|8,0:0|3:0|0:0,0:0:0:0:
342,104,24902,2,0,L|401:94,1,59.9999981689454,0|2,3:0|0:0,0:0:0:0:
489,74,25255,1,8,0:0:0:0:
500,162,25431,6,0,L|495:285,1,119.999996337891,0|2,3:0|0:0,0:0:0:0:
456,363,25961,1,2,0:0:0:0:
405,290,26137,2,0,L|272:285,1,119.999996337891,8|0,0:0|3:0,0:0:0:0:
194,281,26667,1,0,3:0:0:0:
194,281,27019,5,0,3:0:0:0:
112,243,27196,2,0,P|101:273|94:300,1,59.9999981689454,0|2,3:0|0:0,0:0:0:0:
9,267,27549,2,0,L|3:148,1,119.999996337891,8|2,0:0|0:0,0:0:0:0:
9,57,28078,1,0,3:0:0:0:
98,43,28255,6,0,L|230:34,1,119.999996337891,0|2,3:0|0:0,0:0:0:0:
291,87,28784,1,2,0:0:0:0:
264,173,28961,2,0,L|264:315,1,119.999996337891,8|2,0:0|0:0,0:0:0:0:
338,343,29490,1,2,0:0:0:0:
417,299,29667,6,0,L|419:239,1,59.9999981689454,0|0,0:0|0:0,0:0:0:0:
475,168,30019,2,0,L|465:108,1,59.9999981689454,0|0,3:0|0:0,0:0:0:0:
398,47,30372,2,0,L|325:42,2,59.9999981689454,8|0|2,0:0|3:0|0:0,0:0:0:0:
465,108,30902,1,8,0:0:0:0:
387,153,31078,6,0,L|263:175,1,119.999996337891,0|2,3:0|0:0,0:0:0:0:
209,242,31608,1,2,0:0:0:0:
119,246,31784,2,0,L|85:125,1,119.999996337891,8|0,0:0|3:0,0:0:0:0:
131,51,32314,1,0,3:0:0:0:
131,51,32667,5,0,3:0:0:0:
220,57,32843,2,0,L|302:57,1,59.9999981689454,0|0,3:0|0:0,0:0:0:0:
363,90,33196,2,0,P|403:131|410:198,1,119.999996337891,8|2,0:0|0:0,0:0:0:0:
384,277,33725,1,0,3:0:0:0:
308,326,33902,6,0,B|247:315|247:315|192:333,1,119.999996337891,0|2,3:0|0:0,0:0:0:0:
107,366,34431,1,2,0:0:0:0:
23,332,34608,2,0,B|6:263|6:263|15:215,1,119.999996337891,8|2,0:0|0:0,0:0:0:0:
75,147,35137,1,2,0:0:0:0:
156,186,35314,6,0,L|245:194,1,89.9999972534181,0|0,0:0|0:0,0:0:0:0:
286,214,35667,2,0,L|389:196,1,89.9999972534181,0|0,3:0|0:0,0:0:0:0:
416,214,36019,1,8,0:0:0:0:
416,214,36372,1,2,0:0:0:0:
436,301,36549,1,8,0:0:0:0:
505,242,36725,6,0,P|505:184|470:136,1,119.999996337891,0|2,3:0|0:0,0:0:0:0:
380,122,37255,1,2,0:0:0:0:
308,175,37431,2,0,B|253:188|253:188|189:181,1,119.999996337891,8|0,0:0|3:0,0:0:0:0:
117,126,37961,1,0,3:0:0:0:
117,126,38314,5,0,3:0:0:0:
50,186,38490,2,0,L|57:260,1,59.9999981689454,0|0,3:0|0:0,0:0:0:0:
67,335,38843,2,0,L|192:321,1,119.999996337891,8|2,0:0|0:0,0:0:0:0:
267,360,39372,1,0,3:0:0:0:
337,303,39549,6,0,L|349:176,1,119.999996337891,0|2,3:0|0:0,0:0:0:0:
398,108,40078,1,2,0:0:0:0:
478,149,40255,2,0,L|486:277,1,119.999996337891,8|2,0:0|0:0,0:0:0:0:
420,330,40784,1,2,0:0:0:0:
341,286,40961,6,0,P|299:272|254:276,1,89.9999972534181,0|0,0:0|0:0,0:0:0:0:
228,313,41314,2,0,P|184:318|145:299,1,89.9999972534181,0|0,3:0|0:0,0:0:0:0:
113,266,41667,2,0,L|101:146,1,119.999996337891,8|2,0:0|0:0,0:0:0:0:
162,79,42196,1,8,0:0:0:0:
234,131,42372,6,0,B|274:137|274:137|377:122,1,119.999996337891,0|2,3:0|0:0,0:0:0:0:
441,107,42902,1,2,0:0:0:0:
512,161,43078,2,0,B|518:209|518:209|501:278,1,119.999996337891,8|0,0:0|3:0,0:0:0:0:
444,349,43608,1,0,3:0:0:0:
444,349,43961,5,0,3:0:0:0:
362,312,44137,2,0,P|332:311|302:317,1,59.9999981689454,0|0,3:0|0:0,0:0:0:0:
217,346,44490,2,0,P|174:304|156:249,1,119.999996337891,8|2,0:0|0:0,0:0:0:0:
177,160,45019,1,0,3:0:0:0:
250,211,45196,6,0,L|377:218,1,119.999996337891,0|2,3:0|0:0,0:0:0:0:
453,252,45725,1,2,0:0:0:0:
443,162,45902,2,0,L|432:39,1,119.999996337891,8|2,0:0|0:0,0:0:0:0:
343,29,46431,1,2,0:0:0:0:
258,63,46608,6,0,P|214:71|170:62,1,89.9999972534181,0|0,0:0|0:0,0:0:0:0:
140,29,46961,2,0,L|138:118,1,89.9999972534181,0|0,3:0|0:0,0:0:0:0:
99,143,47314,2,0,L|101:283,1,119.999996337891,8|2,0:0|0:0,0:0:0:0:
135,346,47843,1,8,0:0:0:0:
213,301,48019,6,0,L|348:306,1,119.999996337891,0|2,3:0|0:0,0:0:0:0:
408,355,48549,1,2,0:0:0:0:
457,280,48725,2,0,L|475:156,1,119.999996337891,8|0,0:0|3:0,0:0:0:0:
409,97,49255,2,0,L|323:87,1,59.9999981689454,0|0,3:0|0:0,0:0:0:0:
268,51,49608,5,0,3:0:0:0:
199,109,49784,2,0,L|199:236,1,119.999996337891,0|8,3:0|0:0,0:0:0:0:
155,308,50314,1,0,3:0:0:0:
80,257,50490,2,0,L|50:197,1,59.9999981689454,2|0,0:0|3:0,0:0:0:0:
5,126,50843,6,0,L|121:98,1,119.999996337891,0|2,3:0|0:0,0:0:0:0:
210,80,51372,1,2,0:0:0:0:
288,124,51549,2,0,L|298:252,1,119.999996337891,8|2,0:0|0:0,0:0:0:0:
343,320,52078,1,2,0:0:0:0:
427,286,52255,6,0,P|466:265|491:228,1,89.9999972534181,0|0,0:0|0:0,0:0:0:0:
459,195,52608,2,0,P|472:151|465:107,1,89.9999972534181,0|0,3:0|0:0,0:0:0:0:
421,92,52961,2,0,P|387:45|331:30,1,119.999996337891,8|2,0:0|0:0,0:0:0:0:
249,68,53490,1,8,0:0:0:0:
225,155,53667,6,0,L|226:284,1,119.999996337891,0|2,3:0|0:0,0:0:0:0:
166,343,54196,1,2,0:0:0:0:
90,294,54372,2,0,L|-3:210,1,119.999996337891,8|0,0:0|3:0,0:0:0:0:
0,113,54902,1,0,3:0:0:0:
0,113,55255,5,0,3:0:0:0:
49,38,55431,2,0,L|122:40,1,59.9999981689454,0|0,3:0|0:0,0:0:0:0:
200,50,55784,2,0,L|199:176,1,119.999996337891,8|2,0:0|0:0,0:0:0:0:
231,254,56314,1,0,3:0:0:0:
303,200,56490,6,0,L|429:196,1,119.999996337891,0|2,3:0|0:0,0:0:0:0:
501,240,57019,1,2,0:0:0:0:
431,297,57196,2,0,P|427:326|428:356,1,59.9999981689454,8|0,0:0|0:0,0:0:0:0:
337,356,57549,2,0,P|338:326|334:296,1,59.9999981689454,2|2,0:0|0:0,0:0:0:0:
250,263,57902,6,0,L|111:260,1,119.999996337891,0|0,0:0|3:0,0:0:0:0:
130,260,58608,2,0,L|117:140,1,119.999996337891,8|2,0:0|0:0,0:0:0:0:
164,63,59137,1,8,0:0:0:0:
246,100,59314,6,0,L|376:92,1,119.999996337891,0|2,3:0|0:0,0:0:0:0:
448,57,59843,1,2,0:0:0:0:
460,145,60019,2,0,L|476:269,1,119.999996337891,8|0,0:0|3:0,0:0:0:0:
486,354,60549,1,0,3:0:0:0:
486,354,60902,5,0,3:0:0:0:
404,317,61078,2,0,L|323:316,1,59.9999981689454,0|0,3:0|0:0,0:0:0:0:
253,316,61431,2,0,B|194:302|194:302|135:313,1,119.999996337891,8|2,0:0|0:0,0:0:0:0:
52,348,61961,1,0,3:0:0:0:
25,262,62137,6,0,L|9:142,1,119.999996337891,0|2,3:0|0:0,0:0:0:0:
70,75,62667,1,2,0:0:0:0:
154,104,62843,2,0,B|195:114|195:114|283:105,1,119.999996337891,8|2,0:0|0:0,0:0:0:0:
361,91,63372,1,2,0:0:0:0:
449,106,63549,6,0,P|438:149|443:193,1,89.9999972534181,0|0,0:0|0:0,0:0:0:0:
472,228,63902,2,0,P|430:216|386:227,1,89.9999972534181,0|0,3:0|0:0,0:0:0:0:
351,260,64255,2,0,P|294:276|237:262,1,119.999996337891,8|2,0:0|0:0,0:0:0:0:
167,204,64784,1,8,0:0:0:0:
86,244,64961,6,0,L|73:124,1,119.999996337891,0|2,3:0|0:0,0:0:0:0:
111,42,65490,1,2,0:0:0:0:
193,79,65667,2,0,L|280:73,1,59.9999981689454,8|0,0:0|0:0,0:0:0:0:
297,72,65931,1,0,0:0:0:0:
297,72,66019,1,0,3:0:0:0:
364,12,66196,1,0,3:0:0:0:
383,99,66372,6,0,L|381:188,1,89.9999972534181,0|0,0:0|0:0,0:0:0:0:
379,234,66725,2,0,L|286:232,1,89.9999972534181,0|0,3:0|0:0,0:0:0:0:
265,259,67078,6,0,L|260:302,2,39.9999987792969,8|0|0,0:0|0:0|0:0,0:0:0:0:
185,251,67431,2,0,L|158:178,1,59.9999981689454,0|0,3:0|3:0,0:0:0:0:
129,111,67784,6,0,P|85:148|73:206,1,119.999996337891,0|2,3:0|0:0,0:0:0:0:
96,294,68314,1,2,0:0:0:0:
179,327,68490,2,0,L|308:308,1,119.999996337891,8|2,0:0|0:0,0:0:0:0:
381,343,69019,1,2,0:0:0:0:
424,264,69196,6,0,L|434:162,1,89.9999972534181,0|0,3:0|0:0,0:0:0:0:
437,129,69549,2,0,L|395:46,1,89.9999972534181,0|0,3:0|0:0,0:0:0:0:
351,44,69902,2,0,L|227:34,1,119.999996337891,8|2,0:0|0:0,0:0:0:0:
148,70,70431,1,8,0:0:0:0:
59,51,70608,6,0,L|52:181,1,119.999996337891,0|2,3:0|0:0,0:0:0:0:
60,260,71137,1,2,0:0:0:0:
138,303,71314,2,0,L|169:175,1,119.999996337891,8|0,0:0|3:0,0:0:0:0:
194,100,71843,1,0,3:0:0:0:
283,91,72019,6,0,P|321:113|366:118,1,89.9999972534181,0|0,0:0|0:0,0:0:0:0:
411,113,72372,2,0,P|454:122|488:166,1,89.9999972534181,0|0,3:0|0:0,0:0:0:0:
471,198,72725,2,0,P|463:231|463:324,1,119.999996337891,8|2,0:0|0:0,0:0:0:0:
385,365,73255,1,0,3:0:0:0:
324,298,73431,6,0,L|191:311,1,119.999996337891,0|2,3:0|0:0,0:0:0:0:
118,339,73961,1,2,0:0:0:0:
58,271,74137,2,0,L|74:132,1,119.999996337891,8|2,0:0|0:0,0:0:0:0:
151,109,74667,1,2,0:0:0:0:
239,120,74843,6,0,L|305:110,1,59.9999981689454,0|0,3:0|0:0,0:0:0:0:
387,128,75196,2,0,L|387:195,1,59.9999981689454,0|0,3:0|0:0,0:0:0:0:
355,273,75549,2,0,P|337:298|327:326,1,59.9999981689454,8|0,0:0|3:0,0:0:0:0:
240,352,75902,2,0,P|222:329|196:314,1,59.9999981689454,2|8,0:0|0:0,0:0:0:0:
106,297,76255,6,0,P|80:245|85:185,1,119.999996337891,0|2,3:0|0:0,0:0:0:0:
134,110,76784,1,2,0:0:0:0:
204,166,76961,2,0,P|263:166|314:137,1,119.999996337891,8|0,0:0|3:0,0:0:0:0:
371,66,77490,1,0,3:0:0:0:
458,87,77667,6,0,L|463:146,1,59.9999981689454,0|0,0:0|3:0,0:0:0:0:
393,201,78019,2,0,L|388:141,1,59.9999981689454,0|0,3:0|0:0,0:0:0:0:
359,55,78372,1,8,0:0:0:0:
277,94,78549,1,0,3:0:0:0:
197,52,78725,2,0,L|111:50,1,59.9999981689454,2|0,0:0|3:0,0:0:0:0:
50,26,79078,6,0,L|50:168,1,119.999996337891,0|2,3:0|0:0,0:0:0:0:
48,236,79608,1,2,0:0:0:0:
117,291,79784,2,0,P|171:269|228:284,1,119.999996337891,8|2,0:0|0:0,0:0:0:0:
298,341,80314,1,2,0:0:0:0:
359,276,80490,6,0,L|370:186,1,89.9999972534181,0|0,3:0|0:0,0:0:0:0:
364,141,80843,2,0,P|319:148|277:135,1,89.9999972534181,0|0,3:0|0:0,0:0:0:0:
256,93,81196,2,0,P|212:86|168:94,1,89.9999972534181,8|0,0:0|0:0,0:0:0:0:
124,88,81549,2,0,L|129:148,1,59.9999981689454,2|8,0:0|0:0,0:0:0:0:
95,232,81902,6,0,L|43:265,1,59.9999981689454,0|0,3:0|0:0,0:0:0:0:
6,182,82255,2,0,L|3:120,1,59.9999981689454,2|2,0:0|0:0,0:0:0:0:
93,130,82608,2,0,L|147:158,1,59.9999981689454,8|0,0:0|0:0,0:0:0:0:
100,253,82961,2,0,L|48:286,1,59.9999981689454,0|0,3:0|3:0,0:0:0:0:
11,203,83314,6,0,L|8:141,1,59.9999981689454,0|0,0:0|3:0,0:0:0:0:
98,151,83667,2,0,L|152:179,1,59.9999981689454,0|0,3:0|0:0,0:0:0:0:
229,217,84019,2,0,L|258:211,2,29.9999990844727,8|0|0,0:0|0:0|0:0,0:0:0:0:
228,304,84372,2,0,L|236:384,1,59.9999981689454,2|0,0:0|3:0,0:0:0:0:
315,358,84725,6,0,L|326:299,1,59.9999981689454,0|0,3:0|0:0,0:0:0:0:
411,271,85078,2,0,L|386:193,1,59.9999981689454,2|2,0:0|0:0,0:0:0:0:
401,124,85431,2,0,L|322:109,1,59.9999981689454,8|0,0:0|0:0,0:0:0:0:
251,112,85784,2,0,L|227:186,1,59.9999981689454,2|2,0:0|0:0,0:0:0:0:
232,259,86137,6,0,L|259:312,1,59.9999981689454,0|0,3:0|0:0,0:0:0:0:
348,302,86490,2,0,L|316:251,1,59.9999981689454,0|0,3:0|0:0,0:0:0:0:
238,255,86843,2,0,L|265:308,1,59.9999981689454,8|0,0:0|3:0,0:0:0:0:
354,298,87196,2,0,L|322:247,1,59.9999981689454,2|8,0:0|0:0,0:0:0:0:
273,169,87549,6,0,P|215:163|166:196,1,119.999996337891,0|2,3:0|0:0,0:0:0:0:
104,261,88078,1,2,0:0:0:0:
56,184,88255,2,0,P|60:125|100:82,1,119.999996337891,8|0,0:0|3:0,0:0:0:0:
187,56,88784,1,0,3:0:0:0:
275,74,88961,6,0,L|334:76,1,59.9999981689454,0|0,0:0|3:0,0:0:0:0:
413,122,89314,1,0,3:0:0:0:
413,122,89667,2,0,L|405:241,1,119.999996337891,8|0,0:0|0:0,0:0:0:0:
398,331,90196,1,0,3:0:0:0:
310,310,90372,6,0,B|270:297|270:297|193:311,1,119.999996337891,0|2,3:0|0:0,0:0:0:0:
109,344,90902,1,2,0:0:0:0:
37,289,91078,2,0,B|33:233|33:233|52:171,1,119.999996337891,8|2,0:0|0:0,0:0:0:0:
100,95,91608,1,2,0:0:0:0:
186,71,91784,6,0,L|323:64,2,119.999996337891,0|0|8,0:0|3:0|0:0,0:0:0:0:
100,94,92667,2,0,P|98:124|98:154,1,59.9999981689454,0|2,3:0|0:0,0:0:0:0:
101,244,93019,1,8,0:0:0:0:
178,289,93196,6,0,L|313:272,1,119.999996337891,0|2,3:0|0:0,0:0:0:0:
383,299,93725,1,2,0:0:0:0:
447,235,93902,2,0,L|444:102,1,119.999996337891,8|0,0:0|3:0,0:0:0:0:
371,62,94431,1,0,3:0:0:0:
371,62,94784,5,0,3:0:0:0:
281,53,94961,2,0,L|201:58,1,59.9999981689454,0|2,3:0|0:0,0:0:0:0:
135,84,95314,2,0,L|141:203,1,119.999996337891,8|2,0:0|0:0,0:0:0:0:
201,272,95843,1,0,3:0:0:0:
267,211,96019,6,0,L|386:202,1,119.999996337891,0|2,3:0|0:0,0:0:0:0:
448,268,96549,1,2,0:0:0:0:
499,194,96725,2,0,L|499:74,1,119.999996337891,8|2,0:0|0:0,0:0:0:0:
411,50,97255,1,2,0:0:0:0:
330,89,97431,6,0,L|270:82,1,59.9999981689454,0|0,0:0|0:0,0:0:0:0:
187,116,97784,2,0,L|177:176,1,59.9999981689454,0|0,3:0|0:0,0:0:0:0:
203,261,98137,2,0,L|216:331,2,59.9999981689454,8|0|2,0:0|3:0|0:0,0:0:0:0:
115,236,98667,1,8,0:0:0:0:
32,271,98843,6,0,L|17:130,1,119.999996337891,0|2,3:0|0:0,0:0:0:0:
57,69,99372,1,2,0:0:0:0:
134,115,99549,2,0,B|184:117|184:117|252:102,1,119.999996337891,8|0,0:0|3:0,0:0:0:0:
343,103,100078,1,0,3:0:0:0:
343,103,100431,5,0,3:0:0:0:
390,179,100608,2,0,L|396:248,1,59.9999981689454,0|0,3:0|0:0,0:0:0:0:
405,328,100961,2,0,P|348:318|311:272,1,119.999996337891,8|2,0:0|0:0,0:0:0:0:
277,188,101490,1,0,3:0:0:0:
209,248,101667,6,0,B|148:259|148:259|93:240,1,119.999996337891,0|2,3:0|0:0,0:0:0:0:
22,184,102196,1,2,0:0:0:0:
34,94,102372,2,0,P|90:77|146:97,1,119.999996337891,8|2,0:0|0:0,0:0:0:0:
191,175,102902,1,2,0:0:0:0:
255,111,103078,6,0,P|299:117|343:108,1,89.9999972534181,0|0,0:0|0:0,0:0:0:0:
377,77,103431,2,0,P|374:122|380:167,1,89.9999972534181,0|0,3:0|0:0,0:0:0:0:
392,210,103784,1,8,0:0:0:0:
392,210,104137,1,2,0:0:0:0:
421,295,104314,1,8,0:0:0:0:
339,331,104490,6,0,L|217:322,1,119.999996337891,0|2,3:0|0:0,0:0:0:0:
131,345,105019,1,2,0:0:0:0:
65,283,105196,2,0,L|62:163,1,119.999996337891,8|0,0:0|3:0,0:0:0:0:
134,107,105725,1,0,3:0:0:0:
134,107,106078,5,0,3:0:0:0:
216,142,106255,2,0,L|296:148,1,59.9999981689454,0|0,3:0|0:0,0:0:0:0:
365,151,106608,2,0,L|379:276,1,119.999996337891,8|2,0:0|0:0,0:0:0:0:
390,359,107137,1,0,3:0:0:0:
467,312,107314,6,0,L|479:185,1,119.999996337891,0|2,3:0|0:0,0:0:0:0:
500,104,107843,1,2,0:0:0:0:
438,38,108019,2,0,L|318:52,1,119.999996337891,8|2,0:0|0:0,0:0:0:0:
250,110,108549,1,2,0:0:0:0:
172,63,108725,6,0,P|129:48|84:52,1,89.9999972534181,0|0,0:0|0:0,0:0:0:0:
48,78,109078,2,0,P|57:121|50:166,1,89.9999972534181,0|0,3:0|0:0,0:0:0:0:
10,188,109431,2,0,L|129:186,1,119.999996337891,8|2,0:0|0:0,0:0:0:0:
191,252,109961,1,8,0:0:0:0:
257,192,110137,6,0,P|312:171|370:184,1,119.999996337891,0|2,3:0|0:0,0:0:0:0:
428,253,110667,1,2,0:0:0:0:
491,189,110843,2,0,L|501:69,1,119.999996337891,8|0,0:0|3:0,0:0:0:0:
420,28,111372,1,0,3:0:0:0:
420,28,111725,5,0,3:0:0:0:
342,72,111902,2,0,P|312:72|282:66,1,59.9999981689454,0|0,3:0|0:0,0:0:0:0:
195,43,112255,2,0,P|141:67|117:121,1,119.999996337891,8|0,0:0|0:0,0:0:0:0:
120,212,112784,1,0,3:0:0:0:
207,236,112961,6,0,L|342:217,1,119.999996337891,0|2,3:0|0:0,0:0:0:0:
374,142,113490,1,2,0:0:0:0:
459,172,113667,2,0,L|469:291,1,119.999996337891,8|2,0:0|0:0,0:0:0:0:
403,353,114196,1,2,0:0:0:0:
314,336,114372,6,0,P|269:327|225:336,1,89.9999972534181,0|0,0:0|0:0,0:0:0:0:
184,353,114725,2,0,P|188:309|182:264,1,89.9999972534181,0|0,3:0|0:0,0:0:0:0:
150,233,115078,2,0,L|269:218,1,119.999996337891,8|2,0:0|0:0,0:0:0:0:
333,281,115608,1,8,0:0:0:0:
419,256,115784,6,0,L|433:121,1,119.999996337891,0|2,3:0|0:0,0:0:0:0:
447,47,116314,1,2,0:0:0:0:
357,41,116490,2,0,L|238:22,1,119.999996337891,8|0,0:0|3:0,0:0:0:0:
149,39,117019,2,0,L|82:50,1,59.9999981689454,0|0,3:0|0:0,0:0:0:0:
52,131,117372,5,0,3:0:0:0:
111,199,117549,2,0,P|116:258|106:317,1,119.999996337891,0|8,3:0|0:0,0:0:0:0:
28,363,118078,1,0,3:0:0:0:
1,277,118255,2,0,L|-2:205,1,59.9999981689454,2|0,0:0|3:0,0:0:0:0:
29,131,118608,6,0,P|83:109|141:121,1,119.999996337891,0|2,3:0|0:0,0:0:0:0:
214,175,119137,1,2,0:0:0:0:
254,255,119314,2,0,P|312:266|366:244,1,119.999996337891,8|2,0:0|0:0,0:0:0:0:
433,182,119843,1,2,0:0:0:0:
479,104,120019,6,0,P|454:67|414:45,1,89.9999972534181,0|0,0:0|0:0,0:0:0:0:
379,74,120372,2,0,L|279:72,1,89.9999972534181,0|0,3:0|0:0,0:0:0:0:
259,37,120725,2,0,P|288:87|279:145,1,119.999996337891,8|2,0:0|0:0,0:0:0:0:
214,209,121255,1,8,0:0:0:0:
270,279,121431,6,0,L|402:278,1,119.999996337891,0|2,3:0|0:0,0:0:0:0:
460,334,121961,1,2,0:0:0:0:
497,252,122137,2,0,L|503:122,1,119.999996337891,8|0,0:0|3:0,0:0:0:0:
426,78,122667,1,0,3:0:0:0:
426,78,123019,5,0,3:0:0:0:
341,47,123196,2,0,L|281:45,1,59.9999981689454,0|0,3:0|0:0,0:0:0:0:
190,40,123549,2,0,L|189:166,1,119.999996337891,8|2,0:0|0:0,0:0:0:0:
224,243,124078,1,0,3:0:0:0:
172,316,124255,6,0,L|52:312,1,119.999996337891,0|2,3:0|0:0,0:0:0:0:
20,227,124784,1,2,0:0:0:0:
88,168,124961,2,0,P|89:138|85:108,1,59.9999981689454,8|0,0:0|0:0,0:0:0:0:
50,25,125314,2,0,P|79:21|109:22,1,59.9999981689454,2|2,0:0|0:0,0:0:0:0:
186,69,125667,6,0,L|182:201,1,119.999996337891,0|0,0:0|3:0,0:0:0:0:
182,188,126372,2,0,L|317:176,1,119.999996337891,8|2,0:0|0:0,0:0:0:0:
378,129,126902,1,8,0:0:0:0:
462,161,127078,6,0,L|460:306,1,119.999996337891,0|2,3:0|0:0,0:0:0:0:
398,346,127608,1,2,0:0:0:0:
318,304,127784,2,0,L|198:299,1,119.999996337891,8|0,0:0|3:0,0:0:0:0:
120,346,128314,1,0,3:0:0:0:
120,346,128667,5,0,3:0:0:0:
49,290,128843,2,0,L|38:220,1,59.9999981689454,0|0,3:0|0:0,0:0:0:0:
26,141,129196,2,0,B|85:127|85:127|144:138,1,119.999996337891,8|2,0:0|0:0,0:0:0:0:
211,197,129725,1,0,3:0:0:0:
279,138,129902,6,0,P|300:193|283:249,1,119.999996337891,0|2,3:0|0:0,0:0:0:0:
212,306,130431,1,2,0:0:0:0:
282,361,130608,2,0,L|401:345,1,119.999996337891,8|2,0:0|0:0,0:0:0:0:
481,304,131137,1,2,0:0:0:0:
502,216,131314,6,0,P|496:171|507:128,1,89.9999972534181,0|0,0:0|0:0,0:0:0:0:
486,88,131667,2,0,P|444:76|400:87,1,89.9999972534181,0|0,3:0|0:0,0:0:0:0:
363,115,132019,2,0,P|305:126|250:104,1,119.999996337891,8|2,0:0|0:0,0:0:0:0:
191,36,132549,1,8,0:0:0:0:
119,91,132725,6,0,L|132:211,1,119.999996337891,0|2,3:0|0:0,0:0:0:0:
147,299,133255,1,2,0:0:0:0:
227,339,133431,2,0,L|286:334,1,59.9999981689454,8|0,0:0|0:0,0:0:0:0:
331,331,133696,1,0,0:0:0:0:
331,331,133784,1,0,3:0:0:0:
421,324,133961,1,0,3:0:0:0:
455,241,134137,6,0,L|457:152,1,89.9999972534181,0|0,0:0|0:0,0:0:0:0:
438,109,134490,2,0,L|345:107,1,89.9999972534181,0|0,3:0|0:0,0:0:0:0:
320,142,134843,2,0,L|313:183,2,39.9999987792969,8|0|0,0:0|0:0|0:0,0:0:0:0:
258,91,135196,2,0,L|198:90,1,59.9999981689454,0|0,3:0|3:0,0:0:0:0:
107,89,135549,6,0,L|117:225,1,119.999996337891,0|2,3:0|0:0,0:0:0:0:
122,298,136078,1,2,0:0:0:0:
212,290,136255,2,0,P|270:282|326:304,1,119.999996337891,8|2,0:0|0:0,0:0:0:0:
397,359,136784,1,2,0:0:0:0:
468,304,136961,6,0,L|482:215,1,89.9999972534181,0|0,3:0|0:0,0:0:0:0:
464,173,137314,2,0,P|428:178|366:153,1,89.9999972534181,0|0,3:0|0:0,0:0:0:0:
338,138,137667,2,0,P|279:137|232:172,1,119.999996337891,8|2,0:0|0:0,0:0:0:0:
186,250,138196,1,8,0:0:0:0:
98,230,138372,6,0,L|79:102,1,119.999996337891,0|2,3:0|0:0,0:0:0:0:
134,38,138902,1,2,0:0:0:0:
213,80,139078,2,0,B|250:90|250:90|331:79,1,119.999996337891,8|0,0:0|3:0,0:0:0:0:
411,37,139608,1,0,3:0:0:0:
492,74,139784,6,0,P|480:133|483:166,1,89.9999972534181,0|0,0:0|0:0,0:0:0:0:
493,206,140137,2,0,P|501:250|481:301,1,89.9999972534181,0|0,3:0|0:0,0:0:0:0:
443,303,140490,2,0,P|384:289|326:302,1,119.999996337891,8|2,0:0|0:0,0:0:0:0:
248,346,141019,1,0,3:0:0:0:
160,318,141196,6,0,L|166:216,1,89.9999972534181,0|0,3:0|0:0,0:0:0:0:
195,194,141549,2,0,P|239:200|283:190,1,89.9999972534181,2|0,0:0|0:0,0:0:0:0:
324,172,141902,2,0,L|331:52,1,119.999996337891,8|2,0:0|0:0,0:0:0:0:
245,23,142431,1,2,0:0:0:0:
170,73,142608,6,0,L|110:64,1,59.9999981689454,0|0,3:0|0:0,0:0:0:0:
40,120,142961,2,0,L|39:179,1,59.9999981689454,0|0,3:0|0:0,0:0:0:0:
96,249,143314,2,0,L|160:259,1,59.9999981689454,8|0,0:0|3:0,0:0:0:0:
223,199,143667,2,0,L|223:139,1,59.9999981689454,2|8,0:0|0:0,0:0:0:0:
279,67,144019,6,0,P|338:70|387:103,1,119.999996337891,0|2,3:0|0:0,0:0:0:0:
425,185,144549,1,2,0:0:0:0:
394,269,144725,2,0,P|336:284|278:269,1,119.999996337891,8|0,0:0|3:0,0:0:0:0:
209,211,145255,1,0,3:0:0:0:
132,257,145431,2,0,L|133:316,1,59.9999981689454,0|0,0:0|3:0,0:0:0:0:
43,324,145784,6,0,L|40:264,1,59.9999981689454,0|0,3:0|0:0,0:0:0:0:
42,173,146137,2,0,L|54:115,1,59.9999981689454,8|0,0:0|3:0,0:0:0:0:
124,57,146490,2,0,L|143:113,1,59.9999981689454,2|0,0:0|3:0,0:0:0:0:
200,184,146843,6,0,P|252:182|301:129,1,119.999996337891,0|2,3:0|0:0,0:0:0:0:
329,51,147372,1,2,0:0:0:0:
417,68,147549,2,0,P|434:125|435:184,1,119.999996337891,8|2,0:0|0:0,0:0:0:0:
388,261,148078,1,2,0:0:0:0:
305,224,148255,6,0,B|256:214|256:214|216:222,1,89.9999972534181,0|0,3:0|0:0,0:0:0:0:
172,232,148608,2,0,L|177:329,1,89.9999972534181,0|0,3:0|0:0,0:0:0:0:
176,367,148961,2,0,L|247:363,1,59.9999981689454,8|0,0:0|3:0,0:0:0:0:
311,314,149314,2,0,L|306:254,1,59.9999981689454,2|8,0:0|0:0,0:0:0:0:
230,204,149667,6,0,L|178:237,1,59.9999981689454,0|0,3:0|0:0,0:0:0:0:
141,154,150019,2,0,L|138:92,1,59.9999981689454,2|2,0:0|0:0,0:0:0:0:
228,102,150372,2,0,L|282:130,1,59.9999981689454,8|0,0:0|0:0,0:0:0:0:
219,211,150725,2,0,L|167:244,1,59.9999981689454,0|0,3:0|3:0,0:0:0:0:
130,161,151078,6,0,L|127:99,1,59.9999981689454,0|0,0:0|3:0,0:0:0:0:
217,109,151431,2,0,L|271:137,1,59.9999981689454,0|0,3:0|0:0,0:0:0:0:
348,180,151784,2,0,L|377:173,2,29.9999990844727,8|0|0,0:0|0:0|0:0,0:0:0:0:
334,266,152137,2,0,L|340:343,1,59.9999981689454,2|0,0:0|3:0,0:0:0:0:
250,346,152490,6,0,L|173:352,1,59.9999981689454,0|0,3:0|0:0,0:0:0:0:
116,299,152843,2,0,L|110:222,1,59.9999981689454,2|2,0:0|0:0,0:0:0:0:
200,219,153196,2,0,L|277:213,1,59.9999981689454,8|0,0:0|0:0,0:0:0:0:
334,266,153549,2,0,L|340:343,1,59.9999981689454,2|2,0:0|0:0,0:0:0:0:
250,346,153902,6,0,L|173:352,1,59.9999981689454,0|0,3:0|0:0,0:0:0:0:
116,299,154255,2,0,L|110:222,1,59.9999981689454,0|0,3:0|0:0,0:0:0:0:
200,219,154608,2,0,L|277:213,1,59.9999981689454,8|0,0:0|3:0,0:0:0:0:
334,266,154961,2,0,L|340:343,1,59.9999981689454,2|8,0:0|0:0,0:0:0:0:
423,356,155314,6,0,P|473:325|500:273,1,119.999996337891,0|2,3:0|0:0,0:0:0:0:
502,182,155843,1,2,0:0:0:0:
490,93,156019,2,0,P|433:74|375:86,1,119.999996337891,8|0,0:0|3:0,0:0:0:0:
323,160,156549,1,0,3:0:0:0:
237,183,156725,5,0,0:0:0:0:
237,183,157078,2,0,L|132:161,2,100,0|8|0,3:0|0:0|3:0,0:0:0:0:
123,322,158137,6,0,P|69:301|43:248,1,119.999996337891,0|0,3:0|0:0,0:0:0:0:
74,132,158843,2,0,L|190:103,1,119.999996337891,2|0,0:0|0:0,0:0:0:0:
307,77,159549,6,0,P|334:121|336:200,1,119.999996337891,2|0,0:0|3:0,0:0:0:0:
227,234,160255,2,0,L|107:220,1,119.999996337891,2|0,0:0|0:0,0:0:0:0:
117,340,160961,6,0,L|236:354,1,119.999996337891,0|0,3:0|0:0,0:0:0:0:
356,347,161667,2,0,L|378:226,1,119.999996337891,2|0,0:0|0:0,0:0:0:0:
272,170,162372,6,0,L|153:152,1,119.999996337891,2|0,0:0|3:0,0:0:0:0:
135,33,163078,2,0,L|254:34,1,119.999996337891,2|0,0:0|3:0,0:0:0:0:
360,93,163784,6,0,L|363:215,1,119.999996337891,0|0,3:0|0:0,0:0:0:0:
472,356,164490,2,0,L|488:227,1,119.999996337891,2|0,0:0|0:0,0:0:0:0:
474,147,165019,1,0,0:0:0:0:
407,85,165196,6,0,P|377:77|348:74,1,59.9999981689454,2|0,0:0|0:0,0:0:0:0:
261,99,165549,2,0,B|202:107|202:107|126:90,1,119.999996337891,0|2,3:0|0:0,0:0:0:0:
53,83,166078,2,0,P|60:55|75:28,2,59.9999981689454,0|0|0,0:0|0:0|0:0,0:0:0:0:
36,172,166608,6,0,L|47:306,1,119.999996337891,0|0,3:0|0:0,0:0:0:0:
115,349,167137,1,0,0:0:0:0:
193,303,167314,2,0,P|252:299|304:327,1,119.999996337891,2|0,0:0|0:0,0:0:0:0:
481,358,168019,6,0,L|470:231,1,119.999996337891,0|0,0:0|3:0,0:0:0:0:
470,57,168725,2,0,P|425:66|408:77,1,59.9999981689454,2|0,0:0|0:0,0:0:0:0:
352,139,169078,2,0,P|312:135|279:122,1,59.9999981689454,0|0,3:0|0:0,0:0:0:0:
225,66,169431,6,0,P|171:45|113:58,1,119.999996337891,0|2,3:0|0:0,0:0:0:0:
36,107,169961,1,2,0:0:0:0:
29,197,170137,2,0,P|27:256|55:308,1,119.999996337891,8|2,0:0|0:0,0:0:0:0:
135,349,170667,1,2,0:0:0:0:
219,318,170843,6,0,P|262:307|305:316,1,89.9999972534181,0|0,0:0|0:0,0:0:0:0:
342,342,171196,2,0,P|384:355|427:343,1,89.9999972534181,0|0,3:0|0:0,0:0:0:0:
469,325,171549,2,0,L|486:206,1,119.999996337891,8|2,0:0|0:0,0:0:0:0:
451,122,172078,1,8,0:0:0:0:
362,141,172255,6,0,P|332:146|302:143,1,59.9999981689454,0|0,3:0|0:0,0:0:0:0:
223,99,172608,2,0,P|213:127|212:157,1,59.9999981689454,2|2,0:0|0:0,0:0:0:0:
206,247,172961,1,8,0:0:0:0:
206,247,173314,5,0,3:0:0:0:
224,334,173490,1,0,3:0:0:0:
379,242,173843,5,0,3:0:0:0:
371,331,174019,1,0,3:0:0:0:
289,170,174372,2,0,L|289:231,1,59.9999981689454,8|0,0:0|3:0,0:0:0:0:
203,200,174725,2,0,L|205:131,1,59.9999981689454,2|0,0:0|3:0,0:0:0:0:
194,49,175078,6,0,P|136:59|85:91,1,119.999996337891,0|2,3:0|0:0,0:0:0:0:
53,269,175784,2,0,P|55:309|61:331,1,59.9999981689454,0|0,0:0|0:0,0:0:0:0:
146,353,176137,2,0,L|217:348,1,59.9999981689454,0|0,3:0|0:0,0:0:0:0:
296,345,176490,6,0,P|299:311|294:285,1,59.9999981689454,0|0,3:0|0:0,0:0:0:0:
251,206,176843,2,0,P|253:168|266:141,1,59.9999981689454,2|2,0:0|0:0,0:0:0:0:
320,80,177196,1,0,0:0:0:0:
491,135,177549,1,0,3:0:0:0:
495,315,177902,6,0,P|454:326|423:326,1,59.9999981689454,0|0,3:0|0:0,0:0:0:0:
356,285,178255,2,0,P|326:285|283:298,1,59.9999981689454,0|0,0:0|0:0,0:0:0:0:
217,335,178608,2,0,L|207:367,2,29.9999990844727,0|0|0,0:0|0:0|0:0,0:0:0:0:
185,250,178961,1,0,0:0:0:0:
185,250,179314,6,0,P|260:111|383:210,1,359.999989013672,0|0,0:0|0:0,0:0:0:0:
