osu file format v14

[General]
AudioFilename: audio.mp3
AudioLeadIn: 0
PreviewTime: 54766
Countdown: 1
SampleSet: Soft
StackLeniency: 0.7
Mode: 0
LetterboxInBreaks: 0
WidescreenStoryboard: 0

[Editor]
Bookmarks: 57704,57829
DistanceSpacing: 1.8
BeatDivisor: 4
GridSize: 8
TimelineZoom: 2

[Metadata]
Title:Los! Los! Los! - German ver.
TitleUnicode:「Los! Los! Los!」- German ver.
Artist:Selpius
ArtistUnicode:Selpius
Creator:doh000000000007
Version:Extra
Source:Youjo Senki
Tags:German, anime OP,
BeatmapID:1887984
BeatmapSetID:904493

[Difficulty]
HPDrainRate:5
CircleSize:5
OverallDifficulty:8
ApproachRate:9.5
SliderMultiplier:1.4
SliderTickRate:1

[Events]
//Background and Video events
0,0,"maxresdefault.jpg",0,0
Video,0,"Youjo SenkiLos! Los! Los!- German ver. Selphius.mp4"
//Break Periods
//Storyboard Layer 0 (Background)
//Storyboard Layer 1 (Fail)
//Storyboard Layer 2 (Pass)
//Storyboard Layer 3 (Foreground)
//Storyboard Sound Samples

[TimingPoints]
829,250,4,2,0,100,1,0
829,-66.6666666666667,4,2,0,60,0,0
16829,-50,4,2,0,60,0,0
29079,-100,4,2,0,60,0,0
33829,-66.6666666666667,4,2,0,60,0,0
34829,-100,4,2,0,60,0,0
35829,-66.6666666666667,4,2,0,60,0,0
40829,-133.333333333333,4,2,0,60,0,0
42829,-66.6666666666667,4,2,0,60,0,0
44829,-133.333333333333,4,2,0,60,0,0
54329,-66.6666666666667,4,2,0,60,0,0
54829,-40,4,2,0,60,0,0
62329,-50,4,2,0,60,0,0

[HitObjects]
261,253,829,5,0,0:0:0:0:
339,215,953,1,0,0:0:0:0:
333,153,1079,1,0,0:0:0:0:
250,129,1204,1,0,0:0:0:0:
170,167,1329,1,0,0:0:0:0:
176,230,1454,1,0,0:0:0:0:
260,244,1579,5,0,0:0:0:0:
323,158,1703,1,0,0:0:0:0:
327,211,1829,1,0,0:0:0:0:
251,137,1954,1,0,0:0:0:0:
185,224,2079,1,0,0:0:0:0:
180,170,2204,1,0,0:0:0:0:
347,210,2329,6,0,B|295:138|257:185|218:235|158:168,1,210.000008010865
305,318,2829,5,0,0:0:0:0:
379,325,2954,1,0,0:0:0:0:
454,332,3079,1,0,0:0:0:0:
461,256,3204,1,0,0:0:0:0:
468,182,3329,5,0,0:0:0:0:
468,182,3454,1,0,0:0:0:0:
461,256,3579,1,0,0:0:0:0:
454,332,3704,1,0,0:0:0:0:
379,325,3829,5,0,0:0:0:0:
379,325,3954,1,0,0:0:0:0:
454,332,4079,1,0,0:0:0:0:
461,256,4204,1,0,0:0:0:0:
468,182,4329,5,0,0:0:0:0:
468,182,4454,1,0,0:0:0:0:
461,256,4579,1,0,0:0:0:0:
454,332,4704,1,0,0:0:0:0:
388,245,4829,6,0,L|376:141,1,105.000004005432
266,197,5079,1,0,0:0:0:0:
254,94,5204,1,0,0:0:0:0:
125,41,5329,2,0,L|137:144,1,105.000004005432
364,37,5579,1,0,0:0:0:0:
375,140,5704,1,0,0:0:0:0:
399,347,5829,6,0,L|387:243,1,105.000004005432
277,300,6079,1,0,0:0:0:0:
265,196,6204,1,0,0:0:0:0:
254,94,6329,6,0,B|256:33|181:24|181:24|75:86,1,210.000008010865
247,196,6829,5,0,0:0:0:0:
235,300,6954,1,0,0:0:0:0:
125,243,7079,2,0,L|113:347,1,105.000004005432
137,140,7329,1,0,0:0:0:0:
148,37,7454,1,0,0:0:0:0:
374,145,7579,2,0,L|387:41,1,105.000004005432
258,94,7829,5,0,0:0:0:0:
246,197,7954,1,0,0:0:0:0:
136,141,8079,2,0,L|124:245,1,105.000004005432
258,94,8329,6,0,B|256:33|331:24|331:24|414:72,1,210.000008010865
113,37,8829,6,0,L|125:141,1,105.000004005432
235,84,9079,1,0,0:0:0:0:
247,188,9204,1,0,0:0:0:0:
387,343,9329,2,0,L|374:239,1,105.000004005432
148,347,9578,1,0,0:0:0:0:
137,244,9703,1,0,0:0:0:0:
124,139,9829,6,0,L|136:243,1,105.000004005432
246,187,10079,1,0,0:0:0:0:
258,290,10204,1,0,0:0:0:0:
258,290,10329,6,0,B|256:351|331:360|331:360|414:312,1,210.000008010865
253,304,10829,5,0,0:0:0:0:
267,186,10954,1,0,0:0:0:0:
394,250,11079,2,0,L|407:130,1,105.000004005432
392,251,11330,1,0,0:0:0:0:
380,370,11455,1,0,0:0:0:0:
120,246,11580,2,0,L|105:365,1,105.000004005432
266,187,11829,5,0,0:0:0:0:
280,67,11954,1,0,0:0:0:0:
406,133,12079,2,0,L|420:13,1,105.000004005432
412,139,12329,5,0,0:0:0:0:
412,139,12391,1,0,0:0:0:0:
412,139,12454,1,0,0:0:0:0:
412,139,12516,1,0,0:0:0:0:
412,139,12579,1,0,0:0:0:0:
353,148,12641,1,0,0:0:0:0:
310,189,12704,1,0,0:0:0:0:
295,247,12766,1,0,0:0:0:0:
148,333,12829,6,0,L|28:319,1,105.000004005432
100,327,13079,2,0,L|110:221,1,105.000004005432
56,219,13329,1,0,0:0:0:0:
159,230,13454,1,0,0:0:0:0:
105,223,13579,2,0,L|95:328,1,105.000004005432
98,42,13829,6,0,L|106:146,1,105.000004005432
52,149,14079,1,0,0:0:0:0:
156,142,14204,1,0,0:0:0:0:
112,148,14329,2,0,L|103:43,1,105.000004005432
150,40,14580,2,0,L|45:46,1,105.000004005432
231,187,14829,6,0,L|335:179,1,105.000004005432
337,234,15079,1,0,0:0:0:0:
330,130,15204,1,0,0:0:0:0:
234,241,15329,2,0,L|228:136,1,105.000004005432
235,192,15580,2,0,L|340:183,1,105.000004005432
222,136,15829,2,0,L|228:241,1,105.000004005432
330,130,16079,1,0,0:0:0:0:
337,234,16204,1,0,0:0:0:0:
148,333,16329,6,0,B|96:349|96:349|28:319,1,105.000004005432
98,42,16579,2,0,B|72:95|72:95|106:146,1,105.000004005432
249,92,16829,2,0,B|295:100|307:148|307:148|269:174|218:159|218:159|300:217,1,280
246,199,17204,2,0,B|335:263|335:263|316:220|322:176|322:176|356:207|395:219,1,280
392,170,17579,2,0,B|429:199|471:209|471:209|481:114|481:114|436:101|386:62,1,280
414,106,17954,2,0,B|363:150|287:146|287:146|335:207|413:201,1,280
171,302,18329,5,0,0:0:0:0:
155,158,18454,1,0,0:0:0:0:
308,78,18579,5,0,0:0:0:0:
324,222,18704,1,0,0:0:0:0:
102,328,18829,5,0,0:0:0:0:
87,188,18954,1,0,0:0:0:0:
72,49,19079,1,0,0:0:0:0:
200,103,19204,1,0,0:0:0:0:
329,157,19329,5,0,0:0:0:0:
455,211,19454,1,0,0:0:0:0:
339,290,19579,1,0,0:0:0:0:
224,368,19704,1,0,0:0:0:0:
209,228,19829,5,0,0:0:0:0:
194,89,19954,1,0,0:0:0:0:
319,31,20079,1,0,0:0:0:0:
339,169,20204,1,0,0:0:0:0:
358,308,20329,5,0,0:0:0:0:
470,225,20454,1,0,0:0:0:0:
344,171,20579,1,0,0:0:0:0:
214,118,20704,1,0,0:0:0:0:
85,65,20829,1,0,0:0:0:0:
214,118,21079,5,0,0:0:0:0:
344,171,21329,1,0,0:0:0:0:
470,225,21579,5,0,0:0:0:0:
358,308,21829,1,0,0:0:0:0:
339,169,22079,5,0,0:0:0:0:
319,31,22329,1,0,0:0:0:0:
194,89,22579,1,0,0:0:0:0:
209,228,22829,1,0,0:0:0:0:
224,368,22954,2,0,L|87:292,2,140
209,156,23329,1,0,0:0:0:0:
224,16,23454,2,0,L|87:92,2,140
303,156,23829,5,0,0:0:0:0:
473,29,23954,1,0,0:0:0:0:
473,29,24079,1,0,0:0:0:0:
298,159,24204,1,0,0:0:0:0:
120,302,24329,1,0,0:0:0:0:
298,159,24454,1,0,0:0:0:0:
120,302,24579,2,0,P|227:297|331:148,1,280
99,201,25079,6,0,B|177:207|225:146|225:146|149:150|98:106,1,280
115,69,25453,2,0,B|76:101|31:114|31:114|41:209|41:209|83:199|120:170,1,280
120,217,25829,2,0,B|156:207|190:176|190:176|196:220|177:263|177:263|266:199,1,280
212,217,26204,2,0,B|294:159|294:159|243:174|205:148|205:148|217:100|263:92,1,280
483,29,26579,1,0,0:0:0:0:
91,301,26829,5,0,0:0:0:0:
91,301,26954,1,0,0:0:0:0:
91,301,27079,2,0,B|120:329|155:320|155:320|167:287|148:249,1,140
421,301,27329,1,0,0:0:0:0:
421,301,27454,2,0,B|391:329|356:320|356:320|344:287|363:249,1,140
421,83,27704,1,0,0:0:0:0:
417,144,27829,6,0,B|264:158|195:82|195:82|305:116|420:82|420:82|287:81|193:28,1,700
421,83,28579,2,0,B|391:54|356:63|356:63|344:96|363:134,1,140
195,30,28829,1,0,0:0:0:0:
195,30,28954,1,0,0:0:0:0:
195,30,29079,6,0,B|224:1|259:10|271:43|252:81,1,70
191,95,29329,1,0,0:0:0:0:
191,95,29454,2,0,B|220:66|255:75|267:108|248:146,1,70
187,160,29704,1,0,0:0:0:0:
187,160,29829,2,0,B|216:131|251:140|263:173|244:211,2,70
179,221,30204,2,0,B|208:192|243:201|255:234|236:272,2,70
176,283,30579,2,0,B|205:254|240:263|252:296|233:334,1,70
137,88,30829,6,0,L|210:71,1,70
292,346,31079,2,0,L|222:317,1,70
318,47,31329,2,0,L|356:111,1,70
121,273,31579,2,0,L|127:197,1,70
413,205,31829,2,0,L|365:262,1,70
214,123,32079,1,0,0:0:0:0:
195,337,32204,2,0,L|268:321,1,70
116,139,32454,5,0,0:0:0:0:
209,50,32578,1,0,0:0:0:0:
337,67,32704,1,0,0:0:0:0:
404,178,32829,2,0,L|418:258,1,70
337,67,33079,2,0,L|351:147,1,70
209,50,33329,2,0,L|223:130,1,70
116,139,33579,2,0,L|130:219,1,70
270,27,33829,6,0,B|311:68|311:68|335:62|327:90|327:90|356:90|345:110|345:110|372:111|363:134|363:134|434:178|394:307|305:332,1,420.000016021729
210,137,34454,1,0,0:0:0:0:
300,246,34579,1,0,0:0:0:0:
210,137,34704,1,0,0:0:0:0:
242,340,34829,2,0,L|322:354,1,70
131,273,35079,2,0,L|211:287,1,70
114,145,35329,2,0,L|194:159,1,70
203,52,35579,2,0,L|283:66,1,70
91,206,35829,6,0,B|132:247|132:247|126:271|154:263|154:263|154:292|174:281|174:281|175:308|198:299|198:299|242:370|371:330|396:241,1,420.000016021729
237,88,36454,1,0,0:0:0:0:
275,88,36516,1,0,0:0:0:0:
256,88,36579,1,0,0:0:0:0:
145,87,36704,1,0,0:0:0:0:
367,87,36829,6,0,L|381:200,1,105.000004005432
403,334,37079,1,0,0:0:0:0:
302,47,37329,1,0,0:0:0:0:
133,102,37453,1,0,0:0:0:0:
133,281,37579,2,0,L|243:205,1,105.000004005432
367,297,37829,6,0,L|381:184,1,105.000004005432
403,50,38079,1,0,0:0:0:0:
145,297,38204,6,0,L|131:184,1,105.000004005432
109,50,38454,1,0,0:0:0:0:
145,87,38579,6,0,L|131:200,1,105.000004005432
109,334,38829,2,0,P|188:243|270:263,1,210.000008010865
302,47,39329,5,0,0:0:0:0:
133,102,39453,1,0,0:0:0:0:
219,221,39579,2,0,L|133:281,1,105.000004005432
442,312,39829,5,0,0:0:0:0:
308,342,39953,1,0,0:0:0:0:
202,257,40079,1,0,0:0:0:0:
202,120,40204,1,0,0:0:0:0:
308,35,40329,1,0,0:0:0:0:
442,66,40453,1,0,0:0:0:0:
473,126,40516,1,0,0:0:0:0:
501,189,40579,1,0,0:0:0:0:
442,312,40704,1,0,0:0:0:0:
177,279,40829,6,0,P|164:231|174:210,1,52.5000020027161
364,147,41079,2,0,P|355:196|336:211,1,52.5000020027161
138,184,41329,2,0,P|168:144|191:139,1,52.5000020027161
357,250,41579,2,0,P|313:273|290:267,1,52.5000020027161
189,95,41829,2,0,P|239:93|258:108,1,52.5000020027161
273,308,42079,2,0,P|227:287|217:265,1,52.5000020027161
291,80,42329,2,0,P|323:115|314:124,1,52.5000020027161
174,276,42579,2,0,P|163:228|174:207,1,52.5000020027161
377,56,42829,6,0,P|399:102|389:153,1,105.000004005432
87,261,43080,2,0,P|87:209|119:168,1,105.000004005432
437,203,43330,2,0,P|414:249|368:273,1,105.000004005432
97,101,43580,2,0,P|138:70|190:69,1,105.000004005432
358,342,43830,2,0,P|308:352|261:330,1,105.000004005432
229,11,44079,2,0,P|279:24|311:64,1,105.000004005432
200,365,44331,1,0,0:0:0:0:
152,360,44393,1,0,0:0:0:0:
146,311,44456,1,0,0:0:0:0:
381,60,44580,2,0,P|402:107|390:157,1,105.000004005432
137,164,44829,5,0,0:0:0:0:
342,178,44954,1,0,0:0:0:0:
181,230,45079,1,0,0:0:0:0:
299,248,45204,1,0,0:0:0:0:
237,281,45329,1,0,0:0:0:0:
245,300,45454,1,0,0:0:0:0:
303,311,45579,1,0,0:0:0:0:
181,334,45704,1,0,0:0:0:0:
373,164,45829,5,0,0:0:0:0:
149,220,45954,1,0,0:0:0:0:
329,230,46079,1,0,0:0:0:0:
208,268,46204,1,0,0:0:0:0:
272,281,46329,1,0,0:0:0:0:
274,294,46454,1,0,0:0:0:0:
207,311,46579,1,0,0:0:0:0:
342,298,46704,1,0,0:0:0:0:
170,263,46829,6,0,L|229:222,1,52.5000020027161
184,106,47079,2,0,L|226:165,1,52.5000020027161
341,120,47329,1,0,0:0:0:0:
298,150,47454,1,0,0:0:0:0:
327,277,47579,1,0,0:0:0:0:
297,234,47704,1,0,0:0:0:0:
170,120,47829,6,0,L|229:162,1,52.5000020027161
184,277,48079,1,0,0:0:0:0:
341,263,48204,2,0,L|283:222,1,52.5000020027161
298,233,48454,1,0,0:0:0:0:
327,106,48579,2,0,L|286:165,1,52.5000020027161
64,23,48829,1,0,0:0:0:0:
303,91,49079,6,0,L|277:158,1,52.5000020027161
26,78,49329,1,0,0:0:0:0:
275,82,49579,6,0,L|268:153,1,52.5000020027161
5,141,49829,1,0,0:0:0:0:
45,227,49954,1,0,0:0:0:0:
137,205,50079,1,0,0:0:0:0:
175,291,50204,1,0,0:0:0:0:
314,244,50329,1,0,0:0:0:0:
275,82,50579,2,0,L|268:153,1,52.5000020027161
5,141,50829,5,0,0:0:0:0:
246,81,51079,2,0,L|258:151,1,52.5000020027161
0,208,51329,5,0,0:0:0:0:
217,87,51579,2,0,L|247:152,1,52.5000020027161
13,273,51829,5,0,0:0:0:0:
192,100,52079,2,0,L|237:156,1,52.5000020027161
43,333,52329,5,0,0:0:0:0:
170,120,52579,2,0,L|229:162,1,52.5000020027161
87,384,52829,2,0,P|221:337|456:178,1,420.000016021729
394,192,54329,6,0,B|381:164|365:143|365:143|354:171|337:187|337:187|327:157|308:143|308:143|301:165|286:192|286:192|274:163|260:149|260:149|248:179|229:196,1,315.000012016297
214,183,54829,6,0,L|388:170,1,175
391,262,55079,1,0,0:0:0:0:
380,87,55204,1,0,0:0:0:0:
219,274,55329,2,0,L|209:98,1,175
220,192,55580,2,0,L|396:176,1,175
314,98,55829,2,0,L|303:274,1,175
132,87,56079,1,0,0:0:0:0:
121,262,56204,1,0,0:0:0:0:
121,262,56329,5,0,0:0:0:0:
132,87,56454,1,0,0:0:0:0:
124,170,56579,2,0,L|298:183,1,175
214,201,56829,6,0,L|388:214,1,175
391,122,57079,1,0,0:0:0:0:
380,297,57204,1,0,0:0:0:0:
298,201,57329,6,0,L|124:214,1,175
132,297,57579,1,0,0:0:0:0:
121,122,57704,1,0,0:0:0:0:
265,150,57829,6,0,L|278:324,1,175
437,51,58079,1,0,0:0:0:0:
352,101,58204,1,0,0:0:0:0:
388,214,58329,6,0,P|311:189|214:201,1,175
124,214,58579,2,0,P|208:232|298:201,1,175
248,119,58829,2,0,L|261:293,3,175
315,267,59329,2,0,L|302:93,1,175
368,233,59579,2,0,L|355:59,1,175
421,199,59829,2,0,L|408:25,1,175
210,291,60079,1,0,0:0:0:0:
196,116,60204,1,0,0:0:0:0:
171,82,60329,5,0,0:0:0:0:
155,226,60454,1,0,0:0:0:0:
308,306,60579,5,0,0:0:0:0:
324,162,60704,1,0,0:0:0:0:
102,56,60829,5,0,0:0:0:0:
87,196,60954,1,0,0:0:0:0:
72,335,61079,1,0,0:0:0:0:
200,281,61204,1,0,0:0:0:0:
329,227,61329,5,0,0:0:0:0:
455,173,61454,1,0,0:0:0:0:
339,94,61579,1,0,0:0:0:0:
224,16,61704,1,0,0:0:0:0:
206,160,61829,5,0,0:0:0:0:
244,181,61891,1,0,0:0:0:0:
282,202,61954,1,0,0:0:0:0:
320,224,62016,1,0,0:0:0:0:
358,245,62079,1,0,0:0:0:0:
396,267,62141,1,0,0:0:0:0:
434,288,62204,1,0,0:0:0:0:
472,310,62266,1,0,0:0:0:0:
509,331,62329,6,0,B|504:357|489:370|489:370|460:334|460:334|451:357|435:369|435:369|360:360|306:266,1,280
160,283,62829,5,0,0:0:0:0:
75,333,62954,1,0,0:0:0:0:
234,60,63048,2,0,L|247:234,1,175
391,262,63329,1,0,0:0:0:0:
380,87,63454,1,0,0:0:0:0:
388,170,63548,2,0,L|214:183,1,175
132,87,63829,1,0,0:0:0:0:
121,262,63954,1,0,0:0:0:0:
124,170,64048,6,0,L|298:183,1,175
214,201,64298,2,0,L|388:214,1,175
380,297,64579,1,0,0:0:0:0:
391,122,64704,5,0,0:0:0:0:
391,122,64829,1,0,0:0:0:0:
380,297,64954,1,0,0:0:0:0:
208,111,65048,6,0,L|198:286,1,175
117,207,65297,2,0,L|292:192,1,175
302,284,65548,2,0,L|293:110,1,175
132,297,65829,5,0,0:0:0:0:
121,122,65954,1,0,0:0:0:0:
124,214,66048,2,0,L|298:201,1,175
