osu file format v14

[General]
AudioFilename: audio.mp3
AudioLeadIn: 0
PreviewTime: 62392
Countdown: 1
SampleSet: Soft
StackLeniency: 0.5
Mode: 0
LetterboxInBreaks: 0
WidescreenStoryboard: 1

[Editor]
Bookmarks: 28170,40614,54837,62047,88614,101059,118837,131281,143726,157948,184726,209614
DistanceSpacing: 0.6
BeatDivisor: 4
GridSize: 4
TimelineZoom: 1.7

[Metadata]
Title:unravel [German FanCover]
TitleUnicode:unravel [German FanCover]
Artist:SelphiusMelody
ArtistUnicode:SelphiusMelody
Creator:pudingkokoro
Version:Insane
Source:SelphiusMelody
Tags:selphius tokyo ghoul
BeatmapID:1437117
BeatmapSetID:679134

[Difficulty]
HPDrainRate:6
CircleSize:4
OverallDifficulty:6
ApproachRate:8
SliderMultiplier:1.1
SliderTickRate:1

[Events]
//Background and Video events
0,0,"697628.jpg",0,0
Video,0,"unravel [German FanCover].avi"
//Break Periods
2,119036,130531
//Storyboard Layer 0 (Background)
//Storyboard Layer 1 (Fail)
//Storyboard Layer 2 (Pass)
//Storyboard Layer 3 (Foreground)
//Storyboard Sound Samples

[TimingPoints]
8615,444.444444444444,4,2,0,40,1,0
29948,-50,4,3,0,40,0,0
33059,-100,4,1,0,30,0,0
33503,-50,4,1,0,30,0,0
40614,-100,4,3,0,40,0,0
42392,-100,4,2,0,40,0,0
56614,-66.6666666666667,4,3,0,40,0,0
61948,-80,4,1,0,30,0,1
77948,-66.6666666666667,4,1,0,30,0,1
86837,-80,4,3,0,40,0,1
88614,-100,4,2,0,40,0,0
101059,-66.6666666666667,4,2,0,40,0,0
101170,-66.6666666666667,4,3,0,40,0,0
109726,-66.6666666666667,4,3,0,40,0,0
110614,-66.6666666666667,4,3,0,45,0,0
111503,-66.6666666666667,4,3,0,50,0,0
112392,-66.6666666666667,4,3,0,55,0,0
113281,-66.6666666666667,4,3,0,60,0,0
114170,-66.6666666666667,4,3,0,65,0,0
118948,-66.6666666666667,4,2,0,40,0,0
138392,-100,4,3,0,40,0,0
143726,-66.6666666666667,4,1,0,30,0,0
145503,-66.6666666666667,4,2,0,40,0,0
152170,-100,4,2,0,40,0,0
152614,-66.6666666666667,4,1,0,30,0,0
152614,-66.6666666666667,4,3,0,40,0,0
157948,-50,4,1,0,30,0,1
158614,-66.6666666666667,4,1,0,30,0,1
159726,-80,4,1,0,30,0,1
173948,-66.6666666666667,4,1,0,30,0,1
182837,-80,4,3,0,40,0,1
184726,-80,4,3,0,40,0,0
198837,-66.6666666666667,4,1,0,30,0,0
200614,-80,4,1,0,30,0,0
201059,-66.6666666666667,4,1,0,30,0,0
202392,-80,4,1,0,30,0,0
202837,-66.6666666666667,4,1,0,30,0,0
204170,-80,4,1,0,30,0,0
204614,-66.6666666666667,4,1,0,30,0,0
207726,-80,4,3,0,30,0,0
209614,-100,4,2,0,40,0,0
214837,-80,4,2,0,40,0,0
226948,-80,4,2,0,25,0,0

[Colours]
Combo1 : 255,128,128
Combo2 : 0,0,0
Combo3 : 255,0,0
Combo4 : 242,24,57

[HitObjects]
152,128,1059,6,0,P|253:97|291:132,1,165
392,152,1948,1,0,0:0:0:0:
396,184,2170,2,0,P|404:280|284:280,1,220
192,248,3615,6,0,L|152:192,1,55
80,252,4059,2,0,L|44:200,1,55
72,64,4726,2,0,L|144:28,1,55
292,80,5726,5,0,0:0:0:0:
176,104,5948,2,0,P|200:160|240:188,1,110
332,208,6615,1,0,0:0:0:0:
456,320,8392,1,0,0:0:0:0:
428,340,8614,6,0,P|348:316|348:260,1,110,2|0,0:0|0:0,0:0:0:0:
336,280,9170,1,0,0:0:0:0:
336,260,9281,1,0,0:0:0:0:
336,240,9392,1,0,0:0:0:0:
280,128,9726,1,0,0:0:0:0:
264,100,9948,2,0,P|224:68|184:72,1,82.5
176,76,10392,5,2,0:0:0:0:
160,88,10503,1,0,0:0:0:0:
148,104,10614,1,0,0:0:0:0:
144,120,10726,1,0,0:0:0:0:
84,176,10948,1,0,0:0:0:0:
96,192,11059,1,0,0:0:0:0:
108,208,11170,1,0,0:0:0:0:
284,316,11726,2,0,L|356:324,1,55
376,316,12170,6,0,P|328:268|344:228,1,110,2|0,0:0|0:0,0:0:0:0:
352,220,12726,1,0,0:0:0:0:
368,208,12837,1,0,0:0:0:0:
388,204,12948,1,0,0:0:0:0:
403,81,13281,1,0,0:0:0:0:
368,61,13503,2,0,P|317:66|291:97,1,82.5
288,106,13948,5,2,0:0:0:0:
284,126,14059,1,0,0:0:0:0:
280,146,14170,1,0,0:0:0:0:
276,166,14281,1,0,0:0:0:0:
205,208,14503,1,0,0:0:0:0:
185,207,14614,1,0,0:0:0:0:
165,206,14726,1,0,0:0:0:0:
153,83,15059,1,0,0:0:0:0:
118,77,15281,2,0,L|70:125,1,55
20,174,15726,5,2,0:0:0:0:
25,256,15948,1,0,0:0:0:0:
36,273,16059,1,0,0:0:0:0:
52,285,16170,1,0,0:0:0:0:
69,295,16281,1,0,0:0:0:0:
88,300,16392,1,0,0:0:0:0:
107,305,16503,2,0,L|141:310,1,27.5
234,362,16837,6,0,L|210:298,1,55
205,293,17170,1,0,0:0:0:0:
203,273,17281,1,0,0:0:0:0:
208,254,17392,1,0,0:0:0:0:
218,237,17503,6,0,L|178:181,1,55,2|0,0:0|0:0,0:0:0:0:
172,177,17837,1,0,0:0:0:0:
204,101,18059,1,0,0:0:0:0:
223,94,18170,1,0,0:0:0:0:
243,87,18281,1,0,0:0:0:0:
322,182,18614,1,0,0:0:0:0:
397,217,18837,2,0,L|334:262,1,55
287,299,19281,5,2,0:0:0:0:
209,325,19503,1,0,0:0:0:0:
189,328,19614,1,0,0:0:0:0:
169,327,19726,1,0,0:0:0:0:
149,323,19837,1,0,0:0:0:0:
152,303,19948,2,0,L|152:264,1,27.5
142,258,20170,6,0,L|198:234,1,55
144,170,20614,1,0,0:0:0:0:
127,159,20726,1,0,0:0:0:0:
116,142,20837,1,0,0:0:0:0:
110,123,20948,1,0,0:0:0:0:
130,124,21059,6,0,L|199:125,1,55,2|0,0:0|0:0,0:0:0:0:
205,126,21392,1,0,0:0:0:0:
280,92,21614,1,0,0:0:0:0:
291,109,21726,1,0,0:0:0:0:
304,124,21837,1,0,0:0:0:0:
426,102,22170,1,0,0:0:0:0:
452,180,22392,2,0,L|428:239,1,55
399,307,22837,5,2,0:0:0:0:
319,327,23059,1,0,0:0:0:0:
299,327,23170,1,0,0:0:0:0:
279,323,23281,1,0,0:0:0:0:
285,241,23503,1,0,0:0:0:0:
308,218,23614,6,0,P|341:184|308:161,1,82.5
354,43,24281,1,0,0:0:0:0:
339,56,24392,1,0,0:0:0:0:
321,64,24503,1,0,0:0:0:0:
301,68,24614,6,0,L|229:52,1,55,2|0,0:0|0:0,0:0:0:0:
227,52,24948,1,0,0:0:0:0:
150,81,25170,1,0,0:0:0:0:
158,99,25281,1,0,0:0:0:0:
160,119,25392,1,0,0:0:0:0:
83,216,25726,1,0,0:0:0:0:
134,281,25948,2,0,L|194:241,1,55
250,207,26392,5,2,0:0:0:0:
283,102,26614,2,0,L|297:58,3,27.5
346,67,27059,2,0,L|350:117,3,27.5
403,95,27503,2,0,L|394:131,3,27.5
385,176,27948,1,0,0:0:0:0:
375,230,28059,1,0,0:0:0:0:
361,283,28170,2,0,L|292:306,1,55,4|0,0:0|0:0,0:0:0:0:
256,316,28503,2,0,L|224:292,1,27.5
191,264,28726,2,0,L|191:214,2,27.5
194,318,29059,5,4,0:0:0:0:
84,318,29281,2,0,L|76:270,1,27.5
75,263,29503,1,8,0:0:0:0:
71,235,29614,1,8,0:0:0:0:
71,207,29726,1,8,0:0:0:0:
73,179,29837,1,8,0:0:0:0:
80,146,29948,2,0,L|136:106,1,55,8|0,0:0|0:0,0:0:0:0:
235,42,30281,1,0,0:0:0:0:
420,111,30614,6,0,L|340:151,1,55
312,167,30837,1,0,0:0:0:0:
259,206,30948,1,0,0:0:0:0:
224,262,31059,2,0,P|223:284|190:284,1,55
164,232,31281,2,0,P|108:200|172:176,1,165
183,109,31726,5,8,0:0:0:0:
183,109,31837,1,0,0:0:0:0:
301,51,32059,1,0,0:0:0:0:
369,163,32281,1,0,0:0:0:0:
369,163,32392,1,0,0:0:0:0:
450,266,32614,5,0,0:0:0:0:
417,303,32726,1,0,0:0:0:0:
369,330,32837,1,0,0:0:0:0:
310,344,32948,1,0,0:0:0:0:
247,324,33059,2,0,L|199:265,1,55,4|0,0:0|0:0,0:0:0:0:
120,186,33503,6,0,P|70:156|111:125,1,110,4|0,0:0|0:0,0:0:0:0:
160,135,33836,1,0,0:0:0:0:
199,79,33948,2,0,P|247:108|207:139,1,110
233,204,34281,1,0,0:0:0:0:
233,204,34392,1,0,0:0:0:0:
233,204,34503,2,0,L|233:260,1,55
305,340,34837,2,0,L|305:228,1,110
305,168,35170,1,0,0:0:0:0:
297,102,35281,6,0,P|313:46|353:78,1,110,4|0,0:0|0:0,0:0:0:0:
357,126,35614,1,0,0:0:0:0:
421,150,35726,2,0,P|405:206|365:174,1,110
307,224,36059,1,0,0:0:0:0:
307,224,36170,1,0,0:0:0:0:
307,224,36281,2,0,P|279:240|247:232,1,55
215,224,36503,1,0,0:0:0:0:
367,272,36614,2,0,P|283:312|219:300,1,110
167,284,36948,1,0,0:0:0:0:
128,337,37059,6,0,P|77:365|71:314,1,110,4|0,0:0|0:0,0:0:0:0:
102,277,37392,1,0,0:0:0:0:
74,215,37504,2,0,P|124:186|130:237,1,110
205,220,37837,1,0,0:0:0:0:
205,220,37948,1,0,0:0:0:0:
205,220,38059,2,0,L|205:164,1,55
277,84,38393,2,0,L|277:196,1,110
277,256,38726,1,0,0:0:0:0:
285,321,38837,6,0,P|314:370|345:329,1,110,4|0,0:0|0:0,0:0:0:0:
338,283,39170,1,0,0:0:0:0:
393,243,39282,2,0,P|363:193|332:234,1,110
267,192,39614,1,0,0:0:0:0:
267,192,39726,1,0,0:0:0:0:
267,192,39837,2,0,P|236:181|206:194,1,55
180,208,40059,1,0,0:0:0:0:
317,134,40170,2,0,P|227:109|159:137,1,165
119,183,40614,6,0,L|80:234,1,55,2|0,0:0|0:0,0:0:0:0:
74,292,40948,2,0,L|150:292,1,55
194,292,41281,1,0,0:0:0:0:
310,353,41503,6,0,L|286:293,1,55
323,244,41837,2,0,L|351:312,1,55
372,354,42170,1,0,0:0:0:0:
423,232,42392,6,0,P|420:177|398:127,1,110,2|0,0:0|0:0,0:0:0:0:
327,15,43059,1,0,0:0:0:0:
114,349,43726,2,0,L|114:269,1,55
231,233,44170,6,0,P|228:178|206:128,1,110,2|0,0:0|0:0,0:0:0:0:
133,17,44837,1,0,0:0:0:0:
450,352,45614,2,0,L|449:288,1,55
417,238,45948,6,0,P|382:195|365:143,1,110,2|0,0:0|0:0,0:0:0:0:
372,11,46614,2,0,P|413:14|484:0,2,110
124,105,47726,6,0,P|99:154|93:208,1,110,2|0,0:0|0:0,0:0:0:0:
123,337,48393,1,0,0:0:0:0:
376,32,49059,2,0,L|376:100,1,55
350,216,49503,6,0,P|296:204|242:212,1,110,2|0,0:0|0:0,0:0:0:0:
120,265,50170,1,0,0:0:0:0:
436,359,50726,6,0,P|433:304|411:254,1,110
346,238,51281,6,0,P|321:188|315:134,1,110,2|0,0:0|0:0,0:0:0:0:
332,0,51948,1,0,0:0:0:0:
85,94,52392,2,0,L|145:94,1,55
398,38,53059,6,0,P|409:91|401:145,1,110,2|0,0:0|0:0,0:0:0:0:
342,264,53726,2,0,P|330:317|338:371,1,110
210,340,54392,2,0,L|210:276,1,55
259,162,54837,6,0,P|217:125|167:105,1,110,2|0,0:0|0:0,0:0:0:0:
52,41,55503,6,0,P|145:32|223:49,1,165
244,60,56281,2,0,L|230:124,1,55
225,162,56614,6,0,P|265:202|305:202,1,82.5000031471254,2|0,0:0|0:0,0:0:0:0:
337,197,56948,1,0,0:0:0:0:
379,171,57059,1,0,0:0:0:0:
379,72,57281,1,0,0:0:0:0:
470,108,57503,2,0,P|493:163|487:185,1,82.5000031471254
466,227,57837,1,0,0:0:0:0:
428,259,57948,1,0,0:0:0:0:
428,357,58170,1,0,0:0:0:0:
343,306,58392,6,0,P|287:282|265:288,1,82.5000031471254,2|0,0:0|0:0,0:0:0:0:
226,315,58726,1,0,0:0:0:0:
193,352,58837,1,0,0:0:0:0:
193,253,59059,1,0,0:0:0:0:
109,305,59281,2,0,P|85:249|114:195,1,123.750004720688
157,172,59726,1,0,0:0:0:0:
88,100,59948,1,0,0:0:0:0:
183,73,60170,6,0,P|243:65|262:76,1,82.5000031471254,2|0,0:0|0:0,0:0:0:0:
296,108,60504,1,0,0:0:0:0:
320,150,60615,1,0,0:0:0:0:
320,248,60837,1,0,0:0:0:0:
318,346,61059,2,0,P|378:338|410:286,1,123.750004720688
409,237,61504,1,0,0:0:0:0:
416,138,61726,1,0,0:0:0:0:
416,138,61837,1,0,0:0:0:0:
416,138,61948,5,4,0:0:0:0:
218,196,62503,2,0,P|166:165|155:136,1,68.75
152,120,62837,5,0,0:0:0:0:
139,80,62948,1,0,0:0:0:0:
103,58,63059,1,0,0:0:0:0:
63,68,63170,1,0,0:0:0:0:
36,99,63281,6,0,P|20:156|33:185,1,68.75
57,238,63726,1,4,0:0:0:0:
134,334,63948,6,0,P|206:288|259:309,1,137.5
197,338,64614,2,0,L|174:257,1,68.75
136,155,65059,1,0,0:0:0:0:
217,62,65281,1,0,0:0:0:0:
254,44,65392,1,0,0:0:0:0:
294,39,65503,6,0,P|342:41|367:50,1,68.75,4|0,0:0|0:0,0:0:0:0:
398,66,65837,1,0,0:0:0:0:
423,249,66170,2,0,P|383:316|307:336,2,137.5
302,219,67281,6,0,P|254:203|214:203,1,68.75,4|0,0:0|0:0,0:0:0:0:
195,208,67614,1,0,0:0:0:0:
56,331,67948,1,0,0:0:0:0:
69,208,68170,1,0,0:0:0:0:
69,208,68392,1,0,0:0:0:0:
82,169,68503,1,0,0:0:0:0:
107,136,68614,2,0,P|116:88|115:62,1,68.75
180,181,69059,6,0,P|203:82|189:20,2,137.5,4|0|0,0:0|0:0|0:0,0:0:0:0:
160,303,70170,1,0,0:0:0:0:
194,325,70281,1,0,0:0:0:0:
233,335,70392,2,0,P|281:332|306:323,1,68.75
294,160,70837,5,0,0:0:0:0:
475,41,71226,1,0,0:0:0:0:
435,190,71503,2,0,P|398:272|355:303,2,137.5
310,186,72614,6,0,P|276:127|214:100,1,137.5,4|0,0:0|0:0,0:0:0:0:
107,162,73281,1,0,0:0:0:0:
138,281,73503,1,0,0:0:0:0:
138,281,73614,1,0,0:0:0:0:
138,281,73726,2,0,L|168:234,1,34.375
238,299,73948,1,0,0:0:0:0:
238,299,74059,1,0,0:0:0:0:
238,299,74170,2,0,L|260:335,1,34.375
337,337,74392,6,0,P|395:303|422:241,1,137.5,4|0,0:0|0:0,0:0:0:0:
282,37,75281,1,0,0:0:0:0:
171,92,75503,1,0,0:0:0:0:
205,114,75614,1,0,0:0:0:0:
225,150,75726,1,0,0:0:0:0:
227,191,75837,1,0,0:0:0:0:
220,231,75948,2,0,P|152:295|95:292,1,137.5
140,219,76614,1,0,0:0:0:0:
225,150,76837,2,0,P|313:133|363:149,2,137.5
262,345,77948,6,0,L|345:271,1,82.5000031471254,4|0,0:0|0:0,0:0:0:0:
380,153,78392,1,0,0:0:0:0:
289,35,78614,2,0,L|290:128,1,82.5000031471254
245,259,79059,1,0,0:0:0:0:
98,280,79281,1,0,0:0:0:0:
60,247,79392,1,0,0:0:0:0:
53,197,79503,1,0,0:0:0:0:
75,153,79614,1,0,0:0:0:0:
119,131,79725,6,0,P|165:131|200:152,1,82.5000031471254,4|0,0:0|0:0,0:0:0:0:
138,229,80170,1,0,0:0:0:0:
119,131,80392,2,0,L|184:66,1,82.5000031471254
324,46,80837,1,0,0:0:0:0:
447,127,81059,1,0,0:0:0:0:
477,165,81170,1,0,0:0:0:0:
480,214,81281,1,0,0:0:0:0:
457,257,81392,1,0,0:0:0:0:
421,291,81503,6,0,P|375:302|336:290,1,82.5000031471254,4|0,0:0|0:0,0:0:0:0:
376,200,81948,1,0,0:0:0:0:
447,127,82170,2,0,L|363:76,1,82.5000031471254
228,99,82614,1,0,0:0:0:0:
152,227,82837,1,0,0:0:0:0:
135,273,82948,1,0,0:0:0:0:
152,319,83059,1,0,0:0:0:0:
194,344,83170,1,0,0:0:0:0:
242,351,83281,6,0,P|282:327|302:290,1,82.5000031471254,4|0,0:0|0:0,0:0:0:0:
208,258,83726,1,0,0:0:0:0:
287,199,83948,2,0,P|319:135|355:139,1,82.5000031471254
414,103,84392,1,0,0:0:0:0:
453,73,84503,1,0,0:0:0:0:
442,24,84614,1,0,0:0:0:0:
392,17,84725,1,0,0:0:0:0:
347,39,84837,1,0,0:0:0:0:
301,58,84948,1,0,0:0:0:0:
251,63,85059,6,0,P|187:31|191:-5,2,82.5000031471254,4|0|0,0:0|0:0|0:0,0:0:0:0:
183,195,85726,1,0,0:0:0:0:
98,73,85948,2,0,P|18:145|18:229,1,165.000006294251
18,246,86503,1,0,0:0:0:0:
38,291,86614,1,0,0:0:0:0:
76,323,86726,1,0,0:0:0:0:
115,334,86837,6,0,P|151:306|163:282,1,68.75,2|0,0:0|0:0,0:0:0:0:
217,225,87281,2,0,P|266:178|308:179,1,103.125
338,189,87726,1,0,0:0:0:0:
301,262,87948,2,0,P|317:298|349:318,1,68.75
422,307,88392,6,0,L|422:231,1,68.75
85,89,89837,6,0,L|149:57,2,55
79,154,90392,6,0,B|87:182|87:182|111:194|135:182|135:182|143:150,1,110,2|0,0:0|0:0,0:0:0:0:
326,78,91281,2,0,L|418:108,2,82.5
296,172,92170,6,0,B|336:152|356:202|328:206|328:206|367:228|360:274|360:274|339:300|296:273,1,220,2|0,0:0|0:0,0:0:0:0:
165,230,93392,2,0,P|121:254|113:274,1,55
172,298,93726,2,0,L|172:374,1,55
425,48,94837,2,0,L|424:97,1,27.5
425,124,95059,1,0,0:0:0:0:
346,184,95281,2,0,L|347:108,1,55
346,228,95726,5,2,0:0:0:0:
256,346,96059,2,0,L|259:302,1,27.5
262,269,96281,1,0,0:0:0:0:
265,219,96392,2,0,L|205:205,1,55
63,190,96948,6,0,P|74:147|98:139,1,55
125,122,97281,2,0,L|169:113,1,27.5
201,111,97503,5,2,0:0:0:0:
403,270,98392,2,0,L|404:357,2,82.5
461,189,99281,6,0,B|503:174|482:125|459:142|459:142|471:99|434:71|434:71|400:68|389:117,1,220,2|0,0:0|0:0,0:0:0:0:
253,53,100503,2,0,P|301:73|309:93,1,55
254,120,100837,2,0,L|254:168,1,27.5
254,246,101059,5,2,0:0:0:0:
139,324,102059,2,0,L|127:368,2,41.2500015735627
75,286,102392,2,0,L|43:315,3,41.2500015735627
117,245,102837,6,0,L|57:170,2,82.5000031471254,2|0|0,0:0|0:0|0:0,0:0:0:0:
212,327,103503,2,0,L|225:368,2,41.2500015735627
168,184,103948,1,0,0:0:0:0:
168,184,104059,1,0,0:0:0:0:
168,184,104170,2,0,L|256:216,1,82.5000031471254
388,253,104614,5,2,0:0:0:0:
358,106,104837,1,0,0:0:0:0:
358,106,104948,1,0,0:0:0:0:
358,106,105059,2,0,P|320:72|281:85,1,82.5000031471254
182,177,105503,1,0,0:0:0:0:
50,107,105726,1,0,0:0:0:0:
50,107,105837,1,0,0:0:0:0:
128,315,106170,1,0,0:0:0:0:
32,289,106392,6,0,P|88:225|192:241,1,165.000006294251,2|0,0:0|0:0,0:0:0:0:
256,257,107059,2,0,L|256:81,2,165.000006294251
355,253,108170,6,0,P|309:343|253:354,1,165.000006294251,2|0,0:0|0:0,0:0:0:0:
256,257,108837,1,0,0:0:0:0:
161,285,109059,2,0,L|243:285,2,82.5000031471254
48,269,109726,1,0,0:0:0:0:
48,352,109948,6,0,L|48:240,1,82.5000031471254,2|0,0:0|0:0,0:0:0:0:
48,224,110281,1,0,0:0:0:0:
48,176,110392,1,0,0:0:0:0:
48,264,110614,1,0,0:0:0:0:
48,352,110837,6,0,L|160:352,1,82.5000031471254
176,352,111170,1,0,0:0:0:0:
224,352,111281,1,0,0:0:0:0:
136,352,111503,1,0,0:0:0:0:
48,352,111726,6,0,L|48:240,1,82.5000031471254,2|0,0:0|0:0,0:0:0:0:
48,224,112059,1,0,0:0:0:0:
48,176,112170,1,0,0:0:0:0:
48,264,112392,1,0,0:0:0:0:
48,352,112614,6,0,L|160:352,1,82.5000031471254
176,352,112947,1,0,0:0:0:0:
224,352,113058,1,0,0:0:0:0:
136,352,113280,1,0,0:0:0:0:
48,352,113503,6,0,L|48:240,1,82.5000031471254,2|0,0:0|0:0,0:0:0:0:
48,224,113836,1,0,0:0:0:0:
48,176,113947,1,0,0:0:0:0:
48,264,114169,1,0,0:0:0:0:
48,352,114392,6,0,L|160:352,1,82.5000031471254
88,352,114725,1,0,0:0:0:0:
48,352,114837,6,0,L|48:168,2,165.000006294251
208,240,115948,2,0,B|320:360|320:360|432:238,1,330.000012588501
96,88,117059,6,0,L|432:88,2,330.000012588501,4|0|0,0:0|0:0|0:0,0:0:0:0:
32,300,131281,6,0,P|129:263|175:321,1,165.000006294251
166,295,131948,1,0,0:0:0:0:
263,279,132170,2,0,P|360:313|405:255,1,165.000006294251,0|0,2:0|2:0,2:0:0:0:
397,280,132837,1,0,2:0:0:0:
430,186,133059,6,0,L|430:26,2,123.750004720688,2|0|0,0:0|0:0|0:0,0:0:0:0:
332,204,133948,2,0,L|332:327,2,123.750004720688
319,105,134837,6,0,P|215:118|193:159,1,123.750004720688,2|0,0:0|0:0,0:0:0:0:
208,126,135281,1,0,0:0:0:0:
208,126,135503,1,0,0:0:0:0:
206,133,135726,2,0,P|206:197|182:220,1,82.5000031471254
197,208,136059,2,0,L|103:184,1,82.5000031471254
120,212,136392,1,0,0:0:0:0:
120,236,136503,1,0,0:0:0:0:
120,260,136614,5,2,0:0:0:0:
216,284,136837,2,0,L|272:258,1,41.2500015735627
276,257,137059,1,0,0:0:0:0:
321,238,137281,1,0,0:0:0:0:
368,223,137503,2,0,P|364:273|338:297,1,82.5000031471254
300,318,137837,1,0,0:0:0:0:
255,339,137948,1,0,0:0:0:0:
208,356,138059,1,0,0:0:0:0:
160,370,138170,1,0,0:0:0:0:
111,376,138281,1,0,0:0:0:0:
48,368,138392,6,0,L|48:288,1,55,2|0,0:0|0:0,0:0:0:0:
48,280,138837,1,0,0:0:0:0:
48,224,139059,1,0,0:0:0:0:
48,152,139281,1,0,0:0:0:0:
48,64,139503,1,0,0:0:0:0:
120,40,139726,1,0,0:0:0:0:
136,40,139837,1,0,0:0:0:0:
152,32,139948,1,0,0:0:0:0:
168,32,140059,1,0,0:0:0:0:
184,24,140170,6,0,L|184:104,1,55,2|0,0:0|0:0,0:0:0:0:
184,112,140615,1,0,0:0:0:0:
184,168,140837,1,0,0:0:0:0:
184,240,141059,1,0,0:0:0:0:
184,328,141281,1,0,0:0:0:0:
256,352,141503,1,0,0:0:0:0:
272,352,141615,1,0,0:0:0:0:
288,360,141725,1,0,0:0:0:0:
312,360,141837,1,0,0:0:0:0:
328,368,141948,6,0,L|328:288,1,55,2|0,0:0|0:0,0:0:0:0:
328,280,142393,1,0,0:0:0:0:
328,224,142615,1,0,0:0:0:0:
328,152,142837,1,0,0:0:0:0:
328,64,143059,1,0,0:0:0:0:
400,40,143282,1,0,0:0:0:0:
416,40,143392,1,0,0:0:0:0:
432,32,143504,1,0,0:0:0:0:
448,40,143614,1,0,0:0:0:0:
464,40,143726,6,0,B|448:88,1,41.2500015735627,4|0,0:0|0:0,0:0:0:0:
448,120,143948,2,0,B|440:160|440:160|456:200|456:200|432:240,1,123.750004720688
432,256,144392,2,0,L|416:296,1,41.2500015735627
408,312,144614,1,0,0:0:0:0:
400,328,144726,1,0,0:0:0:0:
392,344,144837,1,0,0:0:0:0:
376,344,144948,1,0,0:0:0:0:
360,344,145059,1,0,0:0:0:0:
344,344,145170,1,0,0:0:0:0:
328,344,145281,1,0,0:0:0:0:
312,344,145392,1,0,0:0:0:0:
296,344,145503,6,0,L|200:344,1,82.5000031471254,2|0,0:0|0:0,0:0:0:0:
114,344,145948,1,0,0:0:0:0:
41,159,146170,2,0,L|141:186,1,82.5000031471254
216,207,146615,1,0,0:0:0:0:
61,83,147059,1,0,0:0:0:0:
80,280,147281,6,0,L|68:224,1,41.2500015735627,2|0,0:0|0:0,0:0:0:0:
144,240,147503,2,0,L|152:184,1,41.2500015735627
220,224,147725,2,0,L|240:184,1,41.2500015735627
296,232,147948,2,0,L|336:208,2,41.2500015735627
455,115,148392,2,0,L|367:99,1,82.5000031471254
55,336,149059,6,0,L|105:362,1,41.2500015735627,2|0,0:0|0:0,0:0:0:0:
110,286,149281,2,0,L|166:292,1,41.2500015735627
145,216,149503,2,0,L|188:207,1,41.2500015735627
157,141,149726,2,0,L|190:108,2,41.2500015735627
132,64,150170,1,0,0:0:0:0:
467,278,150837,6,0,L|479:334,1,41.2500015735627,2|0,0:0|0:0,0:0:0:0:
403,318,151059,2,0,L|395:374,1,41.2500015735627
327,334,151281,2,0,L|307:374,1,41.2500015735627
251,326,151504,2,0,L|211:350,2,41.2500015735627
187,282,151948,2,0,L|235:250,1,41.2500015735627
274,220,152170,2,0,L|274:140,1,55,2|0,0:0|0:0,0:0:0:0:
342,94,152614,6,0,P|400:138|392:180,1,123.750004720688,2|0,0:0|0:0,0:0:0:0:
362,220,153059,1,0,0:0:0:0:
215,194,153281,1,0,0:0:0:0:
215,194,153392,1,0,0:0:0:0:
215,194,153503,2,0,P|168:173|112:213,1,123.750004720688
97,259,153948,1,0,0:0:0:0:
219,342,154170,1,0,0:0:0:0:
233,350,154281,1,0,0:0:0:0:
247,355,154392,6,0,P|309:354|351:310,1,123.750004720688,2|0,0:0|0:0,0:0:0:0:
357,298,154837,1,0,0:0:0:0:
460,191,155059,1,0,0:0:0:0:
442,168,155170,1,0,0:0:0:0:
417,155,155281,2,0,P|378:140|295:158,1,123.750004720688
278,174,155726,1,0,0:0:0:0:
110,131,155948,1,0,0:3:0:0:
146,86,156059,1,0,0:3:0:0:
195,54,156170,6,0,P|247:38|324:41,1,123.750004720688,2|0,0:3|0:3,0:3:0:0:
371,56,156614,1,0,0:3:0:0:
412,199,156837,2,0,L|412:291,2,82.5000031471254
306,94,157503,1,0,0:0:0:0:
109,62,157726,6,0,L|145:83,1,41.2500015735627
234,125,157948,5,4,0:0:0:0:
124,347,158281,1,0,0:0:0:0:
257,232,158392,2,0,L|294:160,1,55
376,37,158614,2,0,L|376:85,1,41.2500015735627
377,103,158837,1,0,0:0:0:0:
377,127,158948,1,0,0:0:0:0:
377,151,159059,1,0,0:0:0:0:
377,175,159170,1,0,0:0:0:0:
377,199,159281,2,0,L|377:287,1,82.5000031471254
376,368,159726,5,4,0:0:0:0:
214,337,159948,2,0,P|138:297|130:241,1,137.5
128,334,160614,2,0,L|182:268,1,68.75
277,153,161059,1,0,0:0:0:0:
114,126,161281,1,0,0:0:0:0:
144,98,161392,1,0,0:0:0:0:
179,77,161503,6,0,P|222:55|248:50,1,68.75,4|0,0:0|0:0,0:0:0:0:
283,51,161837,1,0,0:0:0:0:
465,218,162170,2,0,P|485:294|445:362,2,137.5
361,88,163281,6,0,P|313:72|273:72,1,68.75,4|0,0:0|0:0,0:0:0:0:
254,77,163614,1,0,0:0:0:0:
76,131,163948,1,0,0:0:0:0:
201,237,164170,1,0,0:0:0:0:
201,237,164392,1,0,0:0:0:0:
170,264,164503,1,0,0:0:0:0:
167,305,164614,2,0,P|203:337|247:317,1,68.75
336,290,165059,6,0,P|392:206|400:142,2,137.5,4|0|0,0:0|0:0|0:0,0:0:0:0:
332,165,166170,1,0,0:0:0:0:
290,165,166281,1,0,0:0:0:0:
250,154,166392,2,0,P|202:128|185:99,1,68.75
153,45,166837,5,4,0:0:0:0:
67,161,167226,1,0,0:0:0:0:
103,257,167503,2,0,P|175:309|228:315,2,137.5
209,192,168614,6,0,P|297:206|338:239,1,137.5,4|0,0:0|0:0,0:0:0:0:
410,332,169281,1,0,0:0:0:0:
468,222,169503,1,0,0:0:0:0:
468,222,169614,1,0,0:0:0:0:
468,222,169726,2,0,L|426:191,1,34.375
372,154,169948,1,0,0:0:0:0:
372,154,170059,1,0,0:0:0:0:
372,154,170170,2,0,L|411:107,1,34.375
475,112,170392,6,0,P|416:48|360:55,1,137.5,4|0,0:0|0:0,0:0:0:0:
53,144,171281,1,0,0:0:0:0:
141,283,171503,1,0,0:0:0:0:
122,234,171614,1,0,0:0:0:0:
130,182,171726,1,0,0:0:0:0:
168,147,171837,1,0,0:0:0:0:
218,135,171948,2,0,P|299:161|317:214,1,137.5
328,326,172614,1,0,0:0:0:0:
428,253,172837,2,0,P|401:334|348:352,2,137.5
281,225,173948,6,0,L|219:140,1,82.5000031471254,4|0,0:0|0:0,0:0:0:0:
148,36,174392,1,0,0:0:0:0:
83,169,174614,2,0,L|138:244,1,82.5000031471254
227,350,175059,1,0,0:0:0:0:
351,268,175281,1,0,0:0:0:0:
303,253,175392,1,0,0:0:0:0:
269,216,175503,1,0,0:0:0:0:
265,166,175614,1,0,0:0:0:0:
286,121,175726,6,0,P|319:88|359:78,1,82.5000031471254,4|0,0:0|0:0,0:0:0:0:
368,177,176170,1,0,0:0:0:0:
265,166,176392,2,0,L|179:154,1,82.5000031471254
52,82,176837,1,0,0:0:0:0:
56,230,177059,1,0,0:0:0:0:
51,279,177170,1,0,0:0:0:0:
68,325,177281,1,0,0:0:0:0:
111,349,177392,1,0,0:0:0:0:
160,352,177503,6,0,P|204:339|232:309,1,82.5000031471254,4|0,0:0|0:0,0:0:0:0:
151,254,177948,1,0,0:0:0:0:
200,168,178170,2,0,L|243:83,1,82.5000031471254
374,37,178614,1,0,0:0:0:0:
432,174,178837,1,0,0:0:0:0:
473,200,178948,1,0,0:0:0:0:
487,247,179059,1,0,0:0:0:0:
483,296,179170,1,0,0:0:0:0:
460,340,179281,6,0,P|419:362|378:361,1,82.5000031471254,4|0,0:0|0:0,0:0:0:0:
394,264,179726,1,0,0:0:0:0:
305,307,179948,2,0,P|234:321|229:357,1,82.5000031471254
141,364,180392,1,0,0:0:0:0:
92,373,180503,1,0,0:0:0:0:
44,359,180614,1,0,0:0:0:0:
16,318,180725,1,0,0:0:0:0:
20,268,180837,1,0,0:0:0:0:
55,233,180948,1,0,0:0:0:0:
103,223,181059,6,0,P|167:255|162:291,2,82.5000031471254,4|0|0,0:0|0:0|0:0,0:0:0:0:
208,117,181726,1,0,0:0:0:0:
247,260,181948,2,0,P|319:340|403:340,1,165.000006294251
418,333,182503,1,0,0:0:0:0:
456,301,182614,1,0,0:0:0:0:
465,251,182726,1,0,0:0:0:0:
458,199,182837,6,0,P|434:158|397:138,1,68.75,2|0,0:0|0:0,0:0:0:0:
377,137,183170,1,0,0:0:0:0:
336,144,183281,1,0,0:0:0:0:
294,147,183392,1,0,0:0:0:0:
255,133,183503,1,0,0:0:0:0:
223,106,183614,1,0,0:0:0:0:
209,66,183726,1,0,0:0:0:0:
113,152,183948,2,0,P|119:190|144:218,1,68.75
223,301,184392,6,0,L|223:225,1,68.75
398,56,185059,2,0,L|322:65,1,68.75
208,85,185503,1,0,0:0:0:0:
94,135,185726,1,0,0:0:0:0:
94,135,185837,1,0,0:0:0:0:
94,135,185948,2,0,L|148:158,1,34.375
170,217,186170,1,0,0:0:0:0:
170,217,186281,1,0,0:0:0:0:
170,217,186392,6,0,L|116:241,1,34.375,2|0,0:0|0:0,0:0:0:0:
182,347,186726,2,0,L|202:312,1,34.375
304,251,187059,2,0,L|320:291,1,34.375
341,339,187281,1,0,0:0:0:0:
381,222,187503,1,0,0:0:0:0:
304,251,187614,1,0,0:0:0:0:
262,245,187726,1,0,0:0:0:0:
232,216,187837,1,0,0:0:0:0:
236,175,187948,1,0,0:0:0:0:
262,143,188059,1,0,0:0:0:0:
297,121,188170,6,0,P|225:64|183:65,1,137.5,2|0,0:0|0:0,0:0:0:0:
37,144,189059,1,0,0:0:0:0:
129,189,189281,1,0,0:0:0:0:
91,206,189392,1,0,0:0:0:0:
71,242,189503,1,0,0:0:0:0:
76,282,189614,1,0,0:0:0:0:
101,314,189726,1,0,0:0:0:0:
138,331,189837,1,0,0:0:0:0:
178,321,189948,6,0,P|198:281|230:261,1,68.75,2|0,0:0|0:0,0:0:0:0:
260,336,190281,2,0,P|293:306|304:270,1,68.75
310,244,190614,1,0,0:0:0:0:
245,137,190837,1,0,0:0:0:0:
333,50,191059,1,0,0:0:0:0:
372,39,191170,1,0,0:0:0:0:
412,44,191281,1,0,0:0:0:0:
447,64,191392,1,0,0:0:0:0:
465,100,191503,1,0,0:0:0:0:
463,141,191614,1,0,0:0:0:0:
454,181,191726,6,0,P|416:238|362:292,2,137.5,2|0|0,0:0|0:0|0:0,0:0:0:0:
302,248,192837,1,0,0:0:0:0:
283,284,192948,1,0,0:0:0:0:
252,311,193059,1,0,0:0:0:0:
213,326,193170,1,0,0:0:0:0:
172,319,193281,1,0,0:0:0:0:
140,292,193392,1,0,0:0:0:0:
116,258,193503,6,0,P|84:197|65:122,2,137.5,2|0|0,0:0|0:0|0:0,0:0:0:0:
137,93,194614,1,0,0:0:0:0:
162,60,194725,1,0,0:0:0:0:
197,39,194836,1,0,0:0:0:0:
237,29,194947,1,0,0:0:0:0:
276,39,195058,1,0,0:0:0:0:
309,62,195169,1,0,0:0:0:0:
336,93,195281,6,0,P|377:147|408:217,2,137.5,2|0|0,0:0|0:0|0:0,0:0:0:0:
324,266,196393,1,0,0:0:0:0:
303,230,196504,1,0,0:0:0:0:
271,203,196615,1,0,0:0:0:0:
230,193,196726,1,0,0:0:0:0:
189,202,196837,1,0,0:0:0:0:
158,229,196948,1,0,0:0:0:0:
152,269,197059,6,0,B|173:334|173:334|248:311,1,137.5,2|0,0:0|0:0,0:0:0:0:
317,288,197726,2,0,L|456:238,2,137.5
318,85,198837,5,4,0:0:0:0:
125,130,199059,2,0,L|92:220,1,82.5000031471254
229,353,199503,1,0,0:0:0:0:
234,154,199726,2,0,L|236:55,2,82.5000031471254
421,215,200392,1,0,0:0:0:0:
421,215,200503,1,0,0:0:0:0:
421,215,200614,6,0,L|437:126,1,68.75,4|0,0:0|0:0,0:0:0:0:
303,297,201059,1,0,0:0:0:0:
108,332,201281,2,0,L|194:353,1,82.5000031471254
58,200,201726,1,0,0:0:0:0:
202,64,201948,2,0,P|250:44|294:44,1,82.5000031471254
286,207,202392,6,0,L|316:286,1,68.75,4|0,0:0|0:0,0:0:0:0:
438,119,202837,1,0,0:0:0:0:
241,138,203059,2,0,L|163:201,1,82.5000031471254
20,311,203503,1,0,0:0:0:0:
218,322,203726,1,0,0:0:0:0:
218,322,203837,1,0,0:0:0:0:
218,322,203948,1,0,0:0:0:0:
218,322,204059,1,0,0:0:0:0:
218,322,204170,6,0,L|286:256,1,68.75,4|0,0:0|0:0,0:0:0:0:
417,145,204614,1,0,0:0:0:0:
218,159,204837,2,0,L|206:107,1,41.2500015735627
188,73,205059,1,0,0:0:0:0:
140,60,205170,1,0,0:0:0:0:
99,88,205281,1,0,0:0:0:0:
87,136,205392,1,0,0:0:0:0:
97,184,205503,1,0,0:0:0:0:
134,216,205614,1,0,0:0:0:0:
182,227,205726,1,0,0:0:0:0:
231,223,205837,1,0,0:0:0:0:
274,199,205948,5,4,0:0:0:0:
329,161,206170,1,0,0:0:0:0:
274,199,206392,1,0,0:0:0:0:
380,123,206614,1,0,0:0:0:0:
274,199,206837,1,0,0:0:0:0:
431,81,207059,1,0,0:0:0:0:
274,199,207281,1,0,0:0:0:0:
482,40,207503,1,0,0:0:0:0:
274,199,207726,6,0,P|238:227|226:251,1,68.75,2|0,0:0|0:0,0:0:0:0:
325,296,208170,2,0,P|275:342|233:341,1,103.125
189,328,208615,1,0,0:0:0:0:
81,350,208837,2,0,P|76:310|94:277,1,68.75
142,190,209281,6,0,L|184:127,1,68.75
220,80,209726,1,0,0:0:0:0:
270,38,209948,1,0,0:0:0:0:
337,38,210170,1,0,0:0:0:0:
388,80,210392,1,0,0:0:0:0:
399,145,210614,1,0,0:0:0:0:
366,203,210837,1,0,0:0:0:0:
304,225,211059,1,0,0:0:0:0:
236,209,211281,6,0,L|219:138,1,55,2|0,0:0|0:0,0:0:0:0:
209,91,211726,1,0,0:0:0:0:
154,53,211948,1,0,0:0:0:0:
88,58,212170,1,0,0:0:0:0:
42,105,212392,1,0,0:0:0:0:
36,171,212615,1,0,0:0:0:0:
74,225,212837,1,0,0:0:0:0:
140,244,213059,6,0,L|192:194,1,55,2|0,0:0|0:0,0:0:0:0:
225,160,213503,1,0,0:0:0:0:
287,137,213725,1,0,0:0:0:0:
350,159,213947,1,0,0:0:0:0:
381,215,214169,1,0,0:0:0:0:
370,280,214392,1,0,0:0:0:0:
320,323,214614,1,0,0:0:0:0:
252,328,214836,6,0,L|184:301,1,55,2|0,0:0|0:0,0:0:0:0:
162,288,215170,1,0,0:0:0:0:
57,218,215503,1,0,0:0:0:0:
57,218,215614,1,0,0:0:0:0:
72,137,215837,1,0,0:0:0:0:
55,128,215948,1,0,0:0:0:0:
62,106,216059,1,0,0:0:0:0:
85,114,216170,1,0,0:0:0:0:
102,123,216281,2,0,P|150:168|155:191,1,68.75
156,208,216614,6,0,L|142:247,1,34.375,2|0,0:0|0:0,0:0:0:0:
134,258,216837,1,0,0:0:0:0:
119,272,216948,1,0,0:0:0:0:
102,283,217059,2,0,L|121:313,1,34.375
135,326,217281,1,0,0:0:0:0:
212,297,217503,1,0,0:0:0:0:
258,363,217726,2,0,L|296:340,1,34.375
302,330,217948,1,0,0:0:0:0:
314,313,218059,1,0,0:0:0:0:
324,295,218170,1,0,0:0:0:0:
330,275,218281,1,0,0:0:0:0:
326,254,218392,6,0,P|310:215|334:163,1,68.75,2|0,0:0|0:0,0:0:0:0:
324,170,218726,1,0,0:0:0:0:
336,152,218837,1,0,0:0:0:0:
292,81,219059,1,0,0:0:0:0:
387,68,219281,2,0,P|443:106|478:157,1,103.125
475,152,219726,1,0,0:0:0:0:
476,172,219837,2,0,P|436:225|435:249,1,68.75
431,244,220170,6,0,L|419:284,1,34.375,2|0,0:0|0:0,0:0:0:0:
422,297,220392,1,0,0:0:0:0:
427,316,220503,1,0,0:0:0:0:
420,335,220615,2,0,L|373:344,1,34.375
365,342,220837,1,0,0:0:0:0:
340,263,221059,1,0,0:0:0:0:
268,303,221281,2,0,L|213:288,1,34.375
215,285,221503,1,0,0:0:0:0:
199,271,221614,1,0,0:0:0:0:
185,255,221726,1,0,0:0:0:0:
176,236,221836,1,0,0:0:0:0:
170,215,221948,6,0,P|162:176|194:127,1,68.75,2|0,0:0|0:0,0:0:0:0:
182,131,222282,1,0,0:0:0:0:
196,115,222393,1,0,0:0:0:0:
197,33,222615,1,0,0:0:0:0:
125,73,222837,2,0,P|60:94|13:137,1,103.125
19,130,223282,1,0,0:0:0:0:
144,236,223726,6,0,L|170:279,2,34.375,2|0|0,0:0|0:0|0:0,0:0:0:0:
65,260,224170,2,0,P|77:196|98:175,1,68.75
144,236,224614,2,0,P|132:299|112:320,1,68.75
198,344,225059,2,0,P|226:286|250:271,1,68.75
246,279,225392,1,0,0:0:0:0:
266,274,225503,6,0,P|314:232|322:204,1,68.75,2|0,0:0|0:0,0:0:0:0:
325,210,225837,1,0,0:0:0:0:
327,190,225948,1,0,0:0:0:0:
396,147,226170,1,0,0:0:0:0:
388,65,226392,2,0,P|326:44|299:51,1,68.75
243,56,226837,1,0,0:0:0:0:
294,120,227059,6,0,P|287:170|197:216,1,137.5
148,139,227726,2,0,P|182:145|214:134,2,68.75
177,59,228392,2,0,L|236:43,1,34.375
250,40,228614,1,0,0:0:0:0:
256,192,229059,12,0,230614,0:0:0:0:
256,192,230837,12,0,232614,0:0:0:0:
