osu file format v14

[General]
AudioFilename: audio.mp3
AudioLeadIn: 0
PreviewTime: -1
Countdown: 0
SampleSet: Normal
StackLeniency: 0.7
Mode: 0
LetterboxInBreaks: 0
WidescreenStoryboard: 0

[Editor]
Bookmarks: 135681
DistanceSpacing: 1.3
BeatDivisor: 4
GridSize: 16
TimelineZoom: 1

[Metadata]
Title:Orange Genome [German FanCover]
TitleUnicode:Orange Genome [German FanCover]
Artist:SelphiusMelody
ArtistUnicode:SelphiusMelody
Creator:PhantomHunt3r
Version:I Was Bored So I Made This
Source:
Tags:
BeatmapID:1210380
BeatmapSetID:571109

[Difficulty]
HPDrainRate:6
CircleSize:5
OverallDifficulty:6
ApproachRate:8.5
SliderMultiplier:1.4
SliderTickRate:2

[Events]
//Background and Video events
0,0,"43757-anime-girls-sexy-anime-girl[1].jpg",0,0
//Break Periods
2,69658,73228
2,114103,123006
2,146548,151450
//Storyboard Layer 0 (Background)
//Storyboard Layer 1 (Fail)
//Storyboard Layer 2 (Pass)
//Storyboard Layer 3 (Foreground)
//Storyboard Sound Samples

[TimingPoints]
12570,444.445211267606,4,1,0,50,1,0
32073,-66.6666666666667,4,1,0,50,0,0
38295,-50,4,1,0,50,0,0
41406,-66.6666666666667,4,1,0,50,0,0
56129,-50,4,1,0,50,0,1
70347,-66.6666666666667,4,1,0,50,0,0
100570,-50,4,1,0,50,0,1
114792,-66.6666666666667,4,1,0,50,0,0
152125,-50,4,1,0,50,0,1
180570,-66.6666666666667,4,1,0,50,0,0

[HitObjects]
236,262,19681,5,0,0:0:0:0:
327,224,19903,1,0,0:0:0:0:
159,143,20125,1,0,0:0:0:0:
160,250,20347,1,0,0:0:0:0:
274,102,20570,1,0,0:0:0:0:
347,317,20792,1,0,0:0:0:0:
114,105,21014,1,0,0:0:0:0:
149,246,21458,5,0,0:0:0:0:
320,180,21681,1,0,0:0:0:0:
189,98,21903,1,0,0:0:0:0:
183,269,22125,1,0,0:0:0:0:
275,67,22347,1,0,0:0:0:0:
116,275,22570,1,0,0:0:0:0:
375,275,22792,1,0,0:0:0:0:
303,201,23236,6,0,P|234:178|167:191,1,140
175,264,23903,1,0,0:0:0:0:
251,308,24125,2,0,P|322:304|383:257,1,140
381,186,25014,2,0,P|309:165|234:183,1,140
148,214,25903,5,0,0:0:0:0:
153,226,26014,1,0,0:0:0:0:
159,238,26125,1,0,0:0:0:0:
164,250,26236,1,0,0:0:0:0:
169,261,26347,1,0,0:0:0:0:
376,307,26792,5,0,0:0:0:0:
325,247,27014,1,0,0:0:0:0:
405,235,27236,1,0,0:0:0:0:
297,317,27458,1,0,0:0:0:0:
359,180,27681,1,0,0:0:0:0:
452,297,27903,1,0,0:0:0:0:
368,265,28125,1,0,0:0:0:0:
150,323,28570,5,0,0:0:0:0:
356,49,28792,1,0,0:0:0:0:
363,306,29014,1,0,0:0:0:0:
79,52,29236,1,0,0:0:0:0:
43,240,29458,1,0,0:0:0:0:
474,52,29681,1,0,0:0:0:0:
183,320,29903,1,0,0:0:0:0:
29,88,30347,5,0,0:0:0:0:
314,305,30570,1,0,0:0:0:0:
363,56,30792,1,0,0:0:0:0:
91,305,31014,1,0,0:0:0:0:
60,39,31236,1,0,0:0:0:0:
453,308,31458,1,0,0:0:0:0:
29,306,31681,1,0,0:0:0:0:
445,176,32125,6,0,B|383:196|383:196|328:158|328:158|251:183,1,210.000008010865
150,242,32792,1,0,0:0:0:0:
83,144,33014,1,0,0:0:0:0:
167,57,33236,2,0,P|234:91|253:128,1,105.000004005432
244,196,33681,2,0,P|306:215|385:198,1,105.000004005432
427,73,34347,5,0,0:0:0:0:
252,358,34570,1,0,0:0:0:0:
79,74,34792,1,0,0:0:0:0:
127,260,35236,5,0,0:0:0:0:
348,77,35458,1,0,0:0:0:0:
411,365,35681,1,0,0:0:0:0:
73,161,35903,1,0,0:0:0:0:
439,44,36125,1,0,0:0:0:0:
245,326,36347,1,0,0:0:0:0:
156,11,36570,1,0,0:0:0:0:
417,346,36792,1,0,0:0:0:0:
77,222,37014,1,0,0:0:0:0:
408,117,37236,1,0,0:0:0:0:
234,249,37458,1,0,0:0:0:0:
66,52,37681,1,0,0:0:0:0:
381,347,37903,1,0,0:0:0:0:
31,168,38125,1,0,0:0:0:0:
499,25,38347,2,0,L|326:274,1,280
254,278,39014,5,0,0:0:0:0:
248,199,39125,1,0,0:0:0:0:
180,242,39236,2,0,P|128:175|148:99,1,140
222,84,39681,5,0,0:0:0:0:
366,57,39903,1,0,0:0:0:0:
160,169,40125,1,0,0:0:0:0:
326,124,40347,1,0,0:0:0:0:
299,247,40570,1,0,0:0:0:0:
198,73,40792,1,0,0:0:0:0:
418,205,41014,1,0,0:0:0:0:
276,298,41458,6,0,P|202:301|167:274,1,105.000004005432
231,211,41903,1,0,0:0:0:0:
379,131,42347,6,0,P|409:193|399:246,1,105.000004005432
367,309,42792,2,0,P|239:313|172:258,1,210.000008010865
197,166,43458,1,0,0:0:0:0:
294,115,43681,2,0,P|360:142|392:178,1,105.000004005432
379,249,44125,5,0,0:0:0:0:
321,251,44236,1,0,0:0:0:0:
321,305,44347,1,0,0:0:0:0:
379,307,44458,1,0,0:0:0:0:
389,239,44570,1,0,0:0:0:0:
312,239,44681,1,0,0:0:0:0:
312,313,44792,1,0,0:0:0:0:
387,315,44903,1,0,0:0:0:0:
394,229,45014,1,0,0:0:0:0:
304,231,45125,1,0,0:0:0:0:
303,322,45236,1,0,0:0:0:0:
397,325,45347,1,0,0:0:0:0:
352,279,45458,1,0,0:0:0:0:
199,275,45903,5,0,0:0:0:0:
188,260,46014,1,0,0:0:0:0:
180,247,46125,1,0,0:0:0:0:
170,234,46236,1,0,0:0:0:0:
160,214,46347,2,0,B|235:216|283:165|283:165|286:115|255:87,1,210.000008010865
213,141,47014,1,0,0:0:0:0:
126,167,47236,1,0,0:0:0:0:
190,226,47458,1,0,0:0:0:0:
224,304,47681,2,0,P|287:284|330:245,1,105.000004005432
356,191,48125,2,0,P|362:124|351:81,1,105.000004005432
221,137,48570,1,0,0:0:0:0:
124,128,49458,6,0,P|105:195|128:248,1,105.000004005432
188,277,49903,2,0,P|257:191|240:95,1,210.000008010865
151,167,50570,1,0,0:0:0:0:
179,282,50792,2,0,L|112:362,2,105.000004005432
348,218,51458,1,0,0:0:0:0:
312,118,51681,2,0,B|216:163|194:290,1,210.000008010865
144,126,52570,5,0,0:0:0:0:
360,239,52792,1,0,0:0:0:0:
352,104,53014,1,0,0:0:0:0:
170,255,53236,1,0,0:0:0:0:
169,43,53458,1,0,0:0:0:0:
357,296,53681,1,0,0:0:0:0:
256,192,53903,12,0,54570,0:0:0:0:
25,24,55236,5,0,0:0:0:0:
174,84,55458,1,0,0:0:0:0:
49,171,55681,1,0,0:0:0:0:
184,228,56125,6,0,P|277:200|309:159,1,140
95,67,56570,1,0,0:0:0:0:
79,81,56681,1,0,0:0:0:0:
64,95,56792,2,0,L|109:241,1,140
126,244,57125,1,0,0:0:0:0:
126,244,57236,1,0,0:0:0:0:
399,245,57458,6,0,L|329:181,1,70
167,164,57681,6,0,L|215:215,1,70
399,245,57903,6,0,L|329:181,1,70
167,164,58125,6,0,L|215:215,1,70
399,245,58347,6,0,L|329:181,1,70
167,164,58570,6,0,L|215:215,1,70
420,331,58792,6,0,P|267:318|150:249,1,280
222,142,59458,5,0,0:0:0:0:
261,142,59570,1,0,0:0:0:0:
298,144,59681,1,0,0:0:0:0:
323,223,59903,1,0,0:0:0:0:
241,295,60125,1,0,0:0:0:0:
133,206,60347,1,0,0:0:0:0:
416,233,60570,1,0,0:0:0:0:
379,330,60792,1,0,0:0:0:0:
277,123,61014,1,0,0:0:0:0:
162,310,61236,1,0,0:0:0:0:
205,40,61458,6,0,P|159:61|142:98,1,70
155,152,61681,2,0,P|176:184|218:196,1,70
269,147,61903,2,0,P|280:104|257:62,1,70
271,152,62125,2,0,P|199:112|197:101,1,70
236,26,62347,2,0,P|360:101|408:233,1,280
178,254,63236,6,0,L|116:298,3,70
336,254,63681,6,0,L|393:294,3,70
257,275,64125,6,0,L|257:345,3,70
196,205,64570,1,0,0:0:0:0:
245,108,65014,1,0,0:0:0:0:
306,110,65125,1,0,0:0:0:0:
370,116,65236,1,0,0:0:0:0:
332,171,65458,5,0,0:0:0:0:
285,221,65570,1,0,0:0:0:0:
236,259,65681,1,0,0:0:0:0:
172,300,65903,5,0,0:0:0:0:
174,218,66014,1,0,0:0:0:0:
175,133,66125,1,0,0:0:0:0:
265,64,66347,5,0,0:0:0:0:
397,126,66570,1,0,0:0:0:0:
459,84,66792,5,0,0:0:0:0:
436,98,66903,1,0,0:0:0:0:
415,112,67014,1,0,0:0:0:0:
374,142,67125,1,0,0:0:0:0:
293,194,67236,1,0,0:0:0:0:
316,212,67347,1,0,0:0:0:0:
333,230,67458,1,0,0:0:0:0:
354,249,67570,1,0,0:0:0:0:
372,275,67681,1,0,0:0:0:0:
286,347,67792,1,0,0:0:0:0:
259,332,67903,1,0,0:0:0:0:
231,320,68014,1,0,0:0:0:0:
203,305,68125,1,0,0:0:0:0:
174,292,68236,1,0,0:0:0:0:
166,195,68347,1,0,0:0:0:0:
186,176,68458,1,0,0:0:0:0:
205,152,68570,1,0,0:0:0:0:
220,132,68681,1,0,0:0:0:0:
233,112,68792,1,0,0:0:0:0:
318,83,68903,1,0,0:0:0:0:
318,83,69014,1,0,0:0:0:0:
318,83,69125,1,0,0:0:0:0:
318,83,69236,1,0,0:0:0:0:
316,160,69347,1,0,0:0:0:0:
339,174,69458,1,0,0:0:0:0:
369,171,73903,6,0,P|274:202|260:194,1,105.000004005432
300,111,74347,1,0,0:0:0:0:
226,48,74570,2,0,P|192:98|212:150,1,105.000004005432
204,234,75014,1,0,0:0:0:0:
101,226,75236,2,0,B|105:283|154:319,1,105.000004005432
264,323,75681,1,0,0:0:0:0:
349,232,76125,6,0,P|339:184|288:155,1,105.000004005432
264,226,76570,1,0,0:0:0:0:
150,102,77014,5,0,0:0:0:0:
362,120,77236,1,0,0:0:0:0:
234,279,77459,1,0,0:0:0:0:
273,66,77682,1,0,0:0:0:0:
97,258,77904,1,0,0:0:0:0:
402,235,78126,1,0,0:0:0:0:
168,113,78348,1,0,0:0:0:0:
229,309,78570,1,0,0:0:0:0:
361,119,78792,1,0,0:0:0:0:
95,226,79014,1,0,0:0:0:0:
348,291,79236,1,0,0:0:0:0:
190,86,79459,1,0,0:0:0:0:
157,338,79681,1,0,0:0:0:0:
390,145,79903,1,0,0:0:0:0:
104,211,80125,1,0,0:0:0:0:
93,152,81014,2,0,B|134:193|150:245|150:245|178:239|212:249|212:249|200:193|178:157|143:117|143:117|195:98|233:62|233:62|249:86|285:100|285:100|234:138|234:138|247:165|281:192|326:185,1,630.000024032594
388,210,82792,6,0,B|346:254|349:301|349:301|301:319|267:285|267:285|305:257|305:257|274:212|274:212|192:232|201:296|201:296|155:309|155:309|145:232|145:232|176:183|216:166,1,630.000024032594
101,167,84570,6,0,B|167:152|220:183|220:183|200:227|209:289|209:289|268:310|292:332|292:332|337:295|337:295|299:258|261:244|261:244|299:186|289:132|232:117|196:112,1,630.000024032594
146,181,86347,6,0,B|202:206|282:182|321:149|321:149|277:56|277:56|240:97|194:103|137:92|100:92|100:92|74:146|64:209|108:243,1,630.000024032594
241,165,88125,5,0,0:0:0:0:
191,237,88347,1,0,0:0:0:0:
283,242,88570,1,0,0:0:0:0:
158,160,88792,1,0,0:0:0:0:
235,313,89014,1,0,0:0:0:0:
326,166,89236,1,0,0:0:0:0:
93,303,89459,1,0,0:0:0:0:
237,46,89681,1,0,0:0:0:0:
393,314,89903,2,0,P|303:339|258:334,1,105.000004005432
173,315,90347,1,0,0:0:0:0:
83,192,91236,5,0,0:0:0:0:
164,125,91459,1,0,0:0:0:0:
165,252,91681,2,0,B|221:263|221:263|213:187,1,105.000004005432
429,192,92125,5,0,0:0:0:0:
348,125,92348,1,0,0:0:0:0:
347,252,92570,2,0,B|291:263|291:263|299:187,1,105.000004005432
324,101,93014,5,0,0:0:0:0:
243,168,93237,1,0,0:0:0:0:
242,41,93459,2,0,B|186:30|186:30|191:77,1,105.000004005432
77,157,94347,5,0,0:0:0:0:
191,224,94570,1,0,0:0:0:0:
275,145,94792,1,0,0:0:0:0:
141,272,95014,1,0,0:0:0:0:
188,115,95236,1,0,0:0:0:0:
328,268,95459,1,0,0:0:0:0:
112,208,95681,1,0,0:0:0:0:
256,62,96570,5,0,0:0:0:0:
327,160,96792,1,0,0:0:0:0:
177,142,97014,1,0,0:0:0:0:
258,267,97236,1,0,0:0:0:0:
337,104,97459,1,0,0:0:0:0:
205,216,97681,1,0,0:0:0:0:
140,27,97903,1,0,0:0:0:0:
454,75,98347,5,0,0:0:0:0:
389,90,98459,1,0,0:0:0:0:
324,104,98570,1,0,0:0:0:0:
256,192,98792,12,0,100125,0:0:0:0:
78,46,100570,6,0,P|149:126|214:126,1,140
310,138,101014,1,0,0:0:0:0:
407,238,101236,1,0,0:0:0:0:
280,303,101459,6,0,P|141:240|88:130,1,280
194,80,102125,1,0,0:0:0:0:
370,103,102347,1,0,0:0:0:0:
260,248,102570,1,0,0:0:0:0:
268,84,102792,1,0,0:0:0:0:
105,207,103014,1,0,0:0:0:0:
360,200,103236,1,0,0:0:0:0:
150,228,103903,5,0,0:0:0:0:
123,240,104014,1,0,0:0:0:0:
98,254,104125,1,0,0:0:0:0:
222,304,104347,1,0,0:0:0:0:
389,165,104570,1,0,0:0:0:0:
208,101,104792,1,0,0:0:0:0:
359,298,105014,1,0,0:0:0:0:
119,200,105236,1,0,0:0:0:0:
293,107,105459,1,0,0:0:0:0:
253,290,105681,1,0,0:0:0:0:
136,104,105903,1,0,0:0:0:0:
408,200,106125,1,0,0:0:0:0:
68,321,106347,1,0,0:0:0:0:
161,89,106570,1,0,0:0:0:0:
306,358,106792,1,0,0:0:0:0:
453,91,107681,6,0,P|464:40|390:38,1,140
252,120,108125,2,0,P|232:176|299:171,1,140
428,231,108570,1,0,0:0:0:0:
248,285,109014,5,0,0:0:0:0:
86,294,109236,1,0,0:0:0:0:
76,159,109459,1,0,0:0:0:0:
388,254,109681,1,0,0:0:0:0:
279,75,109903,1,0,0:0:0:0:
134,365,110125,1,0,0:0:0:0:
319,355,110347,1,0,0:0:0:0:
88,149,111014,6,0,L|142:211,1,70
182,221,111236,1,0,0:0:0:0:
348,69,111459,1,0,0:0:0:0:
365,295,111681,1,0,0:0:0:0:
217,109,111903,1,0,0:0:0:0:
79,262,112125,1,0,0:0:0:0:
190,129,112347,1,0,0:0:0:0:
276,252,112570,1,0,0:0:0:0:
66,165,112792,1,0,0:0:0:0:
106,116,112903,1,0,0:0:0:0:
151,66,113014,1,0,0:0:0:0:
231,298,113236,1,0,0:0:0:0:
299,74,113458,1,0,0:0:0:0:
63,340,113681,1,0,0:0:0:0:
462,43,113903,1,0,0:0:0:0:
113,269,123681,6,0,B|144:302|188:360|188:360|349:211|389:171|355:94|195:97|159:206|328:311|392:275,1,630.000024032594
466,222,125236,5,0,0:0:0:0:
449,204,125347,1,0,0:0:0:0:
430,181,125459,2,0,B|380:123|380:123|344:148|297:150|244:138|198:112|198:112|171:152|148:214|147:215|253:252|272:315|232:360|169:370|106:356|55:334,1,630.000024032594
32,151,127014,5,0,0:0:0:0:
57,129,127125,1,0,0:0:0:0:
81,107,127236,2,0,B|144:83|144:83|158:132|158:132|207:114|207:114|219:169|219:169|268:149|268:149|283:201|283:201|327:171|327:171|339:232|339:232|387:183|387:183|425:293|425:293,1,630.000024032594
105,297,129014,5,0,0:0:0:0:
236,119,129236,1,0,0:0:0:0:
329,296,129459,1,0,0:0:0:0:
141,172,129681,1,0,0:0:0:0:
396,149,129903,1,0,0:0:0:0:
167,336,130125,1,0,0:0:0:0:
68,142,130347,1,0,0:0:0:0:
315,290,130570,1,0,0:0:0:0:
268,128,130792,1,0,0:0:0:0:
112,273,131014,1,0,0:0:0:0:
99,101,131236,1,0,0:0:0:0:
364,167,131459,1,0,0:0:0:0:
231,291,131681,1,0,0:0:0:0:
249,87,131903,1,0,0:0:0:0:
69,260,132125,1,0,0:0:0:0:
425,175,132347,1,0,0:0:0:0:
451,325,132570,1,0,0:0:0:0:
104,97,132792,1,0,0:0:0:0:
361,69,133014,1,0,0:0:0:0:
122,297,133236,1,0,0:0:0:0:
215,77,133459,1,0,0:0:0:0:
423,247,133681,1,0,0:0:0:0:
53,146,133903,1,0,0:0:0:0:
308,344,134125,1,0,0:0:0:0:
431,66,134347,1,0,0:0:0:0:
86,317,134570,1,0,0:0:0:0:
90,62,134792,1,0,0:0:0:0:
477,355,135014,1,0,0:0:0:0:
328,71,135236,1,0,0:0:0:0:
162,359,135459,1,0,0:0:0:0:
92,102,135681,1,0,0:0:0:0:
352,114,136125,6,0,P|348:193|249:289,1,210.000008010865
128,254,137014,2,0,P|162:147|282:93,1,210.000008010865
399,124,137903,2,0,P|376:210|276:299,1,210.000008010865
48,243,138792,2,0,P|91:118|182:56,1,210.000008010865
264,101,139681,5,0,0:0:0:0:
277,114,139903,1,0,0:0:0:0:
293,129,140125,1,0,0:0:0:0:
360,194,140570,5,0,0:0:0:0:
347,207,140792,1,0,0:0:0:0:
331,222,141014,1,0,0:0:0:0:
206,156,141459,5,0,0:0:0:0:
190,141,141681,1,0,0:0:0:0:
177,128,141903,1,0,0:0:0:0:
244,63,142348,5,0,0:0:0:0:
260,48,142570,1,0,0:0:0:0:
273,35,142792,1,0,0:0:0:0:
424,98,143236,6,0,B|371:243|291:276|291:276|293:262,2,210.000008010865
256,31,144570,2,0,P|167:109|120:203,2,210.000008010865
256,192,145903,1,0,0:0:0:0:
256,192,146014,1,0,0:0:0:0:
256,192,146125,1,0,0:0:0:0:
256,192,146236,1,0,0:0:0:0:
256,192,146348,1,0,0:0:0:0:
191,30,152125,5,0,0:0:0:0:
111,90,152236,1,0,0:0:0:0:
84,188,152348,1,0,0:0:0:0:
134,278,152459,1,0,0:0:0:0:
228,305,152570,1,0,0:0:0:0:
329,266,152681,1,0,0:0:0:0:
365,166,152792,1,0,0:0:0:0:
319,71,152903,1,0,0:0:0:0:
214,34,153014,1,0,0:0:0:0:
225,169,153459,5,0,0:0:0:0:
456,322,153681,1,0,0:0:0:0:
72,273,153903,1,0,0:0:0:0:
452,70,154125,1,0,0:0:0:0:
288,351,154348,1,0,0:0:0:0:
163,44,154570,1,0,0:0:0:0:
79,300,154792,1,0,0:0:0:0:
414,91,155236,5,0,0:0:0:0:
414,140,155348,1,0,0:0:0:0:
413,190,155459,1,0,0:0:0:0:
414,235,155570,1,0,0:0:0:0:
413,281,155681,1,0,0:0:0:0:
266,272,155903,1,0,0:0:0:0:
274,123,156125,1,0,0:0:0:0:
139,261,156348,1,0,0:0:0:0:
142,85,156570,1,0,0:0:0:0:
430,291,156792,1,0,0:0:0:0:
172,206,157014,1,0,0:0:0:0:
362,97,157236,1,0,0:0:0:0:
289,329,157459,1,0,0:0:0:0:
224,78,157681,1,0,0:0:0:0:
104,312,157903,1,0,0:0:0:0:
287,207,158125,1,0,0:0:0:0:
67,133,158348,1,0,0:0:0:0:
97,186,159236,6,0,P|228:117|380:110,1,280
429,207,159903,1,0,0:0:0:0:
372,308,160125,2,0,P|254:229|235:86,1,280
344,107,160792,1,0,0:0:0:0:
414,205,161014,1,0,0:0:0:0:
289,218,161236,1,0,0:0:0:0:
456,105,161459,1,0,0:0:0:0:
230,114,161681,1,0,0:0:0:0:
354,297,161903,1,0,0:0:0:0:
277,123,162570,5,0,0:0:0:0:
261,258,162792,1,0,0:0:0:0:
113,236,163014,1,0,0:0:0:0:
131,101,163236,1,0,0:0:0:0:
362,205,163459,1,0,0:0:0:0:
174,342,163681,1,0,0:0:0:0:
56,157,163903,1,0,0:0:0:0:
215,42,164125,1,0,0:0:0:0:
349,349,164348,1,0,0:0:0:0:
49,306,164570,1,0,0:0:0:0:
82,45,164792,1,0,0:0:0:0:
353,73,165014,1,0,0:0:0:0:
414,197,165236,2,0,P|308:219|268:217,1,140
214,128,165903,5,0,0:0:0:0:
190,131,166014,1,0,0:0:0:0:
160,143,166125,1,0,0:0:0:0:
100,223,166348,1,0,0:0:0:0:
125,232,166459,1,0,0:0:0:0:
149,240,166570,1,0,0:0:0:0:
244,277,166792,1,0,0:0:0:0:
223,293,166903,1,0,0:0:0:0:
195,306,167014,1,0,0:0:0:0:
68,298,167236,5,0,0:0:0:0:
79,296,167348,1,0,0:0:0:0:
76,284,167459,1,0,0:0:0:0:
99,294,167570,1,0,0:0:0:0:
90,270,167681,1,0,0:0:0:0:
115,283,167792,1,0,0:0:0:0:
107,257,167903,1,0,0:0:0:0:
134,267,168014,1,0,0:0:0:0:
123,245,168125,1,0,0:0:0:0:
151,258,168236,1,0,0:0:0:0:
144,233,168348,1,0,0:0:0:0:
169,244,168459,1,0,0:0:0:0:
169,223,168570,1,0,0:0:0:0:
199,235,168681,1,0,0:0:0:0:
188,212,168792,1,0,0:0:0:0:
216,221,168903,1,0,0:0:0:0:
211,201,169014,1,0,0:0:0:0:
246,211,169125,1,0,0:0:0:0:
236,181,169236,1,0,0:0:0:0:
357,101,169903,5,0,0:0:0:0:
217,349,170125,1,0,0:0:0:0:
106,118,170348,1,0,0:0:0:0:
64,318,170570,1,0,0:0:0:0:
235,54,170792,1,0,0:0:0:0:
397,312,171014,1,0,0:0:0:0:
454,130,171236,1,0,0:0:0:0:
236,355,171459,1,0,0:0:0:0:
28,145,171681,1,0,0:0:0:0:
272,44,171903,1,0,0:0:0:0:
417,283,172125,1,0,0:0:0:0:
82,306,172348,1,0,0:0:0:0:
60,89,172570,1,0,0:0:0:0:
292,330,172792,1,0,0:0:0:0:
476,98,173014,1,0,0:0:0:0:
109,164,173459,5,0,0:0:0:0:
130,178,173570,1,0,0:0:0:0:
150,197,173681,1,0,0:0:0:0:
215,147,173903,1,0,0:0:0:0:
240,163,174014,1,0,0:0:0:0:
266,180,174125,1,0,0:0:0:0:
325,124,174348,1,0,0:0:0:0:
344,142,174459,1,0,0:0:0:0:
361,155,174570,1,0,0:0:0:0:
430,235,174792,6,0,P|378:295|302:311,1,140
191,266,175236,1,0,0:0:0:0:
245,150,175459,1,0,0:0:0:0:
346,197,175681,1,0,0:0:0:0:
125,177,175903,1,0,0:0:0:0:
209,292,176125,1,0,0:0:0:0:
85,151,177014,5,0,0:0:0:0:
193,61,177236,1,0,0:0:0:0:
243,182,177459,1,0,0:0:0:0:
142,263,177681,1,0,0:0:0:0:
108,88,177903,1,0,0:0:0:0:
387,195,178125,1,0,0:0:0:0:
291,290,178348,1,0,0:0:0:0:
72,204,178570,1,0,0:0:0:0:
240,97,178792,1,0,0:0:0:0:
205,289,179014,1,0,0:0:0:0:
138,101,179236,1,0,0:0:0:0:
379,180,179459,1,0,0:0:0:0:
139,287,179681,1,0,0:0:0:0:
256,192,180570,12,0,215237,0:0:0:0:
