osu file format v14

[General]
AudioFilename: audio.mp3
AudioLeadIn: 0
PreviewTime: 10434
Countdown: 0
SampleSet: Soft
StackLeniency: 0.7
Mode: 2
LetterboxInBreaks: 0
WidescreenStoryboard: 1

[Editor]
DistanceSpacing: 3
BeatDivisor: 4
GridSize: 8
TimelineZoom: 2.1

[Metadata]
Title:wallah bruder (Gasi Remix)
TitleUnicode:wallah bruder (Gasi Remix)
Artist:Selphius
ArtistUnicode:Selphius
Creator:Daletto
Version:zonda's salad
Source:
Tags:german deutsch Selphy-tan selphy rap hip-hop novelty bighzonda NyalettOwO x3
BeatmapID:3115706
BeatmapSetID:1292500

[Difficulty]
HPDrainRate:3
CircleSize:3
OverallDifficulty:7
ApproachRate:7
SliderMultiplier:1.6
SliderTickRate:1

[Events]
//Background and Video events
0,0,"rat.png",0,0
//Break Periods
//Storyboard Layer 0 (Background)
//Storyboard Layer 1 (Fail)
//Storyboard Layer 2 (Pass)
//Storyboard Layer 3 (Foreground)
//Storyboard Layer 4 (Overlay)
//Storyboard Sound Samples

[TimingPoints]
101.164648910412,333.333333333333,4,2,0,30,1,0
10767,-90.9090909090909,4,2,0,40,0,1
16101,-100,4,2,0,30,0,0
26767,-90.9090909090909,4,2,0,40,0,1
32101,-100,4,2,0,30,0,0
37434,-90.9090909090909,4,2,0,40,0,1
42767,-90.9090909090909,4,2,0,40,0,0
43101,-90.9090909090909,4,2,0,35,0,0
44101,-90.9090909090909,4,2,0,30,0,0
45434,-90.9090909090909,4,2,0,25,0,0
46767,-90.9090909090909,4,2,0,20,0,0
47267,-90.9090909090909,4,2,0,15,0,0
47767,-90.9090909090909,4,2,0,10,0,0

[Colours]
Combo1 : 222,97,97
Combo2 : 255,128,0
Combo3 : 255,255,64
Combo4 : 192,192,192

[HitObjects]
152,112,101,6,0,L|320:32,1,160,2|0,0:0|0:0,0:0:0:0:
152,112,767,2,0,L|152:272,1,160,0|0,0:0|0:0,0:0:0:0:
216,288,1267,1,0,0:0:0:0:
312,264,1434,6,0,L|312:96,1,160,2|0,0:0|0:0,0:0:0:0:
152,88,2101,2,0,P|232:56|320:72,1,160
240,144,2601,1,0,0:0:0:0:
72,168,2767,6,0,P|56:248|112:304,1,160,2|0,0:0|0:0,0:0:0:0:
272,256,3434,2,0,L|96:256,1,160
384,200,4101,6,0,P|384:104|320:72,1,160,2|0,0:0|0:0,0:0:0:0:
176,152,4767,2,0,L|176:320,1,160,2|0,0:0|0:0,0:0:0:0:
464,216,5434,6,0,L|464:48,1,160,2|0,0:0|0:0,0:0:0:0:
304,80,6101,2,0,P|224:48|144:88,1,160
224,160,6601,1,0,0:0:0:0:
328,176,6767,6,0,L|312:336,1,160,2|0,0:0|0:0,0:0:0:0:
152,216,7434,2,0,L|152:56,1,160,0|0,0:0|0:0,0:0:0:0:
216,56,7934,1,0,0:0:0:0:
400,72,8101,6,0,P|456:112|400:152,1,160,2|0,0:0|0:0,0:0:0:0:
336,136,8601,1,0,0:0:0:0:
232,136,8767,2,0,P|152:176|184:240,1,160,0|0,0:0|0:0,0:0:0:0:
440,240,9434,6,0,L|440:80,1,160,2|0,0:0|0:0,0:0:0:0:
280,96,10101,2,0,L|448:80,1,160,2|0,0:0|0:0,0:0:0:0:
136,104,10767,6,0,L|136:280,1,176.000005371094,4|2,0:0|0:0,0:0:0:0:
312,264,11434,1,8,0:0:0:0:
232,240,11601,1,0,0:0:0:0:
312,192,11767,2,0,L|312:96,1,88.000002685547,2|0,0:0|0:0,0:0:0:0:
120,80,12101,6,0,L|120:256,1,176.000005371094,4|2,0:0|0:0,0:0:0:0:
296,264,12767,1,8,0:0:0:0:
376,232,12934,2,0,L|376:136,1,88.000002685547,0|2,0:0|0:0,0:0:0:0:
88,128,13434,6,0,P|40:208|96:296,1,176.000005371094,4|2,0:0|0:0,0:0:0:0:
240,240,14101,1,8,0:0:0:0:
312,176,14267,1,0,0:0:0:0:
240,128,14434,2,0,L|240:32,1,88.000002685547,2|0,0:0|0:0,0:0:0:0:
432,48,14767,6,0,L|432:224,1,176.000005371094,4|2,0:0|0:0,0:0:0:0:
256,256,15434,1,8,0:0:0:0:
168,288,15601,1,0,0:0:0:0:
80,320,15767,1,2,0:0:0:0:
352,312,16101,6,0,P|448:272|448:200,1,160,4|0,0:0|0:0,0:0:0:0:
304,120,16767,2,0,P|248:168|304:224,1,160,8|0,0:0|0:0,0:0:0:0:
360,232,17267,1,0,0:0:0:0:
464,240,17434,6,0,P|456:176|360:128,1,160,4|0,0:0|0:0,0:0:0:0:
216,224,18101,2,0,L|64:128,1,160,8|0,0:0|0:0,0:0:0:0:
352,96,18767,6,0,P|408:136|352:184,1,160,4|0,0:0|0:0,0:0:0:0:
192,216,19434,1,8,0:0:0:0:
272,176,19601,1,0,0:0:0:0:
352,144,19767,1,0,0:0:0:0:
80,88,20101,6,0,L|80:256,1,160,4|0,0:0|0:0,0:0:0:0:
240,152,20767,2,0,L|72:144,1,160,10|2,0:0|0:0,0:0:0:0:
352,96,21434,6,0,P|408:144|352:192,1,160,4|0,0:0|0:0,0:0:0:0:
192,176,22101,2,0,L|192:344,1,160,8|0,0:0|0:0,0:0:0:0:
256,344,22601,1,0,0:0:0:0:
360,304,22767,6,0,P|408:248|352:176,1,160,4|0,0:0|0:0,0:0:0:0:
208,152,23434,2,0,L|376:128,1,160,8|0,0:0|0:0,0:0:0:0:
288,176,23934,1,0,0:0:0:0:
112,128,24101,6,0,L|112:288,1,160,4|0,0:0|0:0,0:0:0:0:
272,272,24767,2,0,L|112:272,1,160,8|0,0:0|0:0,0:0:0:0:
176,208,25267,1,0,0:0:0:0:
280,96,25434,6,0,L|280:256,1,160,4|0,0:0|0:0,0:0:0:0:
120,256,26101,2,0,L|120:96,1,160,10|2,0:0|0:0,0:0:0:0:
416,96,26767,6,0,L|416:192,1,88.000002685547,4|0,0:0|0:0,0:0:0:0:
336,224,27101,2,0,L|240:224,1,88.000002685547,2|0,0:0|0:0,0:0:0:0:
424,120,27434,2,0,P|472:192|416:256,1,176.000005371094,8|2,0:0|0:0,0:0:0:0:
248,200,28101,6,0,P|176:240|240:280,1,176.000005371094,4|2,0:0|0:0,0:0:0:0:
400,256,28767,2,0,L|400:80,1,176.000005371094,8|2,0:0|0:0,0:0:0:0:
328,72,29267,1,0,0:0:0:0:
136,136,29434,5,4,0:0:0:0:
58,178,29601,1,0,0:0:0:0:
58,206,29767,1,2,0:0:0:0:
136,248,29934,1,0,0:0:0:0:
328,272,30101,6,0,P|464:224|464:176,2,176.000005371094,8|2|4,0:0|0:0|0:0,0:0:0:0:
152,184,31101,2,0,L|320:72,1,176.000005371094,2|8,0:0|0:0,0:0:0:0:
120,104,31767,1,2,0:0:0:0:
392,96,32101,6,0,L|392:256,1,160,4|0,0:0|0:0,0:0:0:0:
232,256,32767,2,0,L|384:208,1,160,8|0,0:0|0:0,0:0:0:0:
320,160,33267,1,0,0:0:0:0:
144,136,33434,6,0,P|80:168|144:216,1,160,4|0,0:0|0:0,0:0:0:0:
288,232,34101,2,0,L|400:104,1,160,8|0,0:0|0:0,0:0:0:0:
120,88,34767,6,0,L|120:248,1,160,4|0,0:0|0:0,0:0:0:0:
280,152,35434,2,0,L|280:312,1,160,8|0,0:0|0:0,0:0:0:0:
216,320,35934,1,0,0:0:0:0:
40,280,36101,6,0,L|40:120,1,160,4|0,0:0|0:0,0:0:0:0:
200,88,36767,2,0,L|40:48,1,160,10|2,0:0|0:0,0:0:0:0:
344,144,37434,6,0,L|344:320,1,176.000005371094,4|2,0:0|0:0,0:0:0:0:
168,256,38101,2,0,L|80:96,1,176.000005371094,8|2,0:0|0:0,0:0:0:0:
160,112,38601,1,0,0:0:0:0:
352,240,38767,6,0,P|384:168|320:80,1,176.000005371094,4|2,0:0|0:0,0:0:0:0:
192,88,39434,2,0,L|368:48,1,176.000005371094,8|2,0:0|0:0,0:0:0:0:
64,168,40101,6,0,L|64:344,1,176.000005371094,4|2,0:0|0:0,0:0:0:0:
240,296,40767,2,0,L|416:296,1,176.000005371094,8|2,0:0|0:0,0:0:0:0:
344,232,41267,1,0,0:0:0:0:
152,200,41434,6,0,P|88:176|160:128,1,176.000005371094,4|2,0:0|0:0,0:0:0:0:
280,144,42101,2,0,L|112:48,1,176.000005371094,10|2,0:0|0:0,0:0:0:0:
408,192,42767,5,4,0:0:0:0:
256,192,43101,12,0,47767,0:0:0:0:
