osu file format v14

[General]
AudioFilename: audio.mp3
AudioLeadIn: 0
PreviewTime: 10434
Countdown: 0
SampleSet: Soft
StackLeniency: 0.7
Mode: 2
LetterboxInBreaks: 0
WidescreenStoryboard: 0

[Editor]
DistanceSpacing: 3
BeatDivisor: 4
GridSize: 8
TimelineZoom: 1

[Metadata]
Title:wallah bruder (Gasi Remix)
TitleUnicode:wallah bruder (Gasi Remix)
Artist:Selphius
ArtistUnicode:Selphius
Creator:Daletto
Version:wallah
Source:
Tags:german deutsch Selphy-tan selphy rap hip-hop novelty bighzonda NyalettOwO x3
BeatmapID:2682393
BeatmapSetID:1292500

[Difficulty]
HPDrainRate:5
CircleSize:4
OverallDifficulty:9
ApproachRate:9
SliderMultiplier:2
SliderTickRate:2

[Events]
//Background and Video events
0,0,"rat.png",0,0
//Break Periods
//Storyboard Layer 0 (Background)
//Storyboard Layer 1 (Fail)
//Storyboard Layer 2 (Pass)
//Storyboard Layer 3 (Foreground)
//Storyboard Layer 4 (Overlay)
//Storyboard Sound Samples

[TimingPoints]
101.164648910412,333.333333333333,4,2,0,30,1,0
10767,-90.9090909090909,4,2,0,40,0,1
16101,-100,4,2,0,30,0,0
26767,-90.9090909090909,4,2,0,40,0,1
32101,-100,4,2,0,30,0,0
37434,-90.9090909090909,4,2,0,40,0,1
42767,-90.9090909090909,4,2,0,40,0,0
43101,-90.9090909090909,4,2,0,35,0,0
44101,-90.9090909090909,4,2,0,30,0,0
45434,-90.9090909090909,4,2,0,25,0,0
46767,-90.9090909090909,4,2,0,20,0,0
47267,-90.9090909090909,4,2,0,15,0,0
47767,-90.9090909090909,4,2,0,10,0,0

[Colours]
Combo1 : 222,97,97
Combo2 : 255,128,0
Combo3 : 255,255,64
Combo4 : 192,192,192

[HitObjects]
264,312,101,6,0,L|408:168,1,200,2|0,0:0|0:0,0:0:0:0:
200,216,767,2,0,L|56:72,1,200
152,88,1267,1,0,0:0:0:0:
312,232,1434,6,0,P|344:200|256:112,1,200,2|0,0:0|0:0,0:0:0:0:
152,232,2101,2,0,L|296:88,1,200
200,112,2601,1,0,0:0:0:0:
40,240,2767,6,0,L|32:40,1,200,2|0,0:0|0:0,0:0:0:0:
216,232,3434,2,0,L|368:80,1,200
168,224,4101,6,0,P|104:160|168:96,1,200,2|0,0:0|0:0,0:0:0:0:
448,240,4767,2,0,L|456:40,1,200,2|0,0:0|0:0,0:0:0:0:
32,296,5434,6,0,L|176:152,1,200,2|0,0:0|0:0,0:0:0:0:
280,216,6101,2,0,L|136:72,1,200
232,96,6601,1,0,0:0:0:0:
392,232,6767,6,0,P|424:200|336:112,1,200,2|0,0:0|0:0,0:0:0:0:
232,208,7434,2,0,P|232:160|336:56,1,200
424,80,7934,1,0,0:0:0:0:
264,208,8101,6,0,P|224:168|312:80,1,200,2|0,0:0|0:0,0:0:0:0:
464,200,8767,2,0,L|320:56,1,200
152,248,9434,6,0,L|160:48,1,200,2|0,0:0|0:0,0:0:0:0:
480,288,10101,2,0,L|488:88,1,200,2|0,0:0|0:0,0:0:0:0:
392,128,10601,1,0,0:0:0:0:
152,192,10767,6,0,L|144:80,1,110.000003356934,4|0,0:0|0:0,0:0:0:0:
304,152,11101,2,0,L|384:72,1,110.000003356934,2|0,0:0|0:0,0:0:0:0:
224,184,11434,2,0,L|168:184,1,55.0000016784668,8|0,0:0|0:0,0:0:0:0:
240,168,11601,2,0,L|304:168,1,55.0000016784668
224,184,11767,2,0,L|144:104,1,110.000003356934,2|0,0:0|0:0,0:0:0:0:
400,240,12101,6,0,L|408:128,1,110.000003356934,4|0,0:0|0:0,0:0:0:0:
248,200,12434,2,0,L|168:120,1,110.000003356934,2|0,0:0|0:0,0:0:0:0:
328,136,12767,1,8,0:0:0:0:
248,136,12934,1,0,0:0:0:0:
256,136,13101,1,2,0:0:0:0:
336,136,13267,1,0,0:0:0:0:
64,192,13434,6,0,L|56:80,1,110.000003356934,4|0,0:0|0:0,0:0:0:0:
216,184,13767,2,0,L|224:72,1,110.000003356934,2|0,0:0|0:0,0:0:0:0:
63,142,14101,2,0,L|56:80,1,55.0000016784668,8|0,0:0|0:0,0:0:0:0:
128,104,14267,2,0,L|192:40,1,55.0000016784668
96,48,14434,2,0,L|88:160,1,110.000003356934,2|0,0:0|0:0,0:0:0:0:
384,208,14767,6,0,L|480:112,1,110.000003356934,4|0,0:0|0:0,0:0:0:0:
304,176,15101,2,0,L|216:88,1,110.000003356934,2|0,0:0|0:0,0:0:0:0:
384,128,15434,1,8,0:0:0:0:
464,128,15601,1,0,0:0:0:0:
488,88,15768,1,2,0:0:0:0:
464,128,15934,1,0,0:0:0:0:
224,176,16101,6,0,L|144:96,1,100,4|0,0:0|0:0,0:0:0:0:
296,144,16434,2,0,L|304:40,1,100
160,160,16767,1,8,0:0:0:0:
112,128,16851,1,0,0:0:0:0:
96,80,16934,1,0,0:0:0:0:
112,128,17017,1,0,0:0:0:0:
160,160,17101,2,0,L|88:88,1,100
336,232,17434,5,4,0:0:0:0:
376,232,17601,1,0,0:0:0:0:
336,232,17767,1,0,0:0:0:0:
264,232,17934,1,0,0:0:0:0:
120,160,18101,2,0,L|208:72,1,100,8|0,0:0|0:0,0:0:0:0:
48,192,18434,2,0,L|40:88,1,100
280,256,18767,6,0,L|352:184,1,100,4|0,0:0|0:0,0:0:0:0:
208,192,19101,2,0,L|120:104,1,100
280,192,19434,1,8,0:0:0:0:
264,176,19517,1,0,0:0:0:0:
232,152,19600,1,0,0:0:0:0:
192,128,19684,1,0,0:0:0:0:
144,128,19767,2,0,L|136:24,1,100
424,208,20101,6,0,L|336:120,1,100,4|0,0:0|0:0,0:0:0:0:
208,176,20434,2,0,L|216:72,1,100
360,232,20767,2,0,L|504:88,1,200,10|2,0:0|0:0,0:0:0:0:
96,232,21434,6,0,L|88:128,1,100,4|0,0:0|0:0,0:0:0:0:
232,224,21767,2,0,L|312:144,1,100
160,200,22101,1,8,0:0:0:0:
176,184,22184,1,0,0:0:0:0:
208,160,22267,1,0,0:0:0:0:
248,136,22351,1,0,0:0:0:0:
296,136,22434,2,0,L|368:64,1,100
96,176,22767,5,4,0:0:0:0:
56,176,22934,1,0,0:0:0:0:
96,176,23100,1,0,0:0:0:0:
168,176,23267,1,0,0:0:0:0:
312,136,23434,2,0,L|240:64,1,100,8|0,0:0|0:0,0:0:0:0:
96,200,23767,2,0,L|176:120,1,100
400,208,24101,6,0,L|392:104,1,100,4|0,0:0|0:0,0:0:0:0:
248,144,24434,2,0,L|240:40,1,100
384,160,24767,1,8,0:0:0:0:
432,128,24851,1,0,0:0:0:0:
448,80,24934,1,0,0:0:0:0:
432,128,25017,1,0,0:0:0:0:
384,160,25101,2,0,L|456:88,1,100
168,176,25434,6,0,L|160:72,1,100,4|0,0:0|0:0,0:0:0:0:
304,120,25767,2,0,L|376:48,1,100
232,80,26101,2,0,L|160:152,1,100,10|0,0:0|0:0,0:0:0:0:
448,184,26434,2,0,L|456:80,1,100,2|0,0:0|0:0,0:0:0:0:
176,184,26767,6,0,L|96:104,1,110.000003356934,4|0,0:0|0:0,0:0:0:0:
256,152,27101,2,0,L|336:72,1,110.000003356934,2|0,0:0|0:0,0:0:0:0:
176,208,27434,2,0,L|120:208,1,55.0000016784668,8|0,0:0|0:0,0:0:0:0:
192,136,27601,2,0,L|200:80,1,55.0000016784668
128,192,27767,2,0,L|120:64,1,110.000003356934,2|0,0:0|0:0,0:0:0:0:
368,168,28101,6,0,L|376:56,1,110.000003356934,4|0,0:0|0:0,0:0:0:0:
216,136,28434,2,0,L|304:48,1,110.000003356934,2|0,0:0|0:0,0:0:0:0:
136,168,28767,1,8,0:0:0:0:
96,168,28933,1,0,0:0:0:0:
136,168,29100,1,2,0:0:0:0:
216,168,29267,1,0,0:0:0:0:
472,208,29434,6,0,L|392:128,1,110.000003356934,4|0,0:0|0:0,0:0:0:0:
232,176,29767,2,0,L|144:88,1,110.000003356934,2|0,0:0|0:0,0:0:0:0:
312,176,30101,2,0,L|320:120,1,55.0000016784668,8|0,0:0|0:0,0:0:0:0:
248,120,30267,2,0,L|256:64,1,55.0000016784668
328,144,30434,2,0,L|408:64,1,110.000003356934,2|0,0:0|0:0,0:0:0:0:
152,208,30767,6,0,L|64:120,1,110.000003356934,4|0,0:0|0:0,0:0:0:0:
232,168,31101,2,0,L|240:56,1,110.000003356934,2|0,0:0|0:0,0:0:0:0:
80,112,31434,2,0,L|160:32,1,110.000003356934,8|0,0:0|0:0,0:0:0:0:
320,160,31767,2,0,L|408:72,1,110.000003356934,2|0,0:0|0:0,0:0:0:0:
112,192,32101,5,4,0:0:0:0:
72,192,32267,1,0,0:0:0:0:
112,192,32434,1,0,0:0:0:0:
192,192,32601,1,0,0:0:0:0:
48,208,32767,1,8,0:0:0:0:
64,192,32850,1,0,0:0:0:0:
96,168,32933,1,0,0:0:0:0:
136,144,33017,1,0,0:0:0:0:
184,144,33101,2,0,L|104:64,1,100
384,168,33434,5,4,0:0:0:0:
424,168,33600,1,0,0:0:0:0:
384,168,33767,1,0,0:0:0:0:
304,168,33934,1,0,0:0:0:0:
160,176,34101,2,0,L|248:88,1,100,8|0,0:0|0:0,0:0:0:0:
88,144,34434,2,0,L|80:40,1,100
336,192,34767,6,0,L|416:112,1,100,4|0,0:0|0:0,0:0:0:0:
264,144,35101,2,0,L|256:40,1,100
400,160,35434,1,8,0:0:0:0:
448,128,35518,1,0,0:0:0:0:
464,80,35601,1,0,0:0:0:0:
448,128,35684,1,0,0:0:0:0:
400,160,35768,2,0,L|472:88,1,100
192,176,36101,6,0,L|184:72,1,100,4|0,0:0|0:0,0:0:0:0:
328,136,36434,2,0,L|336:240,1,100
192,240,36767,2,0,L|48:96,1,200,10|2,0:0|0:0,0:0:0:0:
464,232,37434,6,0,L|368:136,1,110.000003356934,4|0,0:0|0:0,0:0:0:0:
224,184,37767,2,0,L|136:96,1,110.000003356934,2|0,0:0|0:0,0:0:0:0:
304,176,38101,2,0,L|360:120,1,55.0000016784668,8|0,0:0|0:0,0:0:0:0:
272,136,38267,2,0,L|224:88,1,55.0000016784668
304,112,38434,2,0,L|384:192,1,110.000003356934,2|0,0:0|0:0,0:0:0:0:
120,208,38767,6,0,L|128:96,1,110.000003356934,4|0,0:0|0:0,0:0:0:0:
288,176,39101,2,0,L|296:64,1,110.000003356934,2|0,0:0|0:0,0:0:0:0:
136,168,39434,2,0,L|216:88,1,110.000003356934,8|0,0:0|0:0,0:0:0:0:
56,144,39767,2,0,L|48:32,1,110.000003356934,2|0,0:0|0:0,0:0:0:0:
328,216,40101,6,0,L|424:120,1,110.000003356934,4|0,0:0|0:0,0:0:0:0:
248,128,40434,2,0,L|240:16,1,110.000003356934,2|0,0:0|0:0,0:0:0:0:
400,192,40767,2,0,L|408:136,1,55.0000016784668,8|0,0:0|0:0,0:0:0:0:
336,136,40934,2,0,L|328:80,1,55.0000016784668
400,112,41100,2,0,L|320:32,1,110.000003356934,2|0,0:0|0:0,0:0:0:0:
48,176,41434,6,0,L|40:64,1,110.000003356934,4|0,0:0|0:0,0:0:0:0:
200,120,41767,2,0,L|112:32,1,110.000003356934,2|0,0:0|0:0,0:0:0:0:
280,344,42101,2,0,L|392:344,1,110.000003356934,10|0,0:0|0:0,0:0:0:0:
400,320,42351,1,0,0:0:0:0:
408,312,42434,1,2,0:0:0:0:
8,40,42767,5,4,0:0:0:0:
256,192,43101,12,0,47767,0:0:0:0:
