osu file format v14

[General]
AudioFilename: audio.mp3
AudioLeadIn: 0
PreviewTime: 180848
Countdown: 0
SampleSet: Normal
StackLeniency: 0.7
Mode: 1
LetterboxInBreaks: 0
WidescreenStoryboard: 1

[Editor]
DistanceSpacing: 1
BeatDivisor: 4
GridSize: 16
TimelineZoom: 1.300001

[Metadata]
Title:Scarborough Fair (Resolution)
TitleUnicode:Scarborough Fair (Resolution)
Artist:Selphius
ArtistUnicode:Selphius
Creator:LilacCos
Version:Blaue Blumen
Source:
Tags:german, folk, traditional, english, ballad
BeatmapID:3439529
BeatmapSetID:1683396

[Difficulty]
HPDrainRate:6
CircleSize:2
OverallDifficulty:5
ApproachRate:5
SliderMultiplier:1.6
SliderTickRate:1

[Events]
//Background and Video events
0,0,"Scarborough Fair Selphius BG.jpg",0,0
//Break Periods
2,700,2653
2,4053,9748
2,219444,223241
//Storyboard Layer 0 (Background)
//Storyboard Layer 1 (Fail)
//Storyboard Layer 2 (Pass)
//Storyboard Layer 3 (Foreground)
//Storyboard Layer 4 (Overlay)
//Storyboard Sound Samples

[TimingPoints]
500,479.041916167665,7,1,0,40,1,0
3853,479.041916167665,15,1,0,40,1,0
10948,465.116279069767,3,1,0,40,1,0
13713,472.44094488189,3,1,0,40,1,0
43358,-95.2380952380952,3,1,0,60,0,0
68515,-94.594581811543,3,1,0,60,0,0
68987,-93.3332960000149,3,1,0,60,0,0
69460,-92.1052873961283,3,1,0,60,0,0
69932,-90.9090909090909,3,1,0,60,0,0
70405,476.190476190476,3,1,0,80,1,0
70405,-86.9565217391304,3,1,0,80,0,0
71833,472.44094488189,3,1,0,80,1,0
71833,-86.9565217391304,3,1,0,80,0,0
108210,-85.4700854700855,3,1,0,80,0,0
108683,-84.0336134453782,3,1,0,80,0,0
109155,-82.6446280991736,3,1,0,80,0,0
109392,-81.9672131147541,3,1,0,80,0,0
109628,-81.3008130081301,3,1,0,80,0,0
109825,-80.6451612903226,3,1,0,80,0,0
109903,-80.4289544235946,3,1,0,80,0,0
109982,-80.2139037433155,3,1,0,80,0,0
110061,-80,3,1,0,80,0,0
112817,-76.9230769230769,3,1,0,90,0,0
112935,-76.9230769230769,3,1,0,90,0,1
128762,-79.4491525423729,3,1,0,90,0,1
128998,-82.1917808219178,3,1,0,90,0,1
129234,-85.1063829787234,3,1,0,90,0,1
129470,-88.2352941176471,3,1,0,90,0,1
129707,-91.6310323762981,3,1,0,90,0,1
129864,-95.2380952380952,3,1,0,90,0,0
129943,-95.2380952380952,3,1,0,80,0,0
146478,-94.3396226415094,3,1,0,80,0,0
146951,-93.4579439252336,3,1,0,80,0,0
147423,-92.5925925925926,3,1,0,80,0,0
147895,-91.743119266055,3,1,0,80,0,0
148368,-90.9090909090909,3,1,0,80,0,0
150888,-88.8888888888889,3,1,0,80,0,0
151045,-87.9120879120879,3,1,0,80,0,0
151203,-86.9565217391304,3,1,0,80,0,0
180494,-83.4042269262206,3,1,0,80,0,0
180612,-81.6326530612245,3,1,0,80,0,0
180730,-80.130837631685,3,1,0,80,0,0
180848,-78.4313725490196,3,1,0,80,0,0
180966,472.44094488189,3,1,0,90,1,8
180977,472.44094488189,3,1,0,90,1,1
180977,-76.9230769230769,3,1,0,90,0,1
207788,-100,3,1,0,60,0,1
207906,-100,3,1,0,60,0,0
210623,-100,3,1,0,40,0,0
234362,-99.009900990099,3,1,0,40,0,0
234835,-98.0392156862745,3,1,0,40,0,0
235307,-97.0873786407767,3,1,0,40,0,0
235780,-96.1538461538461,3,1,0,40,0,0
236135,-95.2380952380952,3,1,0,60,0,0
243308,472.44094488189,3,1,0,60,1,0
243308,-95.2380952380952,3,1,0,60,0,0
244627,-95.2380952380952,3,1,0,60,0,0
244882,-95.2380952380952,3,1,0,60,0,0
245196,-95.2380952380952,3,1,0,60,0,0
248859,-90.9090909090909,3,1,0,40,0,0
254407,-90.9090909090909,3,1,0,40,0,0
254645,-90.9090909090909,3,1,0,40,0,0
261731,476.190476190476,3,1,0,40,1,0
261731,-90.9090909090909,3,1,0,40,0,0
263159,472.44094488189,3,1,0,40,1,0
263159,-90.9090909090909,3,1,0,40,0,0
270127,-95.2380952380952,3,1,0,30,0,0
277321,590.841949778434,3,1,0,20,1,0
277321,-79.9606299212598,3,1,0,20,0,0
278502,708.382526564345,3,1,0,20,1,8
278502,-74.1032370953631,3,1,0,20,0,8
279210,1063.4526763559,3,1,0,20,1,0
279210,-52.8871391076115,3,1,0,20,0,0
281336,945.626477541371,3,1,0,20,1,8
281336,-71.3723284589426,3,1,0,20,0,8
282281,1574.8031496063,3,1,0,20,1,0
282281,-48.3870967741936,3,1,0,20,0,0
283462,-57.6923076923077,3,1,0,20,0,0
284643,2599.65337954939,3,1,0,20,1,8
284643,-43.2695913010874,3,1,0,20,0,8
287242,2599.65337954939,3,1,0,20,1,0
287242,-90.8661417322835,3,1,0,20,0,0

[HitObjects]
256,192,500,5,12,1:1:0:0:
256,192,3853,5,12,1:1:0:0:
256,192,10948,5,0,1:1:0:0:
256,192,11413,1,0,1:1:0:0:
256,192,11878,1,8,1:1:0:0:
256,192,12343,1,0,1:1:0:0:
256,192,13273,1,8,0:0:0:0:
256,192,13713,1,0,0:0:0:0:
256,192,14421,1,8,0:0:0:0:
256,192,14657,1,0,0:0:0:0:
256,192,15130,1,0,0:0:0:0:
256,192,18437,1,8,0:0:0:0:
256,192,18909,1,0,0:0:0:0:
256,192,19382,1,8,0:0:0:0:
256,192,20327,1,8,0:0:0:0:
256,192,20799,1,0,0:0:0:0:
256,192,21272,1,8,0:0:0:0:
256,192,21744,1,0,0:0:0:0:
256,192,22216,1,8,0:0:0:0:
256,192,25996,1,8,0:0:0:0:
256,192,26468,1,8,0:0:0:0:
256,192,27413,1,8,0:0:0:0:
256,192,27886,1,0,0:0:0:0:
256,192,28831,1,0,0:0:0:0:
256,192,29303,1,8,0:0:0:0:
256,192,29775,1,8,0:0:0:0:
256,192,30248,1,0,0:0:0:0:
256,192,30720,1,0,0:0:0:0:
256,192,33555,1,0,0:0:0:0:
256,192,34500,1,8,0:0:0:0:
256,192,34972,1,0,0:0:0:0:
256,192,35917,1,0,0:0:0:0:
256,192,36390,1,8,0:0:0:0:
256,192,36862,1,8,0:0:0:0:
256,192,37335,1,0,0:0:0:0:
256,192,37807,1,8,0:0:0:0:
256,192,38043,1,0,0:0:0:0:
256,192,38279,1,8,0:0:0:0:
256,192,39224,1,0,0:0:0:0:
256,192,39461,1,0,0:0:0:0:
256,192,39697,1,8,0:0:0:0:
256,192,40642,1,8,0:0:0:0:
256,192,40878,1,0,0:0:0:0:
256,192,41114,1,8,0:0:0:0:
256,192,42059,1,0,0:0:0:0:
256,192,42295,1,0,0:0:0:0:
256,192,42531,1,8,0:0:0:0:
256,192,43476,1,0,0:0:0:0:
256,192,43949,1,0,0:0:0:0:
256,192,44421,1,8,0:0:0:0:
256,192,44894,1,0,0:0:0:0:
256,192,45366,1,8,0:0:0:0:
256,192,45838,1,8,0:0:0:0:
256,192,46311,1,0,0:0:0:0:
256,192,46783,1,0,0:0:0:0:
256,192,47020,1,8,0:0:0:0:
256,192,47256,1,8,0:0:0:0:
256,192,47728,1,0,0:0:0:0:
256,192,48083,1,0,0:0:0:0:
256,192,48142,1,0,0:0:0:0:
256,192,48201,1,8,0:0:0:0:
256,192,48673,1,0,0:0:0:0:
256,192,49027,1,0,0:0:0:0:
256,192,49087,1,8,0:0:0:0:
256,192,49146,1,8,0:0:0:0:
256,192,49382,1,0,0:0:0:0:
256,192,49618,1,8,0:0:0:0:
256,192,50090,1,8,0:0:0:0:
256,192,50445,1,0,0:0:0:0:
256,192,50504,1,0,0:0:0:0:
256,192,50563,1,8,0:0:0:0:
256,192,50799,1,0,0:0:0:0:
256,192,51035,1,0,0:0:0:0:
256,192,51508,1,0,0:0:0:0:
256,192,51980,1,8,0:0:0:0:
256,192,52216,1,0,0:0:0:0:
256,192,52453,1,8,0:0:0:0:
256,192,52925,1,0,0:0:0:0:
256,192,53398,1,0,0:0:0:0:
256,192,53870,1,8,0:0:0:0:
256,192,54342,1,0,0:0:0:0:
256,192,54815,1,8,0:0:0:0:
256,192,55051,1,8,0:0:0:0:
256,192,55287,1,0,0:0:0:0:
256,192,55524,1,0,0:0:0:0:
256,192,55760,1,8,0:0:0:0:
256,192,56232,1,8,0:0:0:0:
256,192,56468,1,0,0:0:0:0:
256,192,56705,1,8,0:0:0:0:
256,192,57177,1,0,0:0:0:0:
256,192,57650,1,8,0:0:0:0:
256,192,57886,1,8,0:0:0:0:
256,192,58122,1,0,0:0:0:0:
256,192,58358,1,8,0:0:0:0:
256,192,58594,1,0,0:0:0:0:
256,192,58831,1,0,0:0:0:0:
256,192,59067,1,8,0:0:0:0:
256,192,59539,1,8,0:0:0:0:
256,192,60012,1,8,0:0:0:0:
256,192,60248,1,0,0:0:0:0:
256,192,60484,1,8,0:0:0:0:
256,192,60957,1,0,0:0:0:0:
256,192,61429,1,8,0:0:0:0:
256,192,61901,1,0,0:0:0:0:
256,192,62374,1,8,0:0:0:0:
256,192,62846,1,8,0:0:0:0:
256,192,63319,1,0,0:0:0:0:
256,192,63555,1,8,0:0:0:0:
256,192,63791,1,0,0:0:0:0:
256,192,64027,1,0,0:0:0:0:
256,192,64264,1,8,0:0:0:0:
256,192,64500,1,0,0:0:0:0:
256,192,64736,1,8,0:0:0:0:
256,192,64972,1,0,0:0:0:0:
256,192,65209,1,0,0:0:0:0:
256,192,65445,1,8,0:0:0:0:
256,192,65681,1,8,0:0:0:0:
256,192,66153,1,0,0:0:0:0:
256,192,66626,1,0,0:0:0:0:
256,192,66862,1,0,0:0:0:0:
256,192,67098,1,8,0:0:0:0:
256,192,67571,1,0,0:0:0:0:
256,192,68043,1,0,0:0:0:0:
256,192,68279,1,0,0:0:0:0:
256,192,68516,1,8,0:0:0:0:
256,192,68988,1,0,0:0:0:0:
256,192,69461,1,8,0:0:0:0:
256,192,69933,1,8,0:0:0:0:
256,192,70405,1,4,0:0:0:0:
256,192,70643,1,0,0:0:0:0:
256,192,70881,1,8,0:0:0:0:
256,192,71119,1,0,0:0:0:0:
256,192,71357,1,8,0:0:0:0:
256,192,71595,1,0,0:0:0:0:
256,192,71833,1,8,0:0:0:0:
256,192,72069,1,8,0:0:0:0:
256,192,72305,1,0,0:0:0:0:
256,192,72541,1,0,0:0:0:0:
256,192,72777,1,8,0:0:0:0:
256,192,73014,1,0,0:0:0:0:
256,192,73132,1,0,0:0:0:0:
256,192,73250,1,12,0:0:0:0:
256,192,73486,1,8,0:0:0:0:
256,192,73722,1,0,0:0:0:0:
256,192,73958,1,8,0:0:0:0:
256,192,74195,1,0,0:0:0:0:
256,192,74431,1,0,0:0:0:0:
256,192,74549,1,0,0:0:0:0:
256,192,74667,1,8,0:0:0:0:
256,192,74903,1,0,0:0:0:0:
256,192,75140,1,8,0:0:0:0:
256,192,75258,1,0,0:0:0:0:
256,192,75376,1,8,0:0:0:0:
256,192,75494,1,0,0:0:0:0:
256,192,75612,1,8,0:0:0:0:
256,192,75848,1,8,0:0:0:0:
256,192,76084,1,4,0:0:0:0:
256,192,76321,1,0,0:0:0:0:
256,192,76557,1,8,0:0:0:0:
256,192,76793,1,0,0:0:0:0:
256,192,77029,1,8,0:0:0:0:
256,192,77266,1,0,0:0:0:0:
256,192,77502,1,8,0:0:0:0:
256,192,77738,1,8,0:0:0:0:
256,192,77974,1,0,0:0:0:0:
256,192,78210,1,0,0:0:0:0:
256,192,78447,1,8,0:0:0:0:
256,192,78683,1,0,0:0:0:0:
256,192,78801,1,0,0:0:0:0:
256,192,78919,1,12,0:0:0:0:
256,192,79392,1,0,0:0:0:0:
256,192,79628,1,8,0:0:0:0:
256,192,80100,1,0,0:0:0:0:
256,192,80336,1,8,0:0:0:0:
256,192,80809,1,0,0:0:0:0:
256,192,81045,1,8,0:0:0:0:
256,192,81281,1,0,0:0:0:0:
256,192,81518,1,0,0:0:0:0:
256,192,81636,1,8,0:0:0:0:
256,192,81754,1,4,0:0:0:0:
256,192,82226,1,0,0:0:0:0:
256,192,82462,1,0,0:0:0:0:
256,192,82699,1,8,0:0:0:0:
256,192,83171,1,8,0:0:0:0:
256,192,83407,1,0,0:0:0:0:
256,192,83644,1,8,0:0:0:0:
256,192,84116,1,8,0:0:0:0:
256,192,84352,1,8,0:0:0:0:
256,192,84588,1,0,0:0:0:0:
256,192,85061,1,0,0:0:0:0:
256,192,85297,1,8,0:0:0:0:
256,192,85533,1,0,0:0:0:0:
256,192,86006,1,8,0:0:0:0:
256,192,86478,1,0,0:0:0:0:
256,192,86951,1,8,0:0:0:0:
256,192,87187,1,0,0:0:0:0:
256,192,87423,1,8,0:0:0:0:
256,192,87895,1,8,0:0:0:0:
256,192,88132,1,8,0:0:0:0:
256,192,88368,1,0,0:0:0:0:
256,192,88840,1,8,0:0:0:0:
256,192,89077,1,0,0:0:0:0:
256,192,89313,1,8,0:0:0:0:
256,192,89549,1,8,0:0:0:0:
256,192,89785,1,0,0:0:0:0:
256,192,90258,1,8,0:0:0:0:
256,192,90494,1,8,0:0:0:0:
256,192,90730,1,0,0:0:0:0:
256,192,90966,1,8,0:0:0:0:
256,192,91203,1,0,0:0:0:0:
256,192,91675,1,8,0:0:0:0:
256,192,92147,1,8,0:0:0:0:
256,192,92620,1,0,0:0:0:0:
256,192,92856,1,0,0:0:0:0:
256,192,93092,1,8,0:0:0:0:
256,192,93329,1,0,0:0:0:0:
256,192,93565,1,8,0:0:0:0:
256,192,93801,1,8,0:0:0:0:
256,192,94037,1,0,0:0:0:0:
256,192,94510,1,8,0:0:0:0:
256,192,94746,1,0,0:0:0:0:
256,192,94982,1,8,0:0:0:0:
256,192,95218,1,8,0:0:0:0:
256,192,95455,1,0,0:0:0:0:
256,192,95927,1,8,0:0:0:0:
256,192,96084,1,0,0:0:0:0:
256,192,96242,1,0,0:0:0:0:
256,192,96399,1,8,0:0:0:0:
256,192,96557,1,0,0:0:0:0:
256,192,96714,1,0,0:0:0:0:
256,192,96872,1,8,0:0:0:0:
256,192,97187,1,0,0:0:0:0:
256,192,97344,1,8,0:0:0:0:
256,192,97659,1,0,0:0:0:0:
256,192,97817,1,8,0:0:0:0:
256,192,97974,1,0,0:0:0:0:
256,192,98132,1,0,0:0:0:0:
256,192,98289,1,8,0:0:0:0:
256,192,98762,1,8,0:0:0:0:
256,192,99234,1,0,0:0:0:0:
256,192,99470,1,0,0:0:0:0:
256,192,99707,1,8,0:0:0:0:
256,192,99943,1,0,0:0:0:0:
256,192,100179,1,8,0:0:0:0:
256,192,100651,1,0,0:0:0:0:
256,192,100888,1,0,0:0:0:0:
256,192,101124,1,8,0:0:0:0:
256,192,101596,1,8,0:0:0:0:
256,192,102069,1,0,0:0:0:0:
256,192,102305,1,8,0:0:0:0:
256,192,102541,1,0,0:0:0:0:
256,192,102777,1,0,0:0:0:0:
256,192,103014,1,8,0:0:0:0:
256,192,103486,1,0,0:0:0:0:
256,192,103722,1,0,0:0:0:0:
256,192,103958,1,8,0:0:0:0:
256,192,104431,1,8,0:0:0:0:
256,192,104667,1,0,0:0:0:0:
256,192,104903,1,8,0:0:0:0:
256,192,105140,1,0,0:0:0:0:
256,192,105376,1,8,0:0:0:0:
256,192,105848,1,8,0:0:0:0:
256,192,106321,1,0,0:0:0:0:
256,192,106557,1,0,0:0:0:0:
256,192,106793,1,8,0:0:0:0:
256,192,107029,1,0,0:0:0:0:
256,192,107266,1,8,0:0:0:0:
256,192,107738,1,8,0:0:0:0:
256,192,108210,1,0,0:0:0:0:
256,192,108683,1,8,0:0:0:0:
256,192,109155,1,8,0:0:0:0:
256,192,109392,1,8,0:0:0:0:
256,192,109628,1,0,0:0:0:0:
256,192,109864,1,0,0:0:0:0:
256,192,109943,1,0,0:0:0:0:
256,192,110021,1,0,0:0:0:0:
256,192,110100,1,8,0:0:0:0:
256,192,110573,1,8,0:0:0:0:
256,192,111281,1,0,0:0:0:0:
256,192,111518,1,0,0:0:0:0:
256,192,111754,1,8,0:0:0:0:
256,192,111990,1,0,0:0:0:0:
256,192,112226,1,0,0:0:0:0:
256,192,112462,1,8,0:0:0:0:
256,192,112935,1,4,0:0:0:0:
256,192,113407,1,0,0:0:0:0:
256,192,113644,1,0,0:0:0:0:
256,192,113880,1,8,0:0:0:0:
256,192,114116,1,8,0:0:0:0:
256,192,114352,1,0,0:0:0:0:
256,192,114588,1,0,0:0:0:0:
256,192,114707,1,0,0:0:0:0:
256,192,114825,1,8,0:0:0:0:
256,192,115061,1,0,0:0:0:0:
256,192,115297,1,8,0:0:0:0:
256,192,115770,1,0,0:0:0:0:
256,192,116006,1,0,0:0:0:0:
256,192,116242,1,8,0:0:0:0:
256,192,116399,1,0,0:0:0:0:
256,192,116557,1,8,0:0:0:0:
256,192,116714,1,8,0:0:0:0:
256,192,117187,1,8,0:0:0:0:
256,192,117423,1,8,0:0:0:0:
256,192,117659,1,0,0:0:0:0:
256,192,117895,1,0,0:0:0:0:
256,192,117974,1,0,0:0:0:0:
256,192,118053,1,0,0:0:0:0:
256,192,118132,1,8,0:0:0:0:
256,192,118368,1,0,0:0:0:0:
256,192,118604,1,8,0:0:0:0:
256,192,118840,1,8,0:0:0:0:
256,192,119077,1,0,0:0:0:0:
256,192,119313,1,8,0:0:0:0:
256,192,119549,1,0,0:0:0:0:
256,192,119785,1,8,0:0:0:0:
256,192,120021,1,0,0:0:0:0:
256,192,120258,1,0,0:0:0:0:
256,192,120376,1,0,0:0:0:0:
256,192,120494,1,8,0:0:0:0:
256,192,120730,1,8,0:0:0:0:
256,192,120966,1,8,0:0:0:0:
256,192,121439,1,8,0:0:0:0:
256,192,121911,1,0,0:0:0:0:
256,192,122147,1,0,0:0:0:0:
256,192,122384,1,8,0:0:0:0:
256,192,122856,1,0,0:0:0:0:
256,192,123092,1,0,0:0:0:0:
256,192,123329,1,8,0:0:0:0:
256,192,123565,1,8,0:0:0:0:
256,192,123801,1,0,0:0:0:0:
256,192,124037,1,0,0:0:0:0:
256,192,124273,1,12,0:0:0:0:
256,192,124510,1,0,0:0:0:0:
256,192,124746,1,8,0:0:0:0:
256,192,124982,1,0,0:0:0:0:
256,192,125218,1,0,0:0:0:0:
256,192,125376,1,8,0:0:0:0:
256,192,125533,1,8,0:0:0:0:
256,192,125691,1,0,0:0:0:0:
256,192,125927,1,8,0:0:0:0:
256,192,126163,1,0,0:0:0:0:
256,192,126399,1,0,0:0:0:0:
256,192,126636,1,8,0:0:0:0:
256,192,126872,1,0,0:0:0:0:
256,192,127108,1,8,0:0:0:0:
256,192,127581,1,8,0:0:0:0:
256,192,127817,1,0,0:0:0:0:
256,192,127935,1,0,0:0:0:0:
256,192,128053,1,0,0:0:0:0:
256,192,128525,1,0,0:0:0:0:
256,192,128762,1,8,0:0:0:0:
256,192,128998,1,0,0:0:0:0:
256,192,129234,1,0,0:0:0:0:
256,192,129470,1,8,0:0:0:0:
256,192,129707,1,8,0:0:0:0:
256,192,129943,1,0,0:0:0:0:
256,192,130888,1,8,0:0:0:0:
256,192,131360,1,0,0:0:0:0:
256,192,132305,1,0,0:0:0:0:
256,192,132777,1,8,0:0:0:0:
256,192,133250,1,8,0:0:0:0:
256,192,133722,1,8,0:0:0:0:
256,192,134195,1,0,0:0:0:0:
256,192,135376,1,8,0:0:0:0:
256,192,135612,1,0,0:0:0:0:
256,192,137029,1,0,0:0:0:0:
256,192,137974,1,8,0:0:0:0:
256,192,138447,1,0,0:0:0:0:
256,192,139392,1,0,0:0:0:0:
256,192,139628,1,0,0:0:0:0:
256,192,139864,1,8,0:0:0:0:
256,192,140336,1,8,0:0:0:0:
256,192,140573,1,8,0:0:0:0:
256,192,140809,1,0,0:0:0:0:
256,192,141124,1,0,0:0:0:0:
256,192,141203,1,0,0:0:0:0:
256,192,141281,1,8,0:0:0:0:
256,192,144116,1,0,0:0:0:0:
256,192,145061,1,8,0:0:0:0:
256,192,145533,1,0,0:0:0:0:
256,192,146478,1,8,0:0:0:0:
256,192,146951,1,0,0:0:0:0:
256,192,147423,1,0,0:0:0:0:
256,192,147895,1,0,0:0:0:0:
256,192,148368,1,8,0:0:0:0:
256,192,148604,12,0,149549,0:0:0:0:
256,192,149785,5,0,0:0:0:0:
256,192,149943,1,0,0:0:0:0:
256,192,150100,1,8,0:0:0:0:
256,192,150258,1,0,0:0:0:0:
256,192,150415,1,8,0:0:0:0:
256,192,150573,1,0,0:0:0:0:
256,192,150730,1,8,0:0:0:0:
256,192,150888,1,0,0:0:0:0:
256,192,151045,1,0,0:0:0:0:
256,192,151203,1,12,0:0:0:0:
256,192,151911,1,0,0:0:0:0:
256,192,152147,1,8,0:0:0:0:
256,192,152384,1,0,0:0:0:0:
256,192,152620,1,12,0:0:0:0:
256,192,153092,1,8,0:0:0:0:
256,192,153329,1,8,0:0:0:0:
256,192,153565,1,0,0:0:0:0:
256,192,154037,1,12,0:0:0:0:
256,192,154510,1,0,0:0:0:0:
256,192,154746,1,8,0:0:0:0:
256,192,154982,1,0,0:0:0:0:
256,192,155455,1,12,0:0:0:0:
256,192,155691,1,0,0:0:0:0:
256,192,155927,1,8,0:0:0:0:
256,192,156163,1,8,0:0:0:0:
256,192,156399,1,0,0:0:0:0:
256,192,156872,1,4,0:0:0:0:
256,192,157344,1,0,0:0:0:0:
256,192,157581,1,0,0:0:0:0:
256,192,157817,1,8,0:0:0:0:
256,192,158053,1,0,0:0:0:0:
256,192,158289,1,12,0:0:0:0:
256,192,158762,1,8,0:0:0:0:
256,192,158998,1,0,0:0:0:0:
256,192,159234,1,8,0:0:0:0:
256,192,159470,1,0,0:0:0:0:
256,192,159707,1,4,0:0:0:0:
256,192,160179,1,8,0:0:0:0:
256,192,160651,1,8,0:0:0:0:
256,192,160888,1,0,0:0:0:0:
256,192,161124,1,12,0:0:0:0:
256,192,161360,1,0,0:0:0:0:
256,192,161596,1,8,0:0:0:0:
256,192,161833,1,8,0:0:0:0:
256,192,162069,1,0,0:0:0:0:
256,192,162305,1,8,0:0:0:0:
256,192,162423,1,0,0:0:0:0:
256,192,162541,1,8,0:0:0:0:
256,192,162777,1,8,0:0:0:0:
256,192,163014,1,0,0:0:0:0:
256,192,163250,1,8,0:0:0:0:
256,192,163486,1,0,0:0:0:0:
256,192,163604,1,0,0:0:0:0:
256,192,163722,1,8,0:0:0:0:
256,192,163840,1,0,0:0:0:0:
256,192,163958,1,12,0:0:0:0:
256,192,164195,1,0,0:0:0:0:
256,192,164431,1,8,0:0:0:0:
256,192,164903,1,8,0:0:0:0:
256,192,165140,1,8,0:0:0:0:
256,192,165376,1,4,0:0:0:0:
256,192,165848,1,8,0:0:0:0:
256,192,166084,1,8,0:0:0:0:
256,192,166321,1,0,0:0:0:0:
256,192,166557,1,8,0:0:0:0:
256,192,166675,1,8,0:0:0:0:
256,192,166793,1,0,0:0:0:0:
256,192,167029,1,0,0:0:0:0:
256,192,167266,1,12,0:0:0:0:
256,192,167738,1,12,0:0:0:0:
256,192,168210,1,4,0:0:0:0:
256,192,168683,1,8,0:0:0:0:
256,192,168919,1,0,0:0:0:0:
256,192,169155,1,0,0:0:0:0:
256,192,169392,1,8,0:0:0:0:
256,192,169510,1,0,0:0:0:0:
256,192,169628,1,8,0:0:0:0:
256,192,169864,1,0,0:0:0:0:
256,192,170100,1,0,0:0:0:0:
256,192,170218,1,0,0:0:0:0:
256,192,170336,1,8,0:0:0:0:
256,192,170573,1,0,0:0:0:0:
256,192,170809,1,8,0:0:0:0:
256,192,171045,1,4,0:0:0:0:
256,192,171518,1,0,0:0:0:0:
256,192,171754,1,0,0:0:0:0:
256,192,171990,1,8,0:0:0:0:
256,192,172462,1,12,0:0:0:0:
256,192,172699,1,0,0:0:0:0:
256,192,172935,1,8,0:0:0:0:
256,192,173171,1,8,0:0:0:0:
256,192,173407,1,0,0:0:0:0:
256,192,173880,1,8,0:0:0:0:
256,192,174352,1,0,0:0:0:0:
256,192,174588,1,0,0:0:0:0:
256,192,174825,1,8,0:0:0:0:
256,192,175061,1,0,0:0:0:0:
256,192,175297,1,12,0:0:0:0:
256,192,175770,1,0,0:0:0:0:
256,192,175927,1,8,0:0:0:0:
256,192,176084,1,0,0:0:0:0:
256,192,176242,1,8,0:0:0:0:
256,192,176714,1,8,0:0:0:0:
256,192,176951,1,0,0:0:0:0:
256,192,177187,1,8,0:0:0:0:
256,192,177344,1,0,0:0:0:0:
256,192,177449,1,8,0:0:0:0:
256,192,177541,1,8,0:0:0:0:
256,192,177600,1,8,0:0:0:0:
256,192,177659,1,0,0:0:0:0:
256,192,177895,1,8,0:0:0:0:
256,192,178132,1,8,0:0:0:0:
256,192,178289,1,0,0:0:0:0:
256,192,178447,1,8,0:0:0:0:
256,192,178604,1,8,0:0:0:0:
256,192,178762,1,0,0:0:0:0:
256,192,178919,1,0,0:0:0:0:
256,192,179077,1,8,0:0:0:0:
256,192,179392,1,0,0:0:0:0:
256,192,179549,1,8,0:0:0:0:
256,192,179617,1,8,0:0:0:0:
256,192,179785,1,0,0:0:0:0:
256,192,180021,1,8,0:0:0:0:
256,192,180179,1,0,0:0:0:0:
256,192,180258,1,8,0:0:0:0:
256,192,180494,1,0,0:0:0:0:
256,192,180612,1,8,0:0:0:0:
256,192,180730,1,0,0:0:0:0:
256,192,180848,1,0,0:0:0:0:
256,192,180977,1,12,0:0:0:0:
256,192,181449,1,0,0:0:0:0:
256,192,181921,1,8,0:0:0:0:
256,192,182158,1,0,0:0:0:0:
256,192,182394,1,8,0:0:0:0:
256,192,182866,1,8,0:0:0:0:
256,192,183102,1,0,0:0:0:0:
256,192,183339,1,8,0:0:0:0:
256,192,183575,1,8,0:0:0:0:
256,192,183811,1,4,0:0:0:0:
256,192,184284,1,0,0:0:0:0:
256,192,184520,1,8,0:0:0:0:
256,192,184756,1,0,0:0:0:0:
256,192,185228,1,8,0:0:0:0:
256,192,185465,1,8,0:0:0:0:
256,192,185701,1,0,0:0:0:0:
256,192,185937,1,8,0:0:0:0:
256,192,186173,1,0,0:0:0:0:
256,192,186410,1,0,0:0:0:0:
256,192,186646,1,8,0:0:0:0:
256,192,186882,1,0,0:0:0:0:
256,192,187118,1,8,0:0:0:0:
256,192,187354,1,0,0:0:0:0:
256,192,187473,1,0,0:0:0:0:
256,192,187591,1,8,0:0:0:0:
256,192,188063,1,4,0:0:0:0:
256,192,188536,1,8,0:0:0:0:
256,192,188772,1,8,0:0:0:0:
256,192,189008,1,0,0:0:0:0:
256,192,189244,1,0,0:0:0:0:
256,192,189480,1,12,0:0:0:0:
256,192,189717,1,0,0:0:0:0:
256,192,189953,1,8,0:0:0:0:
256,192,190189,1,8,0:0:0:0:
256,192,190425,1,0,0:0:0:0:
256,192,190898,1,4,0:0:0:0:
256,192,191370,1,12,0:0:0:0:
256,192,191843,1,0,0:0:0:0:
256,192,192079,1,0,0:0:0:0:
256,192,192197,1,0,0:0:0:0:
256,192,192315,1,8,0:0:0:0:
256,192,192551,1,8,0:0:0:0:
256,192,192788,1,0,0:0:0:0:
256,192,193024,1,8,0:0:0:0:
256,192,193260,1,0,0:0:0:0:
256,192,193732,1,8,0:0:0:0:
256,192,193969,1,8,0:0:0:0:
256,192,194205,1,0,0:0:0:0:
256,192,194441,1,8,0:0:0:0:
256,192,194677,1,8,0:0:0:0:
256,192,194914,1,0,0:0:0:0:
256,192,195150,1,8,0:0:0:0:
256,192,195386,1,8,0:0:0:0:
256,192,195622,1,0,0:0:0:0:
256,192,195858,1,0,0:0:0:0:
256,192,196095,1,8,0:0:0:0:
256,192,196331,1,0,0:0:0:0:
256,192,196567,1,12,0:0:0:0:
256,192,197039,1,8,0:0:0:0:
256,192,197512,1,0,0:0:0:0:
256,192,197748,1,0,0:0:0:0:
256,192,197984,1,8,0:0:0:0:
256,192,198457,1,0,0:0:0:0:
256,192,198929,1,0,0:0:0:0:
256,192,199165,1,0,0:0:0:0:
256,192,199284,1,0,0:0:0:0:
256,192,199402,1,8,0:0:0:0:
256,192,199638,1,8,0:0:0:0:
256,192,199874,1,4,0:0:0:0:
256,192,200347,1,4,0:0:0:0:
256,192,200819,1,12,0:0:0:0:
256,192,201291,1,0,0:0:0:0:
256,192,201528,1,0,0:0:0:0:
256,192,201764,1,8,0:0:0:0:
256,192,202236,1,0,0:0:0:0:
256,192,202473,1,8,0:0:0:0:
256,192,202709,1,0,0:0:0:0:
256,192,202945,1,0,0:0:0:0:
256,192,203063,1,0,0:0:0:0:
256,192,203181,1,8,0:0:0:0:
256,192,203654,1,4,0:0:0:0:
256,192,204126,1,0,0:0:0:0:
256,192,204599,1,8,0:0:0:0:
256,192,204835,1,8,0:0:0:0:
256,192,205071,1,0,0:0:0:0:
256,192,205307,1,0,0:0:0:0:
256,192,205543,1,8,0:0:0:0:
256,192,206016,1,8,0:0:0:0:
256,192,206252,1,8,0:0:0:0:
256,192,206488,1,4,0:0:0:0:
256,192,206961,1,12,0:0:0:0:
256,192,207433,1,4,0:0:0:0:
256,192,207906,1,12,0:0:0:0:
256,192,208378,1,0,0:0:0:0:
256,192,208851,1,0,0:0:0:0:
256,192,209323,1,8,0:0:0:0:
256,192,209795,1,8,0:0:0:0:
256,192,210268,1,8,0:0:0:0:
256,192,210740,1,0,0:0:0:0:
256,192,211449,1,8,0:0:0:0:
256,192,211685,1,0,0:0:0:0:
256,192,212158,1,0,0:0:0:0:
256,192,215465,1,0,0:0:0:0:
256,192,215937,1,0,0:0:0:0:
256,192,216410,1,8,0:0:0:0:
256,192,217354,1,8,0:0:0:0:
256,192,217827,1,0,0:0:0:0:
256,192,218299,1,8,0:0:0:0:
256,192,218772,1,0,0:0:0:0:
256,192,219244,1,8,0:0:0:0:
256,192,224441,5,8,0:0:0:0:
256,192,224914,1,0,0:0:0:0:
256,192,225858,1,8,0:0:0:0:
256,192,226331,1,0,0:0:0:0:
256,192,227276,1,0,0:0:0:0:
256,192,227748,1,8,0:0:0:0:
256,192,228221,1,8,0:0:0:0:
256,192,228693,1,0,0:0:0:0:
256,192,229165,1,8,0:0:0:0:
256,192,232000,1,0,0:0:0:0:
256,192,232945,1,8,0:0:0:0:
256,192,233417,1,0,0:0:0:0:
256,192,234362,1,0,0:0:0:0:
256,192,234835,1,8,0:0:0:0:
256,192,235307,1,0,0:0:0:0:
256,192,235780,1,0,0:0:0:0:
256,192,236252,1,8,0:0:0:0:
256,192,236725,1,0,0:0:0:0:
256,192,237197,1,8,0:0:0:0:
256,192,237433,1,0,0:0:0:0:
256,192,237669,1,8,0:0:0:0:
256,192,238378,1,0,0:0:0:0:
256,192,238614,1,8,0:0:0:0:
256,192,238851,1,8,0:0:0:0:
256,192,239087,1,0,0:0:0:0:
256,192,239323,1,8,0:0:0:0:
256,192,239559,1,0,0:0:0:0:
256,192,240032,1,8,0:0:0:0:
256,192,240504,1,0,0:0:0:0:
256,192,240740,1,8,0:0:0:0:
256,192,240977,1,0,0:0:0:0:
256,192,241213,1,0,0:0:0:0:
256,192,241449,1,8,0:0:0:0:
256,192,241685,1,8,0:0:0:0:
256,192,241921,1,0,0:0:0:0:
256,192,242394,1,0,0:0:0:0:
256,192,242630,1,8,0:0:0:0:
256,192,243308,1,8,0:0:0:0:
256,192,243465,1,0,0:0:0:0:
256,192,243622,1,8,0:0:0:0:
256,192,243780,1,0,0:0:0:0:
256,192,244200,1,0,0:0:0:0:
256,192,244370,1,0,0:0:0:0:
256,192,244489,1,8,0:0:0:0:
256,192,244607,1,0,0:0:0:0:
256,192,244666,1,0,0:0:0:0:
256,192,244725,1,8,0:0:0:0:
256,192,244882,1,0,0:0:0:0:
256,192,245040,1,0,0:0:0:0:
256,192,245197,1,8,0:0:0:0:
256,192,245355,1,0,0:0:0:0:
256,192,245512,1,0,0:0:0:0:
256,192,245670,1,8,0:0:0:0:
256,192,245827,1,0,0:0:0:0:
256,192,245985,1,0,0:0:0:0:
256,192,246142,1,8,0:0:0:0:
256,192,246615,1,0,0:0:0:0:
256,192,248977,1,0,0:0:0:0:
256,192,249213,1,0,0:0:0:0:
256,192,249331,1,0,0:0:0:0:
256,192,249449,1,8,0:0:0:0:
256,192,249685,1,0,0:0:0:0:
256,192,249922,1,8,0:0:0:0:
256,192,250158,1,8,0:0:0:0:
256,192,250394,1,0,0:0:0:0:
256,192,250630,1,0,0:0:0:0:
256,192,250748,1,8,0:0:0:0:
256,192,250867,1,0,0:0:0:0:
256,192,251103,1,0,0:0:0:0:
256,192,251339,1,8,0:0:0:0:
256,192,251575,1,8,0:0:0:0:
256,192,251811,1,0,0:0:0:0:
256,192,252048,1,0,0:0:0:0:
256,192,252284,1,8,0:0:0:0:
256,192,252520,1,0,0:0:0:0:
256,192,252756,1,8,0:0:0:0:
256,192,252993,1,8,0:0:0:0:
256,192,253229,1,0,0:0:0:0:
256,192,253465,1,0,0:0:0:0:
256,192,253701,1,8,0:0:0:0:
256,192,253937,1,8,0:0:0:0:
256,192,254174,1,0,0:0:0:0:
256,192,254410,1,8,0:0:0:0:
256,192,254646,1,0,0:0:0:0:
256,192,255119,1,0,0:0:0:0:
256,192,255355,1,8,0:0:0:0:
256,192,255591,1,0,0:0:0:0:
256,192,256063,1,8,0:0:0:0:
256,192,256300,1,0,0:0:0:0:
256,192,256536,1,8,0:0:0:0:
256,192,256772,1,8,0:0:0:0:
256,192,257008,1,0,0:0:0:0:
256,192,257481,1,0,0:0:0:0:
256,192,257953,1,8,0:0:0:0:
256,192,258426,1,0,0:0:0:0:
256,192,258662,1,0,0:0:0:0:
256,192,258898,1,8,0:0:0:0:
256,192,259056,1,0,0:0:0:0:
256,192,259213,1,0,0:0:0:0:
256,192,259370,1,8,0:0:0:0:
256,192,259843,1,0,0:0:0:0:
256,192,260315,1,8,0:0:0:0:
256,192,260788,1,0,0:0:0:0:
256,192,261260,1,8,0:0:0:0:
256,192,261575,1,0,0:0:0:0:
256,192,261731,1,8,0:0:0:0:
256,192,261889,1,0,0:0:0:0:
256,192,262048,1,0,0:0:0:0:
256,192,262207,1,8,0:0:0:0:
256,192,262445,1,0,0:0:0:0:
256,192,262683,1,8,0:0:0:0:
256,192,262921,1,0,0:0:0:0:
256,192,263159,1,8,0:0:0:0:
256,192,263395,1,0,0:0:0:0:
256,192,263631,1,8,0:0:0:0:
256,192,264103,1,8,0:0:0:0:
256,192,264471,1,0,0:0:0:0:
256,192,264576,1,8,0:0:0:0:
256,192,264812,1,0,0:0:0:0:
256,192,265048,1,8,0:0:0:0:
256,192,265521,1,8,0:0:0:0:
256,192,265993,1,0,0:0:0:0:
256,192,266466,1,8,0:0:0:0:
256,192,266833,1,8,0:0:0:0:
256,192,266938,1,0,0:0:0:0:
256,192,267410,1,8,0:0:0:0:
256,192,267647,1,8,0:0:0:0:
256,192,267883,1,0,0:0:0:0:
256,192,268592,1,0,0:0:0:0:
256,192,268828,1,8,0:0:0:0:
256,192,269064,1,8,0:0:0:0:
256,192,269300,1,0,0:0:0:0:
256,192,269536,1,0,0:0:0:0:
256,192,269773,1,8,0:0:0:0:
256,192,270245,1,0,0:0:0:0:
256,192,271662,1,0,0:0:0:0:
256,192,273080,1,8,0:0:0:0:
256,192,274497,1,8,0:0:0:0:
256,192,277321,1,0,0:0:0:0:
256,192,278502,1,8,0:0:0:0:
256,192,279210,1,0,0:0:0:0:
256,192,281336,1,8,0:0:0:0:
256,192,282281,1,0,0:0:0:0:
256,192,283462,1,8,0:0:0:0:
256,192,284643,1,0,0:0:0:0:
256,192,287242,12,0,289841,0:0:0:0:
