osu file format v14

[General]
AudioFilename: audio.mp3
AudioLeadIn: 0
PreviewTime: 3534
Countdown: 0
SampleSet: Soft
StackLeniency: 0.7
Mode: 2
LetterboxInBreaks: 0
WidescreenStoryboard: 1

[Editor]
Bookmarks: 28253
DistanceSpacing: 1.9
BeatDivisor: 4
GridSize: 4
TimelineZoom: 1.7

[Metadata]
Title:Padoru Padoru
TitleUnicode:Padoru Padoru
Artist:Selphius
ArtistUnicode:Selphius
Creator:Stardust Prism
Version:Platter
Source:Fate/EXTRA
Tags:christmas xmas cover selphy japanese anime フェイト/エクストラ Nero Claudius ネロ・クラウディウス Jingle Bells video game vgm Hashire sori yo kaze no you ni SelphiusMelody
BeatmapID:3321630
BeatmapSetID:1626959

[Difficulty]
HPDrainRate:5
CircleSize:3.5
OverallDifficulty:8
ApproachRate:8
SliderMultiplier:2.13
SliderTickRate:2

[Events]
//Background and Video events
0,0,"padoru.png",0,0
//Break Periods
//Storyboard Layer 0 (Background)
//Storyboard Layer 1 (Fail)
//Storyboard Layer 2 (Pass)
//Storyboard Layer 3 (Foreground)
//Storyboard Layer 4 (Overlay)
//Storyboard Sound Samples

[TimingPoints]
240,500,4,2,0,30,1,0
240,-100,4,2,6,30,0,0
1490,-100,4,2,7,30,0,0
2240,-100,4,2,8,30,0,0
2740,-100,4,2,6,30,0,0
2990,-100,4,2,5,30,0,0
3240,-100,4,2,4,30,0,0
4240,-100,4,2,0,45,0,0
12472,500,4,2,0,45,1,0
12722,500,4,2,0,45,1,0
14222,500,4,2,0,45,1,0
19707,500,4,2,0,45,1,0
20209,500,4,2,0,45,1,1
35709,-100,4,2,0,45,0,0

[Colours]
Combo1 : 0,255,255
Combo2 : 225,81,225
Combo3 : 46,222,68
Combo4 : 118,61,72

[HitObjects]
367,266,240,6,8,L|478:266,2,106.5
154,251,1240,2,0,L|2:251,2,106.5,8|8|8,0:0|0:0|0:0,0:0:0:0:
278,295,1990,1,8,0:0:0:0:
65,303,2240,6,8,L|65:176,1,106.5
191,152,2740,2,0,L|64:152,1,106.5,8|8,0:0|2:0,0:0:0:0:
286,137,3240,1,8,0:0:0:0:
52,304,3990,1,0,0:0:0:0:
373,323,4240,6,0,L|446:213,1,106.5,8|0,0:0|0:0,0:0:0:0:
240,204,4740,2,0,L|103:204,1,106.5,2|0,0:0|0:0,0:0:0:0:
325,321,5240,2,0,P|395:257|307:203,1,213,8|2,0:0|0:0,0:0:0:0:
215,199,5990,1,0,0:0:0:0:
407,150,6240,6,0,L|287:150,1,106.5,8|0,0:0|0:0,0:0:0:0:
108,305,6740,2,0,L|98:187,1,106.5,2|0,0:0|0:0,0:0:0:0:
292,131,7240,2,0,L|63:132,1,213,8|2,0:0|0:0,0:0:0:0:
186,129,7990,1,0,0:0:0:0:
378,279,8240,6,0,L|378:150,1,106.5,8|0,0:0|0:0,0:0:0:0:
186,139,8740,2,0,L|69:139,1,106.5,2|0,0:0|0:0,0:0:0:0:
270,278,9240,2,0,P|334:215|240:160,1,213,8|2,0:0|0:0,0:0:0:0:
147,157,9990,1,0,0:0:0:0:
467,312,10240,6,0,L|477:187,1,106.5,8|0,0:0|0:0,0:0:0:0:
282,148,10740,2,0,L|408:148,1,106.5,2|0,0:0|0:0,0:0:0:0:
197,307,11240,2,0,P|218:205|326:156,1,213,8|2,0:0|0:0,0:0:0:0:
421,147,11990,1,0,0:0:0:0:
100,259,12240,6,0,L|107:133,1,99,8|0,0:0|0:0,0:0:0:0:
284,137,12722,2,0,L|300:18,1,106.5,2|0,0:0|0:0,0:0:0:0:
106,290,13222,2,0,L|331:290,1,213,8|2,0:0|0:0,0:0:0:0:
427,271,13972,1,0,0:0:0:0:
235,231,14222,6,0,L|249:117,1,106.5,8|0,0:0|0:0,0:0:0:0:
56,181,14722,2,0,L|43:53,1,106.5,2|0,0:0|0:0,0:0:0:0:
237,282,15222,2,0,P|299:255|229:159,1,213,8|2,0:0|0:0,0:0:0:0:
135,164,15972,1,0,0:0:0:0:
327,138,16222,6,0,L|465:138,1,106.5,8|0,0:0|0:0,0:0:0:0:
242,214,16722,2,0,L|235:74,1,106.5,2|0,0:0|0:0,0:0:0:0:
426,354,17222,2,0,P|487:320|413:231,1,213,8|2,0:0|0:0,0:0:0:0:
333,229,17972,1,0,0:0:0:0:
17,254,18222,6,0,L|130:255,1,106.5,8|0,0:0|0:0,0:0:0:0:
316,212,18722,2,0,L|442:212,1,106.5,2|0,0:0|0:0,0:0:0:0:
231,299,19222,2,0,L|100:299,1,106.5,8|0,0:0|0:0,0:0:0:0:
452,288,19707,1,6,0:0:0:0:
230,316,20209,6,0,L|356:316,1,106.5,8|0,0:0|0:0,0:0:0:0:
145,335,20709,2,0,L|145:218,1,106.5,2|0,0:0|0:0,0:0:0:0:
337,191,21209,2,0,L|222:191,1,106.5,8|0,0:0|0:0,0:0:0:0:
39,323,21709,2,0,L|39:189,1,106.5,2|0,0:0|0:0,0:0:0:0:
241,323,22209,6,0,L|115:323,1,106.5,8|0,0:0|0:0,0:0:0:0:
326,317,22709,2,0,L|173:317,1,106.5,2|0,0:0|0:0,0:0:0:0:
420,298,23209,2,0,P|488:259|415:177,1,213,8|2,0:0|0:0,0:0:0:0:
334,172,23959,1,0,0:0:0:0:
19,246,24209,6,0,L|139:246,1,106.5,8|0,0:0|0:0,0:0:0:0:
309,312,24709,2,0,L|309:178,1,106.5,2|0,0:0|0:0,0:0:0:0:
117,209,25209,2,0,L|-17:209,1,106.5,8|0,0:0|0:0,0:0:0:0:
202,332,25709,2,0,L|202:185,1,106.5,2|0,0:0|0:0,0:0:0:0:
404,233,26209,6,0,L|287:232,1,106.5,8|0,0:0|0:0,0:0:0:0:
105,211,26709,2,0,L|251:211,1,106.5,2|0,0:0|0:0,0:0:0:0:
403,323,27209,2,0,L|403:194,1,106.5,8|0,0:0|0:0,0:0:0:0:
84,209,27709,1,6,0:0:0:0:
297,346,28209,6,0,L|164:345,1,106.5,8|0,0:0|0:0,0:0:0:0:
383,343,28709,2,0,L|382:210,1,106.5,2|0,0:0|0:0,0:0:0:0:
191,219,29209,2,0,L|314:219,1,106.5,8|0,0:0|0:0,0:0:0:0:
489,268,29709,2,0,L|489:147,1,106.5,2|0,0:0|0:0,0:0:0:0:
287,316,30209,6,0,L|397:316,1,106.5,8|0,0:0|0:0,0:0:0:0:
202,267,30709,2,0,L|327:267,1,106.5,2|0,0:0|0:0,0:0:0:0:
113,320,31209,2,0,P|47:299|101:180,1,213,8|2,0:0|0:0,0:0:0:0:
172,171,31959,1,0,0:0:0:0:
491,151,32209,6,0,L|375:151,1,106.5,8|0,0:0|0:0,0:0:0:0:
193,321,32709,2,0,L|193:187,1,106.5,2|0,0:0|0:0,0:0:0:0:
385,184,33209,2,0,L|499:184,1,106.5,8|0,0:0|0:0,0:0:0:0:
300,291,33709,2,0,L|300:157,1,106.5,2|0,0:0|0:0,0:0:0:0:
98,176,34209,6,0,L|216:176,1,106.5,8|0,0:0|0:0,0:0:0:0:
396,145,34709,2,0,L|274:145,1,106.5,2|0,0:0|0:0,0:0:0:0:
98,319,35209,2,0,L|98:190,1,106.5,8|0,0:0|0:0,0:0:0:0:
418,223,35709,1,6,0:0:0:0:
