osu file format v14

[General]
AudioFilename: audio.mp3
AudioLeadIn: 0
PreviewTime: 3990
Countdown: 0
SampleSet: Soft
StackLeniency: 0.7
Mode: 3
LetterboxInBreaks: 0
SpecialStyle: 0
WidescreenStoryboard: 1

[Editor]
DistanceSpacing: 1.9
BeatDivisor: 2
GridSize: 4
TimelineZoom: 1.8

[Metadata]
Title:Padoru Padoru
TitleUnicode:Padoru Padoru
Artist:Selphius
ArtistUnicode:Selphius
Creator:Lumpita
Version:Easy
Source:Fate/EXTRA
Tags:vocals novelty christmas xmas cover selphy japanese anime フェイト/エクストラ nero claudius ネロ・クラウディウス jingle bells video game vgm hashire sori yo kaze no you ni selphiusmelody
BeatmapID:4412433
BeatmapSetID:2103039

[Difficulty]
HPDrainRate:6.5
CircleSize:4
OverallDifficulty:6.5
ApproachRate:5
SliderMultiplier:1.4
SliderTickRate:1

[Events]
//Background and Video events
0,0,"padowonyoom.jpg",0,0
//Break Periods
//Storyboard Layer 0 (Background)
//Storyboard Layer 1 (Fail)
//Storyboard Layer 2 (Pass)
//Storyboard Layer 3 (Foreground)
//Storyboard Layer 4 (Overlay)
//Storyboard Sound Samples

[TimingPoints]
240,500,4,2,1,40,1,0
4240,500,4,2,1,40,1,0
12472,500,4,2,1,40,1,8
12722,500,4,2,1,40,1,8
14222,500,4,2,1,40,1,0
19746,500,4,2,1,40,1,8
20209,500,4,2,1,40,1,1
35709,-100,4,2,1,40,0,0

[HitObjects]
64,192,240,5,0,0:0:0:0:
192,192,490,1,0,0:0:0:0:
320,192,740,1,0,0:0:0:0:
448,192,1240,1,0,0:0:0:0:
320,192,1490,1,0,0:0:0:0:
192,192,1740,1,0,0:0:0:0:
64,192,2240,1,0,0:0:0:0:
448,192,2490,1,0,0:0:0:0:
192,192,2740,1,0,0:0:0:0:
320,192,2990,1,0,0:0:0:0:
448,192,3240,128,0,4240:0:0:0:0:
320,192,4240,1,0,0:0:0:0:
64,192,4490,1,0,0:0:0:0:
448,192,4740,1,0,0:0:0:0:
192,192,4990,1,0,0:0:0:0:
64,192,5240,128,0,5740:0:0:0:0:
320,192,5740,1,0,0:0:0:0:
448,192,6240,1,0,0:0:0:0:
192,192,6490,1,0,0:0:0:0:
320,192,6740,1,0,0:0:0:0:
64,192,6990,1,0,0:0:0:0:
320,192,7240,128,0,7740:0:0:0:0:
448,192,7740,1,0,0:0:0:0:
64,192,8240,1,0,0:0:0:0:
192,192,8490,1,0,0:0:0:0:
320,192,8740,1,0,0:0:0:0:
448,192,8990,1,0,0:0:0:0:
192,192,9240,128,0,9740:0:0:0:0:
64,192,9740,1,0,0:0:0:0:
448,192,10240,1,0,0:0:0:0:
64,192,10490,1,0,0:0:0:0:
320,192,10740,1,0,0:0:0:0:
192,192,10990,1,0,0:0:0:0:
448,192,11240,128,0,11740:0:0:0:0:
64,192,11740,1,0,0:0:0:0:
192,192,12240,1,0,0:0:0:0:
320,192,12472,1,0,0:0:0:0:
64,192,12722,1,0,0:0:0:0:
448,192,12972,1,0,0:0:0:0:
192,192,13222,128,0,13722:0:0:0:0:
320,192,13722,1,0,0:0:0:0:
64,192,14222,1,0,0:0:0:0:
192,192,14472,1,0,0:0:0:0:
448,192,14722,1,0,0:0:0:0:
320,192,14972,1,0,0:0:0:0:
64,192,15222,128,0,15722:0:0:0:0:
448,192,15722,1,0,0:0:0:0:
192,192,16222,1,0,0:0:0:0:
320,192,16472,1,0,0:0:0:0:
64,192,16722,1,0,0:0:0:0:
448,192,16972,1,0,0:0:0:0:
192,192,17222,128,0,17722:0:0:0:0:
320,192,17722,1,0,0:0:0:0:
448,192,18222,1,0,0:0:0:0:
64,192,18472,1,0,0:0:0:0:
320,192,18722,1,0,0:0:0:0:
192,192,18972,1,0,0:0:0:0:
448,192,19222,128,0,19746:0:0:0:0:
64,192,19746,1,0,0:0:0:0:
192,192,19746,1,0,0:0:0:0:
448,192,20209,1,0,0:0:0:0:
320,192,20459,1,0,0:0:0:0:
192,192,20709,1,0,0:0:0:0:
64,192,21209,1,0,0:0:0:0:
192,192,21459,1,0,0:0:0:0:
320,192,21709,1,0,0:0:0:0:
64,192,22209,1,0,0:0:0:0:
448,192,22459,1,0,0:0:0:0:
192,192,22709,1,0,0:0:0:0:
320,192,22959,1,0,0:0:0:0:
64,192,23209,128,0,23709:0:0:0:0:
192,192,23709,1,0,0:0:0:0:
320,192,23959,1,0,0:0:0:0:
448,192,24209,1,0,0:0:0:0:
64,192,24459,1,0,0:0:0:0:
320,192,24709,1,0,0:0:0:0:
64,192,25209,1,0,0:0:0:0:
448,192,25459,1,0,0:0:0:0:
192,192,25709,1,0,0:0:0:0:
448,192,26209,1,0,0:0:0:0:
320,192,26459,1,0,0:0:0:0:
64,192,26709,1,0,0:0:0:0:
192,192,26959,1,0,0:0:0:0:
320,192,27209,128,0,27709:0:0:0:0:
64,192,27709,1,0,0:0:0:0:
448,192,27959,1,0,0:0:0:0:
192,192,28209,1,0,0:0:0:0:
320,192,28459,1,0,0:0:0:0:
192,192,28709,1,0,0:0:0:0:
448,192,29209,1,0,0:0:0:0:
64,192,29459,1,0,0:0:0:0:
448,192,29709,1,0,0:0:0:0:
192,192,30209,1,0,0:0:0:0:
320,192,30459,1,0,0:0:0:0:
64,192,30709,1,0,0:0:0:0:
448,192,30959,1,0,0:0:0:0:
192,192,31209,128,0,31709:0:0:0:0:
448,192,31709,1,0,0:0:0:0:
64,192,31959,1,0,0:0:0:0:
320,192,32209,1,0,0:0:0:0:
64,192,32459,1,0,0:0:0:0:
448,192,32709,1,0,0:0:0:0:
192,192,33209,1,0,0:0:0:0:
448,192,33459,1,0,0:0:0:0:
64,192,33709,1,0,0:0:0:0:
320,192,34209,1,0,0:0:0:0:
448,192,34459,1,0,0:0:0:0:
192,192,34709,1,0,0:0:0:0:
64,192,34959,1,0,0:0:0:0:
448,192,35209,128,0,35709:0:0:0:0:
64,192,35709,1,0,0:0:0:0:
192,192,35709,1,0,0:0:0:0:
