osu file format v14

[General]
AudioFilename: audio.mp3
AudioLeadIn: 0
PreviewTime: 20115
Countdown: 0
SampleSet: Normal
StackLeniency: 0.7
Mode: 1
LetterboxInBreaks: 0
WidescreenStoryboard: 0

[Editor]
DistanceSpacing: 1.2
BeatDivisor: 4
GridSize: 16
TimelineZoom: 2.5

[Metadata]
Title:Padoru Padoru
TitleUnicode:Padoru Padoru
Artist:Selphius
ArtistUnicode:Selphius
Creator:Flan_Fan
Version:Muzukashii
Source:Fate/EXTRA
Tags:christmas xmas cover selphy japanese anime フェイト/エクストラ Nero Claudius ネロ・クラウディウス Jingle Bells video game music videogame vgm novelty Hashire sori yo kaze no you ni SelphiusMelody
BeatmapID:3333452
BeatmapSetID:1633078

[Difficulty]
HPDrainRate:8
CircleSize:5
OverallDifficulty:4
ApproachRate:5
SliderMultiplier:1.4
SliderTickRate:1

[Events]
//Background and Video events
0,0,"padorudobezooming.png",0,6
//Break Periods
//Storyboard Layer 0 (Background)
//Storyboard Layer 1 (Fail)
//Storyboard Layer 2 (Pass)
//Storyboard Layer 3 (Foreground)
//Storyboard Layer 4 (Overlay)
//Storyboard Sound Samples

[TimingPoints]
240,500,4,1,0,30,1,0
4240,500,4,1,0,40,1,0
12472,500,4,1,0,40,1,8
12722,500,4,1,0,40,1,8
14222,500,4,1,0,40,1,0
19707,500,4,1,0,40,1,8
20209,500,4,1,0,40,1,1
35709,-100,4,1,0,40,0,0

[Colours]
Combo1 : 0,0,0
Combo2 : 255,255,0
Combo3 : 255,255,0
Combo4 : 255,255,255
Combo5 : 255,255,255
Combo6 : 128,0,255
Combo7 : 128,0,255
Combo8 : 0,0,0

[HitObjects]
100,293,240,5,8,0:0:0:0:
100,293,490,1,8,0:0:0:0:
100,293,740,1,0,0:0:0:0:
217,169,1115,1,0,0:0:0:0:
217,169,1240,1,8,0:0:0:0:
217,169,1490,1,8,0:0:0:0:
217,169,1740,1,0,0:0:0:0:
217,169,1990,1,0,0:0:0:0:
217,169,2115,1,0,0:0:0:0:
217,169,2240,1,8,0:0:0:0:
151,174,2490,1,8,0:0:0:0:
151,174,2740,1,0,0:0:0:0:
151,174,2990,1,8,0:0:0:0:
151,174,3240,1,0,0:0:0:0:
245,188,3990,1,0,0:0:0:0:
245,188,4240,1,0,0:0:0:0:
239,172,4490,1,8,0:0:0:0:
239,172,4740,1,8,0:0:0:0:
239,172,4990,1,0,0:0:0:0:
239,172,5240,1,8,0:0:0:0:
239,172,5990,1,0,0:0:0:0:
239,172,6240,1,8,0:0:0:0:
239,172,6490,1,8,0:0:0:0:
239,172,6740,1,0,0:0:0:0:
381,139,6990,1,0,0:0:0:0:
239,172,7240,1,8,0:0:0:0:
156,200,7990,1,0,0:0:0:0:
172,202,8240,1,8,0:0:0:0:
176,202,8490,1,8,0:0:0:0:
176,202,8740,1,0,0:0:0:0:
176,202,8990,1,8,0:0:0:0:
176,202,9240,1,0,0:0:0:0:
221,178,9990,1,8,0:0:0:0:
221,178,10240,1,0,0:0:0:0:
221,178,10490,1,0,0:0:0:0:
221,178,10740,1,8,0:0:0:0:
221,178,10990,1,0,0:0:0:0:
221,178,11240,1,8,0:0:0:0:
245,188,11990,1,0,0:0:0:0:
245,188,12240,1,8,0:0:0:0:
239,172,12472,1,8,0:0:0:0:
239,172,12722,1,0,0:0:0:0:
239,172,12972,1,8,0:0:0:0:
239,172,13222,1,0,0:0:0:0:
239,172,13972,1,0,0:0:0:0:
239,172,14222,1,8,0:0:0:0:
239,172,14472,1,8,0:0:0:0:
239,172,14722,1,0,0:0:0:0:
381,139,14972,1,8,0:0:0:0:
239,172,15222,1,0,0:0:0:0:
156,200,15972,1,0,0:0:0:0:
172,202,16222,1,8,0:0:0:0:
176,202,16472,1,0,0:0:0:0:
176,202,16722,1,0,0:0:0:0:
176,202,16972,1,8,0:0:0:0:
176,202,17222,1,8,0:0:0:0:
221,178,17972,1,8,0:0:0:0:
221,178,18222,1,8,0:0:0:0:
221,178,18472,1,0,0:0:0:0:
221,178,18722,1,8,0:0:0:0:
221,178,18972,1,0,0:0:0:0:
221,178,19222,1,0,0:0:0:0:
71,146,19707,1,8,0:0:0:0:
361,49,20209,1,0,0:0:0:0:
361,49,20459,1,0,0:0:0:0:
361,49,20709,1,8,0:0:0:0:
361,49,21209,1,0,0:0:0:0:
361,49,21459,1,0,0:0:0:0:
361,49,21709,1,8,0:0:0:0:
361,49,22209,1,0,0:0:0:0:
286,80,22459,1,8,0:0:0:0:
286,80,22709,1,0,0:0:0:0:
286,80,22959,1,8,0:0:0:0:
286,80,23209,1,8,0:0:0:0:
286,80,24209,1,8,0:0:0:0:
286,80,24459,1,0,0:0:0:0:
286,80,24709,1,0,0:0:0:0:
286,80,25209,1,8,0:0:0:0:
286,80,25459,1,0,0:0:0:0:
286,80,25709,1,0,0:0:0:0:
286,80,26209,1,8,0:0:0:0:
286,80,26459,1,0,0:0:0:0:
286,80,26709,1,8,0:0:0:0:
286,80,26959,1,0,0:0:0:0:
286,80,27209,1,0,0:0:0:0:
180,205,27709,1,8,0:0:0:0:
361,49,28209,1,0,0:0:0:0:
361,49,28459,1,0,0:0:0:0:
361,49,28709,1,8,0:0:0:0:
361,49,29209,1,0,0:0:0:0:
361,49,29459,1,0,0:0:0:0:
361,49,29709,1,8,0:0:0:0:
361,49,30209,1,0,0:0:0:0:
286,80,30459,1,8,0:0:0:0:
286,80,30709,1,0,0:0:0:0:
286,80,30959,1,8,0:0:0:0:
286,80,31209,1,8,0:0:0:0:
286,80,32209,1,8,0:0:0:0:
286,80,32459,1,0,0:0:0:0:
286,80,32709,1,0,0:0:0:0:
286,80,33209,1,8,0:0:0:0:
286,80,33459,1,0,0:0:0:0:
286,80,33709,1,0,0:0:0:0:
286,80,34209,1,8,0:0:0:0:
286,80,34459,1,0,0:0:0:0:
286,80,34709,1,8,0:0:0:0:
286,80,34959,1,0,0:0:0:0:
286,80,35209,1,0,0:0:0:0:
