osu file format v14

[General]
AudioFilename: audio.mp3
AudioLeadIn: 0
PreviewTime: 54350
Countdown: 1
SampleSet: Drum
StackLeniency: 0.4
Mode: 0
LetterboxInBreaks: 0
WidescreenStoryboard: 1

[Editor]
Bookmarks: 858,4858,12858,20858,24858,32858,36858,44858,54858,61608,65350,70858,74858,80858,88600
DistanceSpacing: 1
BeatDivisor: 1
GridSize: 4
TimelineZoom: 0.8000058

[Metadata]
Title:Los! Los! Los!
TitleUnicode:Los! Los! Los!
Artist:Selphius
ArtistUnicode:Selphius
Creator:mindmaster107
Version:Normal
Source:幼女戦記
Tags:german losloslos ed ending tv size The Saga of Tanya the Evil Youjo Senki Yagi Yuuichi
BeatmapID:1927748
BeatmapSetID:922054

[Difficulty]
HPDrainRate:5
CircleSize:3
OverallDifficulty:5
ApproachRate:5
SliderMultiplier:0.999999999999999
SliderTickRate:1

[Events]
//Background and Video events
0,0,"dbsb3js-0815c89b-a5bb-408e-a2f7-c3d7aca089e9.jpg",0,0
//Break Periods
2,1850,3600
2,25050,31650
2,41050,43650
2,52850,53650
//Storyboard Layer 0 (Background)
//Storyboard Layer 1 (Fail)
//Storyboard Layer 2 (Pass)
//Storyboard Layer 3 (Foreground)
//Storyboard Layer 4 (Overlay)
//Storyboard Sound Samples

[TimingPoints]
850,250,4,3,1,80,1,0
850,-100,4,3,1,80,0,0
1100,-100,4,3,1,60,0,0
1850,-100,4,3,1,50,0,0
2350,-100,4,3,1,40,0,0
2850,-100,4,3,1,80,0,0
3225,-100,4,3,1,60,0,0
3850,-100,4,3,1,50,0,0
4350,-100,4,3,1,40,0,0
4850,-100,4,3,1,60,0,0
8850,-100,4,3,1,60,0,0
9350,-100,4,3,1,60,0,0
9850,-100,4,3,1,60,0,0
10350,-100,4,3,1,60,0,0
12850,-100,4,3,1,80,0,0
19600,-100,4,3,1,80,0,0
19850,-100,4,3,1,80,0,0
20850,-100,4,3,1,40,0,0
22850,-100,4,3,1,80,0,0
24850,-100,4,3,1,40,0,0
32850,-100,4,3,1,60,0,0
36850,-100,4,3,1,80,0,0
40350,-100,4,3,1,60,0,0
40850,-100,4,3,1,60,0,0
44850,-100,4,3,1,80,0,0
54350,-100,4,3,1,60,0,0
54600,-100,4,3,1,80,0,0
54850,-100,4,3,1,100,0,1
70850,-100,4,3,1,80,0,0
74850,-100,4,3,1,100,0,1
78850,-125,4,3,1,100,0,1
80350,-100,4,3,1,60,0,1
80850,-100,4,3,1,80,0,0
87850,-100,4,3,1,100,0,1
88600,-100,4,3,99,100,0,0
89850,-100,4,2,1,5,0,0

[Colours]
Combo1 : 122,29,29
Combo2 : 251,214,0
Combo3 : 206,26,26
Combo4 : 254,145,12

[HitObjects]
256,192,850,5,0,0:0:0:0:
56,348,4850,6,0,P|69:258|159:271,3,200,0|0|0|2,0:0|0:0|0:0|0:0,0:0:0:0:
352,271,6850,6,0,P|442:258|456:348,3,200,0|0|0|2,0:0|0:0|0:0|0:0,0:0:0:0:
256,192,8850,12,8,11850,0:1:0:0:
123,216,12850,5,4,0:2:0:0:
85,308,13100,1,0,0:0:0:0:
25,230,13350,1,2,0:0:0:0:
184,294,13850,2,0,P|178:343|150:384,2,99.9999999999999,2|0|2,0:0|0:0|0:0,0:0:0:0:
349,200,14850,5,2,0:0:0:0:
425,384,15350,1,2,0:0:0:0:
486,306,15600,1,2,0:0:0:0:
448,214,15850,1,2,0:0:0:0:
346,49,16350,5,4,0:0:0:0:
246,57,16600,1,8,0:0:0:0:
146,66,16850,1,4,0:2:0:0:
267,220,17350,2,0,L|278:336,2,99.9999999999999,4|4|4,0:1|0:0|0:2,0:0:0:0:
144,56,18350,5,4,0:1:0:0:
244,47,18600,1,4,0:0:0:0:
344,39,18850,1,4,0:1:0:0:
266,210,19350,1,8,0:0:0:0:
171,91,19850,5,8,0:0:0:0:
331,77,20350,1,4,0:0:0:0:
280,311,20850,1,4,0:1:0:0:
256,192,22850,12,8,24850,0:1:0:0:
6,380,32850,5,4,0:0:0:0:
45,225,33350,1,4,0:0:0:0:
160,335,33850,2,0,B|261:390|248:290|349:332,1,200,4|0,0:0|0:1,0:0:0:0:
504,359,34850,5,4,0:0:0:0:
465,204,35350,1,4,0:0:0:0:
350,314,35850,2,0,B|249:369|262:269|161:311,1,200,4|0,0:0|0:1,0:0:0:0:
18,171,36850,6,0,P|20:82|108:93,1,200,4|2,0:2|0:0,0:0:0:0:
143,181,37600,1,0,0:0:0:0:
209,114,37850,1,2,0:0:0:0:
209,114,38100,1,0,0:0:0:0:
297,139,38350,1,2,0:1:0:0:
491,268,38850,6,0,P|488:356|400:345,1,200,4|2,0:1|0:0,0:0:0:0:
366,258,39600,1,0,0:0:0:0:
300,325,39850,1,2,0:0:0:0:
300,325,40100,1,0,0:0:0:0:
212,300,40350,2,0,B|97:258|137:346|21:303,1,200,8|4,0:1|0:2,0:0:0:0:
512,228,44850,6,0,L|501:335,1,99.9999999999999,4|0,0:1|0:0,0:0:0:0:
414,383,45350,2,0,L|403:283,1,99.9999999999999,2|0,0:0|0:0,0:0:0:0:
311,344,45850,2,0,P|240:348|215:282,1,150,2|2,0:0|0:0,0:0:0:0:
297,158,46600,5,4,0:0:0:0:
297,158,46850,2,0,L|286:51,1,99.9999999999999,4|0,0:1|0:0,0:0:0:0:
199,3,47350,2,0,L|188:102,1,99.9999999999999,2|0,0:0|0:0,0:0:0:0:
96,42,47850,2,0,P|25:38|0:104,1,150,2|2,0:0|0:0,0:0:0:0:
48,252,48600,5,4,0:0:0:0:
48,252,48850,1,4,0:1:0:0:
256,252,49350,1,0,0:0:0:0:
464,252,49850,1,0,0:0:0:0:
256,252,50350,1,2,0:0:0:0:
48,252,50850,6,0,P|61:167|188:153,1,200,4|4,0:0|0:0,0:0:0:0:
352,137,51850,2,0,P|444:159|464:252,1,200,4|4,0:0|0:0,0:0:0:0:
118,204,54850,5,4,0:1:0:0:
19,222,55100,1,0,0:0:0:0:
84,299,55350,1,2,0:0:0:0:
282,256,55850,5,2,0:0:0:0:
166,277,56100,1,0,0:0:0:0:
242,366,56350,1,2,0:0:0:0:
470,338,56850,6,0,P|436:374|387:382,1,99.9999999999999,2|2,0:0|0:0,0:0:0:0:
298,273,57350,2,0,P|341:299|389:293,1,99.9999999999999,2|2,0:0|0:0,0:0:0:0:
473,239,57851,2,0,B|511:127|409:162|440:53,1,200,4|4,0:2|0:0,0:0:0:0:
240,45,58850,6,0,B|185:98|185:98|55:83,1,200,4|2,0:2|0:0,0:0:0:0:
11,12,59600,1,2,0:0:0:0:
11,12,59850,1,4,0:2:0:0:
44,184,60350,5,2,0:0:0:0:
61,282,60600,1,2,0:0:0:0:
78,380,60850,2,0,P|157:359|144:249,1,200,8|4,0:0|0:0,0:0:0:0:
359,256,61850,2,0,P|347:348|434:380,1,200,4|4,0:0|0:0,0:0:0:0:
413,170,62850,5,4,0:1:0:0:
512,152,63100,1,0,0:0:0:0:
447,75,63350,1,2,0:0:0:0:
249,118,63850,5,2,0:0:0:0:
365,97,64100,1,0,0:0:0:0:
289,8,64350,1,2,0:0:0:0:
182,187,64849,6,0,P|137:208|88:205,1,99.9999999999999,2|2,0:0|0:0,0:0:0:0:
23,95,65350,2,0,P|72:91|116:113,1,99.9999999999999,2|2,0:0|0:0,0:0:0:0:
0,186,65851,2,0,B|-31:294|70:259|32:371,1,200,4|4,0:2|0:0,0:0:0:0:
225,317,66850,6,0,B|280:264|280:264|410:279,1,200,4|2,0:2|0:0,0:0:0:0:
454,350,67600,1,2,0:0:0:0:
454,350,67850,1,4,0:2:0:0:
503,156,68350,5,2,0:0:0:0:
405,139,68600,1,2,0:0:0:0:
307,122,68850,1,8,0:0:0:0:
76,86,69350,2,0,P|167:73|199:160,2,200,4|8|4,0:0|0:0|0:0,0:0:0:0:
54,255,70850,6,0,P|77:317|76:364,2,99.9999999999999,4|0|8,0:2|0:0|0:1,0:0:0:0:
168,293,71600,1,0,0:0:0:0:
168,293,71850,2,0,B|267:315|267:315|351:262,1,200,4|8,0:0|0:1,0:0:0:0:
512,146,72850,6,0,P|508:96|488:50,2,99.9999999999999,4|0|8,0:2|0:0|0:1,0:0:0:0:
412,123,73600,1,0,0:0:0:0:
412,123,73850,2,0,B|313:145|313:145|229:92,1,200,4|8,0:0|0:1,0:0:0:0:
75,12,74850,6,0,P|45:36|26:93,1,99.9999999999999,4|2,0:2|0:0,0:0:0:0:
110,129,75350,2,0,P|144:164|156:212,1,99.9999999999999,4|2,0:0|0:0,0:0:0:0:
60,294,75850,2,0,B|179:275|136:343|250:334,1,200,4|4,0:2|0:0,0:0:0:0:
459,376,76850,6,0,L|471:258,2,99.9999999999999,8|8|8,0:1|0:1|0:1,0:0:0:0:
340,173,77850,2,0,L|329:272,2,99.9999999999999,2|2|8,0:0|0:0|0:1,0:0:0:0:
512,51,78850,6,0,B|452:57|420:110|420:110|356:31|356:31|273:165|128:90,1,479.999999999999,4|4,0:2|0:2,0:0:0:0:
0,0,80850,5,4,0:0:0:0:
12,88,81100,1,0,0:0:0:0:
24,176,81350,1,2,0:0:0:0:
64,371,81850,2,0,L|161:350,2,99.9999999999999,4|0|2,0:0|0:0|0:0,0:0:0:0:
299,372,82850,5,4,0:0:0:0:
311,284,83100,1,0,0:0:0:0:
323,196,83350,1,2,0:0:0:0:
512,127,83850,6,0,P|478:214|423:151,1,200,4|2,0:0|0:0,0:0:0:0:
332,53,84850,5,4,0:2:0:0:
332,53,85100,1,4,0:0:0:0:
332,53,85350,2,0,P|261:42|195:67,1,99.9999999999999,8|0,0:1|0:0,0:0:0:0:
150,121,85850,5,4,0:0:0:0:
150,121,86100,1,4,0:0:0:0:
150,121,86350,2,0,P|79:132|13:107,1,99.9999999999999,8|0,0:1|0:0,0:0:0:0:
256,192,86850,12,4,88600,0:1:0:0:
