osu file format v14

[General]
AudioFilename: audio.mp3
AudioLeadIn: 0
PreviewTime: 54350
Countdown: 1
SampleSet: Drum
StackLeniency: 0.2
Mode: 0
LetterboxInBreaks: 0
WidescreenStoryboard: 1

[Editor]
Bookmarks: 858,4858,12858,20858,24858,32858,36858,44858,54858,55850,61608,70858,74858,80858,84850,88600
DistanceSpacing: 1
BeatDivisor: 2
GridSize: 16
TimelineZoom: 0.6

[Metadata]
Title:Los! Los! Los!
TitleUnicode:Los! Los! Los!
Artist:Selphius
ArtistUnicode:Selphius
Creator:mindmaster107
Version:Einfach
Source:幼女戦記
Tags:german losloslos ed ending tv size The Saga of Tanya the Evil Youjo Senki Yagi Yuuichi
BeatmapID:2692941
BeatmapSetID:922054

[Difficulty]
HPDrainRate:3
CircleSize:3
OverallDifficulty:3
ApproachRate:3
SliderMultiplier:0.699999999999999
SliderTickRate:1

[Events]
//Background and Video events
0,0,"dbsb3js-0815c89b-a5bb-408e-a2f7-c3d7aca089e9.jpg",0,0
//Break Periods
2,1850,2850
2,25100,30850
2,41100,42850
2,52725,53410
//Storyboard Layer 0 (Background)
//Storyboard Layer 1 (Fail)
//Storyboard Layer 2 (Pass)
//Storyboard Layer 3 (Foreground)
//Storyboard Layer 4 (Overlay)
//Storyboard Sound Samples

[TimingPoints]
850,250,4,3,1,80,1,0
850,-100,4,3,1,80,0,0
1100,-100,4,3,1,60,0,0
1850,-100,4,3,1,50,0,0
2350,-100,4,3,1,40,0,0
2850,-100,4,3,1,80,0,0
3225,-100,4,3,1,60,0,0
3850,-100,4,3,1,50,0,0
4350,-100,4,3,1,40,0,0
4850,-100,4,3,1,60,0,0
8850,-100,4,3,1,60,0,0
9350,-100,4,3,1,60,0,0
9850,-100,4,3,1,60,0,0
10350,-100,4,3,1,60,0,0
12850,-100,4,3,1,80,0,0
19600,-100,4,3,1,80,0,0
19850,-100,4,3,1,80,0,0
20850,-100,4,3,1,40,0,0
22850,-100,4,3,1,80,0,0
24850,-100,4,3,1,40,0,0
32850,-100,4,3,1,60,0,0
36850,-100,4,3,1,80,0,0
40350,-100,4,3,1,60,0,0
40850,-100,4,3,1,60,0,0
44850,-100,4,3,1,80,0,0
54350,-100,4,3,1,60,0,0
54600,-100,4,3,1,80,0,0
54850,-90.9090909090909,4,3,1,100,0,1
70850,-100,4,3,1,80,0,0
74850,-90.9090909090909,4,3,1,100,0,1
80350,-90.9090909090909,4,3,1,60,0,1
80850,-100,4,3,1,80,0,0
87850,-100,4,3,1,100,0,1
88600,-100,4,3,99,100,0,0
89850,-100,4,2,1,5,0,0

[Colours]
Combo1 : 122,29,29
Combo2 : 251,214,0
Combo3 : 206,26,26
Combo4 : 254,145,12

[HitObjects]
256,192,850,5,0,0:0:0:0:
74,379,4850,6,0,P|86:260|194:312,1,280
437,379,6850,6,0,P|425:260|317:312,1,280
256,192,8850,12,8,11850,0:1:0:0:
152,384,12850,5,4,0:2:0:0:
136,261,13350,1,2,0:0:0:0:
121,138,13850,1,2,0:0:0:0:
360,384,14850,5,2,0:0:0:0:
376,261,15350,1,2,0:0:0:0:
391,138,15850,1,2,0:0:0:0:
142,379,16850,6,0,L|120:226,1,140,4|4,0:2|0:1,0:0:0:0:
98,102,17850,1,4,0:2:0:0:
195,160,18350,1,4,0:1:0:0:
317,160,18850,5,4,0:1:0:0:
414,102,19350,1,8,0:0:0:0:
389,240,19850,2,0,L|370:379,2,140,8|4|4,0:0|0:0|0:1,0:0:0:0:
256,192,22850,12,8,24850,0:1:0:0:
143,356,32850,5,4,0:0:0:0:
91,79,33850,1,4,0:0:0:0:
368,27,34850,1,4,0:0:0:0:
420,304,35850,1,4,0:0:0:0:
143,356,36850,6,0,B|111:287|177:293|145:223,1,140,4|2,0:2|0:0,0:0:0:0:
125,113,37850,2,0,P|192:124|242:171,1,140,2|2,0:0|0:1,0:0:0:0:
367,223,38850,6,0,B|335:293|401:287|369:356,1,140,4|2,0:1|0:0,0:0:0:0:
262,266,39850,1,2,0:0:0:0:
470,275,40350,1,8,0:1:0:0:
470,275,40600,1,0,0:0:0:0:
470,275,40850,1,4,0:2:0:0:
512,226,44850,5,4,0:1:0:0:
448,384,45350,1,2,0:0:0:0:
344,250,45850,1,2,0:0:0:0:
0,226,46850,5,4,0:1:0:0:
64,384,47350,1,2,0:0:0:0:
168,250,47850,1,2,0:0:0:0:
460,70,48850,6,0,L|320:70,1,140,4|0,0:1|0:0,0:0:0:0:
192,70,49850,2,0,L|34:70,1,140,0|2,0:0|0:0,0:0:0:0:
123,191,50850,5,4,0:0:0:0:
255,325,51350,1,4,0:0:0:0:
389,193,51850,1,4,0:0:0:0:
257,59,52350,1,4,0:0:0:0:
453,51,54850,6,0,L|534:-16,2,77.0000023498535,4|0|2,0:1|0:0|0:0,0:0:0:0:
301,79,55850,2,0,L|201:41,2,77.0000023498535,2|0|2,0:0|0:0|0:0,0:0:0:0:
402,193,56850,2,0,B|431:275|372:256|409:341,2,154.000004699707,2|2|4,0:0|0:0|0:2,0:0:0:0:
492,287,58350,5,4,0:0:0:0:
311,216,58850,2,0,B|255:158|255:158|105:175,1,231.00000704956,4|2,0:2|0:0,0:0:0:0:
17,190,59850,1,4,0:2:0:0:
192,259,60350,5,2,0:0:0:0:
192,259,60600,1,2,0:0:0:0:
191,258,60850,2,0,P|233:349|129:324,1,231.00000704956,8|0,0:0|0:0,0:0:0:0:
90,268,61850,1,4,0:0:0:0:
59,51,62850,6,0,L|-22:-16,2,77.0000023498535,4|0|2,0:1|0:0|0:0,0:0:0:0:
211,79,63850,2,0,L|310:41,2,77.0000023498535,2|0|2,0:0|0:0|0:0,0:0:0:0:
110,193,64850,2,0,B|80:275|139:256|102:341,2,154.000004699707,2|2|4,0:0|0:0|0:2,0:0:0:0:
20,287,66350,5,4,0:0:0:0:
201,216,66850,2,0,B|257:158|257:158|406:175,1,231.00000704956,4|2,0:2|0:0,0:0:0:0:
495,190,67850,1,4,0:2:0:0:
320,259,68350,5,2,0:0:0:0:
320,259,68600,1,2,0:0:0:0:
321,258,68850,2,0,P|278:349|382:324,1,231.00000704956,8|0,0:0|0:0,0:0:0:0:
420,270,69850,5,8,0:0:0:0:
512,180,70350,1,4,0:0:0:0:
396,138,70850,6,0,L|374:-24,2,140,4|8|4,0:2|0:1|0:0,0:0:0:0:
256,96,72350,1,8,0:1:0:0:
116,138,72850,2,0,L|138:-24,2,140,4|8|4,0:2|0:1|0:0,0:0:0:0:
0,336,74850,5,4,0:2:0:0:
0,336,75100,1,2,0:0:0:0:
0,336,75350,1,4,0:0:0:0:
179,336,75850,2,0,L|333:336,1,154.000004699707,4|4,0:2|0:0,0:0:0:0:
512,336,76850,5,8,0:1:0:0:
379,260,77350,1,8,0:1:0:0:
512,182,77850,1,2,0:0:0:0:
379,106,78350,1,8,0:1:0:0:
254,41,78850,6,0,B|257:80|293:102|293:102|240:144|240:144|280:173|269:222,2,231.00000704956,4|0|4,0:2|0:0|0:2,0:0:0:0:
403,138,80850,5,4,0:0:0:0:
388,261,81350,1,2,0:0:0:0:
372,384,81850,1,4,0:0:0:0:
109,138,82850,5,4,0:0:0:0:
124,261,83350,1,2,0:0:0:0:
140,384,83850,1,4,0:0:0:0:
337,134,84850,5,4,0:2:0:0:
314,273,85350,1,8,0:1:0:0:
175,250,85850,1,4,0:0:0:0:
198,111,86350,1,8,0:1:0:0:
256,192,86850,12,4,88600,0:1:0:0:
