osu file format v14

[General]
AudioFilename: audio.mp3
AudioLeadIn: 0
PreviewTime: 173937
Countdown: 0
SampleSet: Soft
StackLeniency: 1
Mode: 2
LetterboxInBreaks: 0
EpilepsyWarning: 1
WidescreenStoryboard: 1

[Editor]
Bookmarks: 174378
DistanceSpacing: 0.1
BeatDivisor: 4
GridSize: 4
TimelineZoom: 4.299999

[Metadata]
Title:Los! Los! Los!
TitleUnicode:Los! Los! Los!
Artist:Selphius
ArtistUnicode:Selphius
Creator:Daletto
Version:Sanyi's Deluge
Source:幼女戦記
Tags:Youjo Senki Saga of Tanya the Evil anime ED ending losloslos german metal rock cover YouTube Yagi Yuuichi れおに Seruji Crowley -Hex- Sanyi Xinely BowLL
BeatmapID:2168588
BeatmapSetID:1018035

[Difficulty]
HPDrainRate:6
CircleSize:4.2
OverallDifficulty:9.6
ApproachRate:9.6
SliderMultiplier:1.8
SliderTickRate:2

[Events]
//Background and Video events
0,0,"bg.jpg",0,0
//Break Periods
2,147919,149731
//Storyboard Layer 0 (Background)
//Storyboard Layer 1 (Fail)
//Storyboard Layer 2 (Pass)
//Storyboard Layer 3 (Foreground)
//Storyboard Layer 4 (Overlay)
//Storyboard Sound Samples

[TimingPoints]
2005,252.100840336134,4,3,1,40,1,0
2005,-100,4,3,1,40,0,0
6038,-100,4,2,1,50,0,0
10072,-100,4,2,1,70,0,0
14105,-100,4,2,2,80,0,1
22173,-100,4,2,1,70,0,0
26206,-100,4,2,1,65,0,0
34273,-100,4,2,1,55,0,0
38307,-100,4,2,1,70,0,0
46374,-100,4,2,1,65,0,0
52425,-100,4,2,1,50,0,0
52929,-100,4,2,1,60,0,0
53433,-100,4,2,1,70,0,0
53937,-100,4,2,1,80,0,0
54441,-100,4,2,1,70,0,0
56458,-100,4,2,2,90,0,1
63517,-100,4,2,2,80,0,1
64021,-100,4,3,2,80,0,1
64462,-100,4,3,2,5,0,0
64526,-100,4,2,2,90,0,1
71584,-100,4,2,2,80,0,1
72593,-100,4,2,1,70,0,0
76626,-100,4,2,2,90,0,1
81164,-100,4,2,2,80,0,1
82173,-100,4,2,1,80,0,1
82677,-100,4,2,1,70,0,0
86710,-100,4,2,1,65,0,0
89736,-100,4,2,1,60,0,0
89988,-100,4,2,1,55,0,0
90240,-100,4,2,1,50,0,0
90618,-100,4,2,1,40,0,0
91248,-100,4,2,1,45,0,0
91626,-100,4,2,1,60,0,0
91752,-100,4,2,1,70,0,0
99820,-100,4,2,1,55,0,0
103853,-100,4,2,1,50,0,0
107887,-100,4,2,1,55,0,0
110912,-100,4,2,1,60,0,0
119988,-100,4,2,1,65,0,0
121500,-100,4,2,1,60,0,0
121941,-100,4,2,1,5,0,0
122004,-100,4,2,2,90,0,1
129063,-100,4,2,2,80,0,1
129568,-100,4,3,2,80,0,1
130009,-100,4,3,2,80,0,0
130072,-100,4,2,2,90,0,1
137131,-100,4,2,2,80,0,1
138139,-100,4,2,1,70,0,0
142173,-100,4,2,2,90,0,1
146206,-100,4,2,1,30,0,0
150240,-100,4,2,1,20,0,0
153769,-100,4,2,1,25,0,0
154273,-100,4,2,1,30,0,0
162341,-100,4,2,1,70,0,0
166374,-100,4,2,1,60,0,0
170408,-100,4,2,1,70,0,0
174441,-100,4,2,2,90,0,1
181500,-100,4,2,2,80,0,1
182004,-100,4,3,2,80,0,1
182446,-100,4,3,2,70,0,0
182509,-100,4,2,2,90,0,1
189568,-100,4,2,2,80,0,1
190513,-100,4,2,1,5,0,0
190576,-100,4,2,2,90,0,1
194547,-100,4,2,2,90,0,0
194610,-100,4,2,2,90,0,1
198643,-100,4,2,1,85,0,0
202677,-100,4,2,2,90,0,1
204694,-100,4,2,1,50,0,0
206710,-100,4,2,1,70,0,0
210744,-100,4,2,1,65,0,0
214021,-100,4,2,1,60,0,0
214273,-100,4,2,1,50,0,0
214526,-100,4,2,1,40,0,0
214778,-100,4,2,1,20,0,0

[Colours]
Combo1 : 116,72,33
Combo2 : 133,139,73
Combo3 : 85,85,85
Combo4 : 51,98,54

[HitObjects]
200,288,2004,5,0,0:0:0:0:
120,240,2130,1,0,0:0:0:0:
120,153,2256,1,0,0:0:0:0:
201,104,2382,1,0,0:0:0:0:
340,64,2509,1,0,0:0:0:0:
340,64,2635,1,0,0:0:0:0:
200,64,2761,1,0,0:0:0:0:
200,64,2887,1,0,0:0:0:0:
344,328,3013,5,0,0:0:0:0:
424,280,3139,1,0,0:0:0:0:
424,193,3265,1,0,0:0:0:0:
343,144,3391,1,0,0:0:0:0:
112,264,3517,2,0,L|112:80,1,180,0|0,0:0|0:0,0:0:0:0:
432,272,4021,6,0,P|480:192|424:136,1,180,0|0,0:0|0:0,0:0:0:0:
236,64,4526,1,0,0:0:0:0:
236,64,4652,1,0,0:0:0:0:
376,64,4778,1,0,0:0:0:0:
376,64,4904,1,0,0:0:0:0:
232,224,5030,6,0,L|128:224,1,90,0|0,0:0|0:0,0:0:0:0:
280,144,5282,2,0,L|376:144,1,90,0|0,0:0|0:0,0:0:0:0:
164,336,5534,2,0,P|68:208|172:128,1,315,0|0,0:0|0:0,0:0:0:0:
408,288,6038,5,6,0:0:0:0:
496,288,6164,1,0,0:0:0:0:
408,288,6290,1,2,0:0:0:0:
320,288,6416,1,0,0:0:0:0:
128,160,6542,2,0,L|224:160,1,90,2|0,0:0|0:0,0:0:0:0:
308,160,6794,2,0,L|212:160,1,90,2|0,0:0|0:0,0:0:0:0:
24,352,7047,6,0,L|128:352,1,90,2|0,0:0|0:0,0:0:0:0:
204,352,7299,2,0,L|108:352,1,90,2|0,0:0|0:0,0:0:0:0:
360,288,7551,1,2,0:0:0:0:
440,240,7677,1,0,0:0:0:0:
440,153,7803,1,0,0:0:0:0:
359,104,7929,1,0,0:0:0:0:
112,96,8055,5,2,0:0:0:0:
24,96,8181,1,0,0:0:0:0:
112,96,8307,1,2,0:0:0:0:
200,96,8433,1,0,0:0:0:0:
392,208,8559,5,2,0:0:0:0:
304,208,8685,1,0,0:0:0:0:
216,208,8811,1,2,0:0:0:0:
304,208,8937,1,0,0:0:0:0:
112,336,9063,5,2,0:0:0:0:
202,336,9189,1,0,0:0:0:0:
292,336,9315,1,2,0:0:0:0:
382,336,9441,1,0,0:0:0:0:
176,288,9568,1,2,0:0:0:0:
96,240,9694,1,0,0:0:0:0:
96,153,9820,1,0,0:0:0:0:
176,104,9946,1,0,0:0:0:0:
424,272,10072,6,0,L|320:272,1,90,4|0,0:0|0:0,0:0:0:0:
472,200,10324,2,0,L|472:96,1,90,8|0,0:0|0:0,0:0:0:0:
288,72,10576,2,0,L|184:72,1,90,0|0,0:0|0:0,0:0:0:0:
336,328,10828,2,0,L|448:328,1,90,8|0,0:0|0:0,0:0:0:0:
240,216,11080,6,0,L|352:216,1,90,0|0,0:0|0:0,0:0:0:0:
192,320,11332,2,0,L|192:224,1,90,8|0,0:0|0:0,0:0:0:0:
400,240,11584,1,0,0:0:0:0:
488,240,11710,1,0,0:0:0:0:
400,160,11836,1,8,0:0:0:0:
312,160,11962,1,0,0:0:0:0:
16,96,12089,6,0,L|112:96,1,90,12|0,0:0|0:0,0:0:0:0:
344,96,12341,2,0,L|448:96,1,90,8|0,0:0|0:0,0:0:0:0:
192,320,12593,2,0,L|96:320,1,90,8|0,0:0|0:0,0:0:0:0:
344,264,12845,2,0,L|456:264,1,90,8|0,0:0|0:0,0:0:0:0:
96,184,13097,5,8,0:0:0:0:
212,184,13223,1,0,0:0:0:0:
328,184,13349,1,8,0:0:0:0:
444,184,13475,1,0,0:0:0:0:
232,112,13601,2,0,L|160:112,1,45,8|8,0:0|0:0,0:0:0:0:
344,48,13727,2,0,L|400:48,1,45,8|8,0:0|0:0,0:0:0:0:
168,344,13853,1,8,0:0:0:0:
120,288,13916,1,8,0:0:0:0:
120,288,13979,1,8,0:0:0:0:
168,344,14042,1,8,0:0:0:0:
408,296,14105,6,0,L|504:296,1,90,6|0,0:0|0:0,0:0:0:0:
356,216,14357,2,0,L|228:216,1,90,8|0,0:0|0:0,0:0:0:0:
464,216,14610,2,0,L|464:120,1,90,2|0,0:0|0:0,0:0:0:0:
324,216,14862,2,0,L|324:120,1,90,8|0,0:0|0:0,0:0:0:0:
104,56,15114,6,0,L|-16:56,1,90,2|0,0:0|0:0,0:0:0:0:
156,136,15366,2,0,L|268:136,1,90,8|0,0:0|0:0,0:0:0:0:
48,312,15618,2,0,L|48:208,1,90,2|0,0:0|0:0,0:0:0:0:
188,312,15870,2,0,L|188:208,1,90,8|0,0:0|0:0,0:0:0:0:
408,136,16122,6,0,L|520:136,1,90,2|0,0:0|0:0,0:0:0:0:
292,64,16374,2,0,L|404:64,1,90,8|0,0:0|0:0,0:0:0:0:
176,192,16626,2,0,L|176:88,1,90,2|0,0:0|0:0,0:0:0:0:
36,328,16878,2,0,L|36:228,1,90,8|0,0:0|0:0,0:0:0:0:
336,312,17131,6,0,P|428:216|352:120,1,270,2|0,0:0|0:0,0:0:0:0:
220,40,17635,2,0,L|332:40,1,90,2|0,0:0|0:0,0:0:0:0:
184,168,17887,2,0,L|72:168,1,90,8|0,0:0|0:0,0:0:0:0:
388,304,18139,5,10,0:0:0:0:
272,304,18265,1,0,0:0:0:0:
156,304,18391,1,8,0:0:0:0:
40,304,18517,1,0,0:0:0:0:
256,224,18643,2,0,L|256:120,1,90,10|0,0:0|0:0,0:0:0:0:
116,96,18895,2,0,L|20:96,1,90,8|0,0:0|0:0,0:0:0:0:
256,304,19147,5,10,0:0:0:0:
336,256,19273,1,0,0:0:0:0:
336,169,19399,1,8,0:0:0:0:
255,120,19525,1,0,0:0:0:0:
48,288,19652,2,0,L|48:192,1,90,10|0,0:0|0:0,0:0:0:0:
188,288,19904,2,0,L|188:192,1,90,8|0,0:0|0:0,0:0:0:0:
440,72,20156,5,10,0:0:0:0:
320,72,20282,1,0,0:0:0:0:
200,160,20408,1,8,0:0:0:0:
320,160,20534,1,0,0:0:0:0:
96,336,20660,2,0,L|96:240,1,90,10|0,0:0|0:0,0:0:0:0:
216,328,20912,1,8,0:0:0:0:
336,328,21038,1,0,0:0:0:0:
96,168,21164,6,0,L|200:168,1,90,2|0,0:0|0:0,0:0:0:0:
48,80,21416,2,0,L|160:80,1,90,8|0,0:0|0:0,0:0:0:0:
376,256,21668,2,0,L|272:256,1,90,2|0,0:0|0:0,0:0:0:0:
424,152,21920,2,0,L|312:152,1,90,8|0,0:0|0:0,0:0:0:0:
96,288,22173,5,6,0:0:0:0:
8,288,22299,1,0,0:0:0:0:
96,288,22425,1,2,0:0:0:0:
184,288,22551,1,0,0:0:0:0:
376,160,22677,2,0,L|280:160,1,90,2|0,0:0|0:0,0:0:0:0:
376,160,22929,2,0,L|280:160,1,90,2|0,0:0|0:0,0:0:0:0:
480,336,23181,6,0,L|480:232,1,90,2|0,0:0|0:0,0:0:0:0:
392,216,23433,2,0,L|272:216,1,90,2|0,0:0|0:0,0:0:0:0:
64,192,23685,2,2,L|160:192,3,90,0|0|0|0,0:0|0:0|0:0|0:0,0:0:0:0:
400,88,24189,5,4,0:0:0:0:
488,88,24315,1,0,0:0:0:0:
400,88,24441,1,8,0:0:0:0:
312,88,24567,1,0,0:0:0:0:
112,240,24694,1,0,0:0:0:0:
200,240,24820,1,0,0:0:0:0:
112,240,24946,1,8,0:0:0:0:
24,240,25072,1,0,0:0:0:0:
240,360,25198,6,0,L|240:256,1,90,0|0,0:0|0:0,0:0:0:0:
152,120,25450,2,0,L|56:120,1,90,8|0,0:0|0:0,0:0:0:0:
256,192,25702,2,0,L|160:192,3,90,0|0|8|0,0:0|0:0|0:0|0:0,0:0:0:0:
384,128,26206,5,4,0:0:0:0:
256,304,26458,2,0,L|360:304,1,90,8|0,0:0|0:0,0:0:0:0:
208,228,26710,2,0,L|104:228,1,90,0|8,0:0|0:0,0:0:0:0:
28,228,26962,2,0,L|132:228,1,90,0|0,0:0|0:0,0:0:0:0:
328,96,27215,6,0,L|216:96,2,90,10|0|0,0:0|0:0|0:0,0:0:0:0:
136,288,27593,1,0,0:0:0:0:
56,240,27719,1,0,0:0:0:0:
56,153,27845,1,0,0:0:0:0:
137,104,27971,1,8,0:0:0:0:
384,192,28223,6,0,L|264:192,1,90,0|0,0:0|0:0,0:0:0:0:
384,192,28475,2,0,L|384:80,1,90,8|0,0:0|0:0,0:0:0:0:
248,344,28727,2,0,L|136:344,1,90,0|8,0:0|0:0,0:0:0:0:
248,344,28979,2,0,L|360:344,1,90,0|0,0:0|0:0,0:0:0:0:
112,264,29231,6,0,P|56:192|112:160,1,180,10|0,0:0|0:0,0:0:0:0:
336,256,29610,2,0,P|392:184|336:152,1,180,0|0,0:0|0:0,0:0:0:0:
196,64,29988,2,0,L|76:64,1,90,8|0,0:0|0:0,0:0:0:0:
336,336,30240,6,0,L|448:336,1,90,2|0,0:0|0:0,0:0:0:0:
288,280,30492,2,0,L|288:176,1,90,8|0,0:0|0:0,0:0:0:0:
376,136,30744,2,0,L|480:136,1,90,0|8,0:0|0:0,0:0:0:0:
376,136,30996,2,0,L|264:136,1,90,0|0,0:0|0:0,0:0:0:0:
72,304,31248,6,0,P|128:232|72:200,1,180,10|0,0:0|0:0,0:0:0:0:
272,72,31626,2,0,L|456:72,1,180,0|0,0:0|0:0,0:0:0:0:
316,320,32004,2,0,L|316:216,1,90,8|0,0:0|0:0,0:0:0:0:
40,128,32257,6,0,L|168:128,1,90,0|0,0:0|0:0,0:0:0:0:
220,128,32509,2,0,L|124:128,1,90,8|0,0:0|0:0,0:0:0:0:
268,264,32761,2,0,L|372:264,1,90,0|8,0:0|0:0,0:0:0:0:
448,264,33013,2,0,L|336:264,1,90,0|0,0:0|0:0,0:0:0:0:
140,136,33265,6,0,L|324:136,1,180,10|0,0:0|0:0,0:0:0:0:
100,320,33643,2,0,P|44:248|100:216,1,180,0|0,0:0|0:0,0:0:0:0:
240,208,34021,2,0,L|368:208,1,90,8|0,0:0|0:0,0:0:0:0:
72,216,34273,6,0,L|72:104,1,90,4|0,0:0|0:0,0:0:0:0:
208,216,34526,2,0,L|208:104,1,90,0|0,0:0|0:0,0:0:0:0:
72,216,34778,2,0,L|72:104,1,90,8|0,0:0|0:0,0:0:0:0:
208,216,35030,2,0,L|208:112,1,90,0|0,0:0|0:0,0:0:0:0:
432,360,35282,6,0,P|480:272|424:248,1,180,0|0,0:0|0:0,0:0:0:0:
384,248,35597,1,0,0:0:0:0:
336,248,35660,1,0,0:0:0:0:
64,240,35786,5,8,0:0:0:0:
208,128,36038,2,0,L|96:128,1,90,0|0,0:0|0:0,0:0:0:0:
440,216,36290,6,0,L|440:104,1,90,0|0,0:0|0:0,0:0:0:0:
304,216,36543,2,0,L|304:104,1,90,0|0,0:0|0:0,0:0:0:0:
440,216,36795,2,0,L|440:104,1,90,8|0,0:0|0:0,0:0:0:0:
304,216,37047,2,0,L|304:112,1,90,0|0,0:0|0:0,0:0:0:0:
80,360,37299,6,0,P|32:272|88:248,1,180,0|0,0:0|0:0,0:0:0:0:
128,248,37614,1,0,0:0:0:0:
176,248,37677,1,0,0:0:0:0:
448,240,37803,5,8,0:0:0:0:
324,240,37929,2,0,L|252:240,1,45,0|0,0:0|0:0,0:0:0:0:
412,144,38055,2,0,L|524:144,1,90,8|8,0:0|0:0,0:0:0:0:
208,56,38307,6,0,L|16:56,1,180,4|8,0:0|0:0,0:0:0:0:
112,128,38685,1,0,0:0:0:0:
248,240,38811,2,0,L|352:240,1,90,0|0,0:0|0:0,0:0:0:0:
136,344,39063,2,0,L|136:248,1,90,8|0,0:0|0:0,0:0:0:0:
272,152,39315,6,0,L|376:152,1,90,0|0,0:0|0:0,0:0:0:0:
272,152,39568,2,0,L|160:152,1,90,8|0,0:0|0:0,0:0:0:0:
416,360,39820,2,0,P|464:272|408:248,1,180,0|8,0:0|0:0,0:0:0:0:
176,344,40324,6,0,L|176:232,1,90,0|0,0:0|0:0,0:0:0:0:
376,288,40576,1,8,0:0:0:0:
456,240,40702,1,0,0:0:0:0:
456,153,40828,1,0,0:0:0:0:
375,104,40954,1,0,0:0:0:0:
160,248,41080,2,0,L|160:136,1,90,8|0,0:0|0:0,0:0:0:0:
376,40,41332,6,0,L|480:40,1,90,2|0,0:0|0:0,0:0:0:0:
376,40,41584,2,0,L|280:40,1,90,8|0,0:0|0:0,0:0:0:0:
64,336,41836,1,2,0:0:0:0:
184,336,41962,1,0,0:0:0:0:
64,336,42089,1,8,0:0:0:0:
184,336,42215,1,8,0:0:0:0:
400,104,42341,6,0,L|296:104,1,90,4|0,0:0|0:0,0:0:0:0:
220,104,42593,2,0,L|316:104,1,90,8|0,0:0|0:0,0:0:0:0:
448,304,42845,2,0,L|352:304,1,90,0|0,0:0|0:0,0:0:0:0:
144,136,43097,2,0,L|144:24,1,90,8|0,0:0|0:0,0:0:0:0:
368,128,43349,6,0,L|464:128,1,90,0|0,0:0|0:0,0:0:0:0:
368,128,43601,2,0,L|256:128,1,90,8|0,0:0|0:0,0:0:0:0:
80,352,43853,2,0,L|80:248,1,90,0|0,0:0|0:0,0:0:0:0:
168,264,44105,2,0,L|272:264,1,90,8|0,0:0|0:0,0:0:0:0:
456,160,44357,6,0,L|360:160,1,90,2|0,0:0|0:0,0:0:0:0:
276,160,44610,2,0,L|380:160,1,90,8|0,0:0|0:0,0:0:0:0:
176,64,44862,1,0,0:0:0:0:
266,64,44988,1,0,0:0:0:0:
356,64,45114,1,8,0:0:0:0:
446,64,45240,1,0,0:0:0:0:
208,312,45366,6,0,L|208:200,1,90,0|0,0:0|0:0,0:0:0:0:
344,208,45618,1,8,0:0:0:0:
112,120,45744,1,0,0:0:0:0:
328,120,45870,1,8,0:0:0:0:
448,120,45996,1,8,0:0:0:0:
328,120,46122,1,8,0:0:0:0:
448,120,46248,1,8,0:0:0:0:
168,336,46374,6,0,L|48:336,1,90,4|0,0:0|0:0,0:0:0:0:
168,336,46626,2,0,L|272:336,1,90,8|0,0:0|0:0,0:0:0:0:
448,224,46878,2,0,L|344:224,1,90,0|0,0:0|0:0,0:0:0:0:
268,224,47131,2,0,L|380:224,1,90,8|0,0:0|0:0,0:0:0:0:
136,224,47383,6,0,L|136:128,1,90,0|0,0:0|0:0,0:0:0:0:
272,120,47635,1,8,0:0:0:0:
472,64,47761,2,0,L|272:64,1,180,0|0,0:0|0:0,0:0:0:0:
428,336,48139,2,0,L|428:240,1,90,8|0,0:0|0:0,0:0:0:0:
192,192,48391,6,0,L|72:192,1,90,2|0,0:0|0:0,0:0:0:0:
192,192,48643,2,0,L|192:80,1,90,8|0,0:0|0:0,0:0:0:0:
384,200,48895,2,0,L|480:200,1,90,0|0,0:0|0:0,0:0:0:0:
384,200,49147,2,0,L|384:96,1,90,8|0,0:0|0:0,0:0:0:0:
168,344,49399,6,0,L|168:232,1,90,0|0,0:0|0:0,0:0:0:0:
308,224,49652,1,8,0:0:0:0:
120,136,49778,2,0,L|56:136,1,45,0|0,0:0|0:0,0:0:0:0:
232,48,49904,1,8,0:0:0:0:
360,48,50030,1,8,0:0:0:0:
168,304,50156,1,8,0:0:0:0:
40,304,50282,1,8,0:0:0:0:
272,320,50408,6,0,L|272:216,1,90,4|0,0:0|0:0,0:0:0:0:
408,328,50660,2,0,L|408:224,1,90,0|0,0:0|0:0,0:0:0:0:
224,136,50912,2,0,L|120:136,1,90,8|0,0:0|0:0,0:0:0:0:
272,64,51164,2,0,L|376:64,1,90,0|0,0:0|0:0,0:0:0:0:
136,304,51416,6,0,L|40:304,2,90,8|0|0,0:0|0:0|0:0,0:0:0:0:
328,216,51794,1,0,0:0:0:0:
238,216,51920,1,8,0:0:0:0:
148,216,52046,1,0,0:0:0:0:
288,120,52173,2,0,L|392:120,1,90,0|0,0:0|0:0,0:0:0:0:
96,360,52425,6,0,P|48:272|104:248,1,180,6|0,0:0|0:0,0:0:0:0:
344,144,52929,6,0,L|160:144,1,180,6|0,0:0|0:0,0:0:0:0:
416,360,53433,6,0,P|464:272|408:248,1,180,6|0,0:0|0:0,0:0:0:0:
168,144,53937,6,0,L|352:144,1,180,6|0,0:0|0:0,0:0:0:0:
256,248,54441,5,0,0:0:0:0:
256,192,54568,12,0,55324,0:0:0:0:
256,136,55450,5,4,0:0:0:0:
384,216,55986,2,0,L|320:216,1,45,2|2,0:0|0:0,0:0:0:0:
136,216,56112,2,0,L|80:216,1,45,2|2,0:0|0:0,0:0:0:0:
339,216,56238,1,2,0:0:0:0:
384,216,56301,1,2,0:0:0:0:
429,216,56364,1,2,0:0:0:0:
144,128,56458,6,0,L|144:32,1,90,6|0,0:0|0:0,0:0:0:0:
284,128,56710,2,0,L|284:24,1,90,8|0,0:0|0:0,0:0:0:0:
96,320,56962,2,0,L|0:320,1,90,2|0,0:0|0:0,0:0:0:0:
148,232,57215,2,0,L|244:232,1,90,8|0,0:0|0:0,0:0:0:0:
464,128,57467,6,0,L|464:32,1,90,2|0,0:0|0:0,0:0:0:0:
324,128,57719,2,0,L|324:24,1,90,8|0,0:0|0:0,0:0:0:0:
128,336,57971,2,0,L|224:336,1,90,2|0,0:0|0:0,0:0:0:0:
80,240,58224,2,0,L|176:240,1,90,8|0,0:0|0:0,0:0:0:0:
376,232,58475,6,0,L|376:136,1,90,2|0,0:0|0:0,0:0:0:0:
172,88,58727,2,0,L|72:88,1,90,8|0,0:0|0:0,0:0:0:0:
336,328,58979,2,0,L|448:328,1,90,2|0,0:0|0:0,0:0:0:0:
288,216,59231,2,0,L|400:216,1,90,8|0,0:0|0:0,0:0:0:0:
96,360,59483,6,0,P|48:272|104:248,1,180,2|8,0:0|0:0,0:0:0:0:
336,200,59988,2,0,L|384:200,1,45,2|0,0:0|0:0,0:0:0:0:
336,200,60114,2,0,L|272:200,1,45,0|0,0:0|0:0,0:0:0:0:
448,360,60240,2,0,P|472:272|440:256,1,135,8|0,0:0|0:0,0:0:0:0:
256,88,60492,6,0,L|72:88,1,180,6|0,0:0|0:0,0:0:0:0:
160,160,60870,1,0,0:0:0:0:
352,328,60996,2,0,L|464:328,1,90,2|0,0:0|0:0,0:0:0:0:
224,336,61248,2,0,L|224:232,1,90,8|0,0:0|0:0,0:0:0:0:
440,248,61500,6,0,P|488:160|432:136,1,180,2|8,0:0|0:0,0:0:0:0:
352,136,61878,1,0,0:0:0:0:
136,320,62004,2,0,L|136:208,1,90,2|0,0:0|0:0,0:0:0:0:
352,56,62257,2,0,L|456:56,1,90,8|0,0:0|0:0,0:0:0:0:
152,176,62509,5,10,0:0:0:0:
268,176,62635,1,0,0:0:0:0:
152,88,62761,1,0,0:0:0:0:
36,88,62887,1,8,0:0:0:0:
268,88,63013,1,2,0:0:0:0:
152,88,63139,1,0,0:0:0:0:
268,88,63265,1,8,0:0:0:0:
384,88,63391,1,0,0:0:0:0:
128,304,63517,6,0,L|64:304,1,45,10|8,0:0|0:0,0:0:0:0:
128,304,63643,2,0,L|200:304,1,45,8|8,0:0|0:0,0:0:0:0:
312,152,63769,1,0,0:0:0:0:
267,152,63832,1,0,0:0:0:0:
222,152,63895,1,0,0:0:0:0:
177,152,63958,1,0,0:0:0:0:
344,328,64021,2,8,L|400:328,1,45,10|8,0:0|0:0,0:0:0:0:
224,328,64147,2,8,L|176:328,1,45,0|0,0:0|0:0,0:0:0:0:
384,256,64273,2,8,P|384:160|368:160,1,135,0|0,0:0|0:0,0:0:0:0:
136,56,64526,6,0,L|232:56,1,90,6|0,0:0|0:0,0:0:0:0:
368,248,64778,2,0,L|256:248,1,90,8|0,0:0|0:0,0:0:0:0:
80,352,65030,2,0,L|80:248,1,90,2|0,0:0|0:0,0:0:0:0:
220,352,65282,2,0,L|220:256,1,90,8|0,0:0|0:0,0:0:0:0:
440,144,65534,6,0,L|312:144,1,90,2|0,0:0|0:0,0:0:0:0:
208,64,65786,2,0,L|304:64,1,90,8|0,0:0|0:0,0:0:0:0:
104,344,66038,2,0,L|8:344,1,90,2|0,0:0|0:0,0:0:0:0:
156,280,66290,2,0,L|156:176,1,90,8|0,0:0|0:0,0:0:0:0:
388,164,66542,6,0,L|480:164,1,90,2|0,0:0|0:0,0:0:0:0:
272,60,66794,2,0,L|376:60,1,90,8|0,0:0|0:0,0:0:0:0:
156,168,67047,2,0,L|156:68,1,90,2|0,0:0|0:0,0:0:0:0:
16,308,67299,2,0,L|16:204,1,90,8|0,0:0|0:0,0:0:0:0:
328,336,67551,6,0,P|376:248|320:224,1,180,2|8,0:0|0:0,0:0:0:0:
88,128,68056,2,0,L|40:128,1,45,2|0,0:0|0:0,0:0:0:0:
88,128,68182,2,0,L|152:128,1,45,0|0,0:0|0:0,0:0:0:0:
288,160,68307,2,0,L|432:160,1,135,8|0,0:0|0:0,0:0:0:0:
216,352,68559,6,0,P|168:264|224:240,1,180,6|8,0:0|0:0,0:0:0:0:
304,240,68937,1,0,0:0:0:0:
88,192,69063,2,0,L|88:80,1,90,2|0,0:0|0:0,0:0:0:0:
280,88,69315,2,0,L|384:88,1,90,8|0,0:0|0:0,0:0:0:0:
152,352,69568,6,0,P|104:264|160:240,1,180,2|8,0:0|0:0,0:0:0:0:
240,240,69946,1,0,0:0:0:0:
456,240,70072,2,0,L|456:136,1,90,2|0,0:0|0:0,0:0:0:0:
240,56,70324,2,0,L|352:56,1,90,8|0,0:0|0:0,0:0:0:0:
40,320,70576,5,2,0:0:0:0:
156,320,70702,1,0,0:0:0:0:
272,320,70828,1,0,0:0:0:0:
388,320,70954,1,8,0:0:0:0:
160,216,71080,1,0,0:0:0:0:
276,216,71206,1,0,0:0:0:0:
160,216,71332,1,8,0:0:0:0:
44,216,71458,1,0,0:0:0:0:
304,64,71584,6,0,L|376:64,1,45,10|8,0:0|0:0,0:0:0:0:
304,64,71710,2,0,L|224:64,1,45,8|8,0:0|0:0,0:0:0:0:
400,104,71836,2,8,L|448:104,1,45,0|0,0:0|0:0,0:0:0:0:
490,104,71962,2,8,L|434:104,1,45,0|0,0:0|0:0,0:0:0:0:
272,256,72089,2,8,L|216:256,1,45,10|8,0:0|0:0,0:0:0:0:
392,256,72215,2,8,L|448:256,1,45,0|0,0:0|0:0,0:0:0:0:
248,136,72341,2,0,P|248:40|264:40,1,135,8|0,0:0|0:0,0:0:0:0:
437,346,72593,6,0,L|437:250,1,90,6|0,0:0|0:0,0:0:0:0:
352,344,72845,1,0,0:0:0:0:
312,326,72908,1,0,0:0:0:0:
302,284,72971,1,0,0:0:0:0:
329,250,73034,1,0,0:0:0:0:
488,176,73097,2,0,L|384:176,1,90,8|0,0:0|0:0,0:0:0:0:
200,176,73349,2,0,L|104:176,1,90,0|0,0:0|0:0,0:0:0:0:
376,304,73601,6,0,L|480:304,1,90,2|0,0:0|0:0,0:0:0:0:
376,120,73853,2,0,L|328:120,1,45,0|0,0:0|0:0,0:0:0:0:
376,120,73979,2,0,L|424:120,1,45,0|0,0:0|0:0,0:0:0:0:
264,256,74105,2,0,L|160:256,1,90,8|0,0:0|0:0,0:0:0:0:
264,256,74357,2,0,L|360:256,1,90,0|0,0:0|0:0,0:0:0:0:
112,160,74610,6,0,L|208:160,1,90,6|0,0:0|0:0,0:0:0:0:
288,160,74862,1,0,0:0:0:0:
328,142,74925,1,0,0:0:0:0:
338,100,74988,1,0,0:0:0:0:
311,66,75051,1,0,0:0:0:0:
152,304,75114,2,0,L|152:208,1,90,8|0,0:0|0:0,0:0:0:0:
352,304,75366,2,0,L|352:200,1,90,0|0,0:0|0:0,0:0:0:0:
64,144,75618,6,0,L|160:144,1,90,2|0,0:0|0:0,0:0:0:0:
240,224,75870,2,0,L|288:224,1,45,0|0,0:0|0:0,0:0:0:0:
240,224,75996,2,0,L|192:224,1,45,0|0,0:0|0:0,0:0:0:0:
384,312,76122,2,0,L|384:208,1,90,8|0,0:0|0:0,0:0:0:0:
296,88,76374,1,0,0:0:0:0:
251,88,76437,1,0,0:0:0:0:
206,88,76500,1,0,0:0:0:0:
161,88,76563,1,0,0:0:0:0:
384,256,76626,6,0,L|384:152,1,90,6|0,0:0|0:0,0:0:0:0:
244,192,76878,2,0,L|132:192,1,90,10|0,0:3|0:0,0:0:0:0:
344,336,77131,2,0,L|448:336,1,90,2|0,0:0|0:0,0:0:0:0:
296,256,77383,2,0,L|408:256,1,90,10|0,0:3|0:0,0:0:0:0:
152,344,77635,6,0,P|104:256|160:232,1,180,2|10,0:0|0:3,0:0:0:0:
240,232,78013,1,0,0:0:0:0:
432,152,78139,1,2,0:0:0:0:
316,152,78265,1,0,0:0:0:0:
200,152,78391,1,10,0:3:0:0:
84,152,78517,1,0,0:0:0:0:
344,336,78643,5,10,0:0:0:0:
424,288,78769,1,0,0:0:0:0:
424,201,78895,1,10,0:3:0:0:
344,152,79021,1,0,0:0:0:0:
128,344,79147,2,0,L|128:248,1,90,10|0,0:0|0:0,0:0:0:0:
344,272,79399,2,0,L|344:176,1,90,10|0,0:3|0:0,0:0:0:0:
104,80,79652,5,10,0:0:0:0:
220,80,79778,1,0,0:0:0:0:
336,80,79904,1,10,0:3:0:0:
220,80,80030,1,0,0:0:0:0:
416,192,80156,1,10,0:0:0:0:
300,192,80282,1,0,0:0:0:0:
184,192,80408,1,10,0:3:0:0:
300,192,80534,1,0,0:0:0:0:
56,344,80660,6,0,L|56:240,1,90,10|0,0:0|0:0,0:0:0:0:
264,352,80912,2,0,L|376:352,1,90,10|0,0:3|0:0,0:0:0:0:
144,104,81164,2,0,L|48:104,1,90,10|8,0:0|0:0,0:0:0:0:
96,48,81353,1,8,0:0:0:0:
256,192,81416,2,8,L|312:192,1,45,0|0,0:0|0:0,0:0:0:0:
440,128,81542,2,8,L|496:128,1,45,0|0,0:0|0:0,0:0:0:0:
344,56,81668,5,10,0:0:0:0:
299,56,81731,1,8,0:0:0:0:
254,56,81794,1,8,0:0:0:0:
209,56,81857,1,8,0:0:0:0:
352,128,81920,2,8,L|414:128,1,45,0|0,0:0|0:0,0:0:0:0:
352,128,82047,2,8,L|304:128,1,45,0|0,0:0|0:0,0:0:0:0:
112,320,82173,2,0,P|16:208|120:104,1,315,2|0,0:0|0:0,0:0:0:0:
352,288,82677,5,6,0:0:0:0:
440,288,82803,1,0,0:0:0:0:
352,288,82929,1,8,0:0:0:0:
264,288,83055,1,0,0:0:0:0:
72,160,83181,2,0,L|168:160,1,90,0|0,0:0|0:0,0:0:0:0:
72,160,83433,2,0,L|168:160,1,90,8|0,0:0|0:0,0:0:0:0:
376,80,83685,6,0,L|264:80,1,90,0|0,0:0|0:0,0:0:0:0:
376,80,83937,2,0,L|272:80,1,90,8|0,0:0|0:0,0:0:0:0:
64,320,84189,1,2,0:0:0:0:
256,320,84315,1,2,0:0:0:0:
448,320,84441,2,0,L|448:224,1,90,10|2,0:0|0:0,0:0:0:0:
208,152,84694,6,0,L|80:152,1,90,4|0,0:0|0:0,0:0:0:0:
208,152,84946,2,0,L|208:56,1,90,8|0,0:0|0:0,0:0:0:0:
400,152,85198,2,0,L|496:152,1,90,0|0,0:0|0:0,0:0:0:0:
400,152,85450,2,0,L|296:152,1,90,8|0,0:0|0:0,0:0:0:0:
96,352,85702,6,0,L|96:240,1,90,0|0,0:0|0:0,0:0:0:0:
184,264,85954,2,0,L|304:264,1,90,8|0,0:0|0:0,0:0:0:0:
312,264,86143,1,0,0:0:0:0:
168,112,86206,1,2,0:0:0:0:
284,112,86332,1,8,0:0:0:0:
168,112,86458,1,8,0:0:0:0:
52,112,86584,1,8,0:0:0:0:
296,184,86710,6,0,L|400:184,1,90,6|0,0:0|0:0,0:0:0:0:
296,96,86962,1,0,0:0:0:0:
251,96,87025,1,0,0:0:0:0:
206,96,87088,1,0,0:0:0:0:
251,96,87152,1,0,0:0:0:0:
424,344,87215,2,0,L|424:240,1,90,8|0,0:0|0:0,0:0:0:0:
336,248,87467,2,0,L|232:248,1,90,0|0,0:0|0:0,0:0:0:0:
16,104,87719,6,0,L|112:104,1,90,2|0,0:0|0:0,0:0:0:0:
244,104,87971,2,0,L|316:104,2,60,0|0|0,0:0|0:0|0:0,0:0:0:0:
80,336,88223,6,0,L|184:336,1,90,8|0,0:0|0:0,0:0:0:0:
260,336,88475,2,0,L|164:336,1,90,0|0,0:0|0:0,0:0:0:0:
400,280,88727,6,0,L|400:176,1,90,6|0,0:0|0:0,0:0:0:0:
312,144,88979,2,0,L|208:144,1,90,8|0,0:0|0:0,0:0:0:0:
416,280,89231,2,0,L|416:184,1,90,8|0,0:0|0:0,0:0:0:0:
328,64,89483,2,0,L|432:64,1,90,8|0,0:0|0:0,0:0:0:0:
136,336,89736,5,10,0:0:0:0:
88,336,89799,1,0,0:0:0:0:
40,336,89862,1,10,0:0:0:0:
88,336,89925,1,0,0:0:0:0:
256,264,89988,2,0,L|152:264,1,90,10|10,0:0|0:0,0:0:0:0:
376,176,90240,2,0,L|272:176,1,90,6|0,0:0|0:0,0:0:0:0:
16,212,90492,2,0,L|16:32,1,180,6|0,0:0|0:0,0:0:0:0:
256,192,90870,12,0,91500,0:0:0:0:
376,312,91752,5,4,0:0:0:0:
216,312,92004,2,0,L|320:312,1,90,8|0,0:0|0:0,0:0:0:0:
444,184,92256,2,0,L|340:184,1,90,0|8,0:0|0:0,0:0:0:0:
264,184,92508,2,0,L|368:184,1,90,0|0,0:0|0:0,0:0:0:0:
136,104,92761,6,0,L|248:104,2,90,10|0|0,0:0|0:0|0:0,0:0:0:0:
328,312,93139,1,0,0:0:0:0:
408,264,93265,1,0,0:0:0:0:
408,177,93391,1,0,0:0:0:0:
327,128,93517,1,8,0:0:0:0:
80,192,93769,6,0,L|200:192,1,90,0|0,0:0|0:0,0:0:0:0:
80,192,94021,2,0,L|80:80,1,90,8|0,0:0|0:0,0:0:0:0:
216,344,94273,2,0,L|328:344,1,90,0|8,0:0|0:0,0:0:0:0:
216,344,94525,2,0,L|104:344,1,90,0|0,0:0|0:0,0:0:0:0:
352,264,94777,6,0,P|408:192|352:160,1,180,10|0,0:0|0:0,0:0:0:0:
128,80,95156,2,0,L|328:80,1,180,0|0,0:0|0:0,0:0:0:0:
172,288,95534,2,0,L|76:288,1,90,0|0,0:0|0:0,0:0:0:0:
312,336,95786,6,0,L|312:240,1,90,6|0,0:0|0:0,0:0:0:0:
176,144,96038,2,0,L|72:144,1,90,8|0,0:0|0:0,0:0:0:0:
176,144,96290,2,0,L|280:144,1,90,0|8,0:0|0:0,0:0:0:0:
176,144,96542,2,0,L|64:144,1,90,0|0,0:0|0:0,0:0:0:0:
296,280,96794,6,0,B|392:280|392:280|280:280,1,180,10|0,0:0|0:0,0:0:0:0:
88,256,97173,2,0,P|32:184|88:152,1,180,0|0,0:0|0:0,0:0:0:0:
224,160,97550,2,0,L|328:160,1,90,8|0,0:0|0:0,0:0:0:0:
48,360,97803,6,0,L|48:240,1,90,0|0,0:0|0:0,0:0:0:0:
136,360,98055,2,0,L|232:360,1,90,8|0,0:0|0:0,0:0:0:0:
368,256,98307,2,0,L|272:256,1,90,0|8,0:0|0:0,0:0:0:0:
368,256,98559,2,0,L|368:152,1,90,0|0,0:0|0:0,0:0:0:0:
152,264,98811,6,0,P|96:192|152:160,1,180,10|0,0:0|0:0,0:0:0:0:
368,264,99189,2,0,P|424:192|368:160,1,180,2|0,0:0|0:0,0:0:0:0:
232,72,99568,2,0,L|120:72,1,90,8|0,0:0|0:0,0:0:0:0:
408,352,99820,6,0,L|504:352,1,90,4|0,0:0|0:0,0:0:0:0:
356,192,100072,2,0,L|252:192,1,90,0|0,0:0|0:0,0:0:0:0:
408,96,100324,2,0,L|504:96,1,90,8|0,0:0|0:0,0:0:0:0:
356,120,100576,2,0,L|356:24,1,90,0|0,0:0|0:0,0:0:0:0:
120,344,100828,6,0,P|72:256|128:232,1,180,0|0,0:0|0:0,0:0:0:0:
168,232,101143,1,0,0:0:0:0:
216,232,101206,1,0,0:0:0:0:
488,224,101332,5,8,0:0:0:0:
344,112,101584,2,0,L|456:112,1,90,0|0,0:0|0:0,0:0:0:0:
152,352,101836,6,0,L|56:352,1,90,0|0,0:0|0:0,0:0:0:0:
204,192,102088,2,0,L|308:192,1,90,0|0,0:0|0:0,0:0:0:0:
152,96,102340,2,0,L|56:96,1,90,8|0,0:0|0:0,0:0:0:0:
204,120,102592,2,0,L|204:24,1,90,0|0,0:0|0:0,0:0:0:0:
440,344,102844,6,0,P|488:256|432:232,1,180,0|0,0:0|0:0,0:0:0:0:
392,232,103159,1,0,0:0:0:0:
344,232,103222,1,0,0:0:0:0:
72,232,103349,5,8,0:0:0:0:
196,232,103475,2,0,L|268:232,1,45,8|8,0:0|0:0,0:0:0:0:
112,136,103601,2,0,L|0:136,1,90,8|8,0:0|0:0,0:0:0:0:
400,368,103853,6,0,L|400:0,1,360,2|8,0:0|0:0,0:0:0:0:
112,368,104862,6,0,L|408:144,1,360,2|8,0:0|0:0,0:0:0:0:
112,368,105870,6,0,L|112:0,1,360,2|8,0:0|0:0,0:0:0:0:
400,368,106878,6,0,L|104:144,1,360,2|6,0:0|0:0,0:0:0:0:
201,96,107509,1,0,0:0:0:0:
288,96,107635,2,0,L|288:-16,1,90,10|0,0:0|0:0,0:0:0:0:
96,272,107887,6,0,L|0:272,1,90,4|0,0:0|0:0,0:0:0:0:
96,272,108139,2,0,L|188:272,1,90,8|0,0:0|0:0,0:0:0:0:
376,248,108391,2,0,L|376:144,1,90,0|0,0:0|0:0,0:0:0:0:
288,112,108643,2,0,L|184:112,1,90,8|0,0:0|0:0,0:0:0:0:
392,344,108895,6,0,P|440:256|384:232,1,180,0|8,0:0|0:0,0:0:0:0:
200,120,109273,2,0,L|392:120,1,180,0|0,0:0|0:0,0:0:0:0:
244,272,109652,2,0,L|132:272,1,90,8|0,0:0|0:0,0:0:0:0:
360,184,109904,6,0,L|480:184,1,90,0|0,0:0|0:0,0:0:0:0:
360,184,110156,2,0,L|360:80,1,90,8|0,0:0|0:0,0:0:0:0:
168,320,110408,2,0,L|168:208,1,90,0|0,0:0|0:0,0:0:0:0:
256,224,110660,2,0,L|360:224,1,90,8|0,0:0|0:0,0:0:0:0:
152,344,110912,6,0,P|104:256|160:232,1,180,0|8,0:0|0:0,0:0:0:0:
344,120,111290,2,0,L|152:120,1,180,0|8,0:0|0:0,0:0:0:0:
300,260,111669,2,0,L|196:260,1,90,8|8,0:0|0:0,0:0:0:0:
448,360,111920,6,0,L|448:240,1,90,4|0,0:0|0:0,0:0:0:0:
308,360,112173,2,0,L|308:264,1,90,8|0,0:0|0:0,0:0:0:0:
172,180,112425,2,0,L|68:180,1,90,0|0,0:0|0:0,0:0:0:0:
220,88,112677,2,0,L|324:88,1,90,8|0,0:0|0:0,0:0:0:0:
80,344,112929,6,0,L|80:240,1,90,0|0,0:0|0:0,0:0:0:0:
216,256,113181,1,8,0:0:0:0:
440,160,113307,2,0,L|256:160,1,180,0|0,0:0|0:0,0:0:0:0:
124,72,113685,2,0,L|228:72,1,90,8|0,0:0|0:0,0:0:0:0:
440,344,113937,6,0,L|440:224,1,90,4|0,0:0|0:0,0:0:0:0:
300,344,114190,2,0,L|300:248,1,90,8|0,0:0|0:0,0:0:0:0:
488,120,114441,1,0,0:0:0:0:
372,120,114568,1,0,0:0:0:0:
256,120,114694,1,8,0:0:0:0:
140,120,114820,1,0,0:0:0:0:
344,336,114946,6,0,P|392:248|336:224,1,180,0|8,0:0|0:0,0:0:0:0:
128,224,115324,2,0,L|72:224,1,45,0|0,0:0|0:0,0:0:0:0:
256,160,115450,1,8,0:0:0:0:
384,160,115576,1,8,0:0:0:0:
192,56,115702,1,8,0:0:0:0:
64,56,115828,1,8,0:0:0:0:
296,344,115954,6,0,L|296:224,1,90,4|0,0:0|0:0,0:0:0:0:
160,144,116206,2,0,L|48:144,1,90,0|0,0:0|0:0,0:0:0:0:
264,344,116458,2,0,L|264:232,1,90,8|0,0:0|0:0,0:0:0:0:
400,128,116710,2,0,L|496:128,1,90,0|0,0:0|0:0,0:0:0:0:
272,224,116962,6,0,P|224:136|280:112,1,180,8|0,0:0|0:0,0:0:0:0:
488,48,117341,2,0,L|296:48,1,180,0|0,0:0|0:0,0:0:0:0:
88,336,117719,2,0,L|88:216,1,90,0|0,0:0|0:0,0:0:0:0:
416,360,117971,6,0,P|464:272|408:248,1,180,2|8,0:0|0:0,0:0:0:0:
168,144,118475,6,0,L|352:144,1,180,2|0,0:0|0:0,0:0:0:0:
96,360,118979,6,0,P|48:272|104:248,1,180,10|2,0:0|0:0,0:0:0:0:
344,144,119483,6,0,L|160:144,1,180,2|8,0:0|0:0,0:0:0:0:
248,80,119862,1,8,0:0:0:0:
440,304,119988,6,0,L|320:304,1,90,12|0,0:0|0:0,0:0:0:0:
484,232,120240,2,0,L|380:232,1,90,8|0,0:0|0:0,0:0:0:0:
176,152,120492,2,0,L|296:152,1,90,8|0,0:0|0:0,0:0:0:0:
132,80,120744,2,0,L|236:80,1,90,8|0,0:0|0:0,0:0:0:0:
440,80,120996,6,0,L|320:80,1,90,8|8,0:0|0:0,0:0:0:0:
160,272,121248,2,0,L|64:272,1,90,8|8,0:0|0:0,0:0:0:0:
352,352,121500,2,0,P|432:184|344:128,1,315,10|0,0:0|0:0,0:0:0:0:
112,128,122004,6,0,L|216:128,1,90,6|0,0:0|0:0,0:0:0:0:
344,48,122257,2,0,L|240:48,1,90,8|0,0:0|0:0,0:0:0:0:
56,352,122509,2,0,L|56:240,1,90,2|0,0:0|0:0,0:0:0:0:
196,352,122761,2,0,L|196:248,1,90,8|0,0:0|0:0,0:0:0:0:
416,136,123013,6,0,L|312:136,1,90,2|0,0:0|0:0,0:0:0:0:
184,56,123266,2,0,L|288:56,1,90,8|0,0:0|0:0,0:0:0:0:
80,352,123517,2,0,L|80:240,1,90,2|0,0:0|0:0,0:0:0:0:
220,352,123769,2,0,L|220:248,1,90,8|0,0:0|0:0,0:0:0:0:
440,360,124021,6,0,L|328:360,1,90,2|0,0:0|0:0,0:0:0:0:
208,136,124273,2,0,L|304:136,1,90,8|0,0:0|0:0,0:0:0:0:
104,192,124526,2,0,L|104:96,1,90,2|0,0:0|0:0,0:0:0:0:
244,40,124778,2,0,L|140:40,1,90,8|0,0:0|0:0,0:0:0:0:
432,352,125030,6,0,P|480:264|424:240,1,180,2|8,0:0|0:0,0:0:0:0:
192,192,125535,2,0,L|144:192,1,45,2|0,0:0|0:0,0:0:0:0:
192,192,125661,2,0,L|256:192,1,45,0|0,0:0|0:0,0:0:0:0:
80,352,125787,2,0,P|56:264|88:248,1,135,8|0,0:0|0:0,0:0:0:0:
264,256,126038,6,0,P|312:168|256:144,1,180,6|8,0:0|0:0,0:0:0:0:
176,104,126416,1,0,0:0:0:0:
368,360,126542,2,0,L|368:256,1,90,2|0,0:0|0:0,0:0:0:0:
152,40,126794,2,0,L|48:40,1,90,8|0,0:0|0:0,0:0:0:0:
280,192,127047,6,0,L|464:192,1,180,2|8,0:0|0:0,0:0:0:0:
376,136,127425,1,0,0:0:0:0:
160,352,127551,2,0,L|160:240,1,90,2|0,0:0|0:0,0:0:0:0:
200,264,127740,1,0,0:0:0:0:
360,264,127803,2,0,L|464:264,1,90,8|0,0:0|0:0,0:0:0:0:
136,80,128055,5,10,0:0:0:0:
252,80,128181,1,0,0:0:0:0:
368,80,128307,1,0,0:0:0:0:
484,80,128433,1,8,0:0:0:0:
252,304,128559,1,2,0:0:0:0:
136,304,128685,1,0,0:0:0:0:
252,208,128811,1,8,0:0:0:0:
368,208,128937,1,0,0:0:0:0:
64,192,129063,6,0,L|0:192,1,45,10|8,0:0|0:0,0:0:0:0:
64,192,129189,2,0,L|120:192,1,45,8|8,0:0|0:0,0:0:0:0:
248,112,129315,2,8,L|312:112,1,45,0|0,0:0|0:0,0:0:0:0:
248,112,129441,2,8,L|176:112,1,45,0|0,0:0|0:0,0:0:0:0:
376,312,129568,2,8,L|424:312,1,45,10|8,0:0|0:0,0:0:0:0:
256,312,129694,2,8,L|184:312,1,45,0|0,0:0|0:0,0:0:0:0:
416,256,129820,2,8,P|416:160|400:160,1,135,0|0,0:0|0:0,0:0:0:0:
168,160,130072,6,0,L|168:64,1,90,6|0,0:0|0:0,0:0:0:0:
308,160,130324,2,0,L|308:56,1,90,8|0,0:0|0:0,0:0:0:0:
120,328,130576,2,0,L|24:328,1,90,2|0,0:0|0:0,0:0:0:0:
236,224,130828,2,0,L|132:224,1,90,8|0,0:0|0:0,0:0:0:0:
352,344,131080,6,0,L|352:240,1,90,2|0,0:0|0:0,0:0:0:0:
212,344,131332,2,0,L|212:240,1,90,8|0,0:0|0:0,0:0:0:0:
416,148,131584,2,0,L|512:148,1,90,2|0,0:0|0:0,0:0:0:0:
368,64,131836,2,0,L|488:64,1,90,8|0,0:0|0:0,0:0:0:0:
236,244,132089,6,0,L|236:152,1,90,2|0,0:0|0:0,0:0:0:0:
376,248,132341,2,0,L|376:156,1,90,8|0,0:0|0:0,0:0:0:0:
172,344,132593,2,0,L|76:344,1,90,2|0,0:0|0:0,0:0:0:0:
224,348,132845,2,0,L|224:244,1,90,8|0,0:0|0:0,0:0:0:0:
488,192,133097,6,0,L|304:192,1,180,2|8,0:0|0:0,0:0:0:0:
72,88,133601,1,2,0:0:0:0:
117,88,133664,1,0,0:0:0:0:
162,88,133727,1,0,0:0:0:0:
207,88,133790,1,0,0:0:0:0:
48,320,133853,2,0,P|24:232|56:216,1,135,8|0,0:0|0:0,0:0:0:0:
256,168,134105,6,0,L|72:168,1,180,6|8,0:0|0:0,0:0:0:0:
160,240,134483,1,0,0:0:0:0:
376,72,134610,2,0,L|272:72,1,90,2|0,0:0|0:0,0:0:0:0:
72,176,134862,2,0,L|72:72,1,90,8|0,0:0|0:0,0:0:0:0:
312,352,135114,6,0,P|360:264|304:240,1,180,2|8,0:0|0:0,0:0:0:0:
72,88,135618,2,0,L|184:88,1,90,2|0,0:0|0:0,0:0:0:0:
360,88,135870,2,0,L|464:88,1,90,8|0,0:0|0:0,0:0:0:0:
176,320,136122,6,0,L|48:320,1,90,10|0,0:0|0:0,0:0:0:0:
224,232,136374,2,0,L|104:232,1,90,0|8,0:0|0:0,0:0:0:0:
360,232,136626,2,0,L|464:232,1,90,2|0,0:0|0:0,0:0:0:0:
312,128,136878,2,0,L|424:128,1,90,8|0,0:0|0:0,0:0:0:0:
120,152,137131,6,0,L|64:152,1,45,10|8,0:0|0:0,0:0:0:0:
232,80,137257,2,0,L|288:80,1,45,8|8,0:0|0:0,0:0:0:0:
120,224,137383,2,8,L|56:224,1,45,0|0,0:0|0:0,0:0:0:0:
120,224,137509,2,8,L|184:224,1,45,0|0,0:0|0:0,0:0:0:0:
368,224,137635,2,0,P|368:128|352:128,1,135,10|0,0:0|0:0,0:0:0:0:
165,224,137887,2,0,P|165:128|181:128,1,135,8|0,0:0|0:0,0:0:0:0:
360,336,138139,6,0,L|256:336,1,90,6|0,0:0|0:0,0:0:0:0:
184,280,138391,2,0,L|120:280,1,45,0|0,0:0|0:0,0:0:0:0:
94,280,138517,2,0,L|158:280,1,45,0|0,0:0|0:0,0:0:0:0:
328,168,138643,2,0,L|328:64,1,90,8|0,0:0|0:0,0:0:0:0:
136,168,138895,2,0,L|136:72,1,90,0|0,0:0|0:0,0:0:0:0:
400,240,139147,6,0,L|400:144,1,90,2|0,0:0|0:0,0:0:0:0:
312,320,139399,1,0,0:0:0:0:
272,302,139462,1,0,0:0:0:0:
262,260,139525,1,0,0:0:0:0:
289,226,139588,1,0,0:0:0:0:
440,56,139652,2,0,L|336:56,1,90,8|0,0:0|0:0,0:0:0:0:
260,56,139904,2,0,L|356:56,1,90,0|0,0:0|0:0,0:0:0:0:
112,176,140156,6,0,L|8:176,1,90,6|0,0:0|0:0,0:0:0:0:
112,80,140408,2,0,L|160:80,1,45,0|0,0:0|0:0,0:0:0:0:
112,80,140534,2,0,L|64:80,1,45,0|0,0:0|0:0,0:0:0:0:
256,320,140660,2,0,L|376:320,1,90,8|0,0:0|0:0,0:0:0:0:
152,224,140912,2,0,L|48:224,1,90,0|0,0:0|0:0,0:0:0:0:
328,112,141164,6,0,L|208:112,1,90,2|0,0:0|0:0,0:0:0:0:
152,144,141416,1,0,0:0:0:0:
112,126,141479,1,0,0:0:0:0:
102,84,141542,1,0,0:0:0:0:
129,50,141605,1,0,0:0:0:0:
320,344,141668,2,0,L|320:232,1,90,8|0,0:0|0:0,0:0:0:0:
232,168,141920,1,0,0:0:0:0:
277,168,141983,1,0,0:0:0:0:
322,168,142046,1,0,0:0:0:0:
367,168,142109,1,0,0:0:0:0:
144,344,142173,6,0,L|40:344,1,90,6|0,0:0|0:0,0:0:0:0:
192,256,142425,2,0,L|80:256,1,90,10|0,0:3|0:0,0:0:0:0:
304,96,142677,2,0,L|400:96,1,90,2|0,0:0|0:0,0:0:0:0:
252,40,142929,2,0,L|148:40,1,90,10|0,0:3|0:0,0:0:0:0:
376,344,143181,6,0,P|424:256|368:232,1,180,2|10,0:0|0:3,0:0:0:0:
288,232,143559,1,0,0:0:0:0:
96,144,143685,1,2,0:0:0:0:
212,144,143811,1,0,0:0:0:0:
328,144,143937,1,10,0:3:0:0:
444,144,144063,1,0,0:0:0:0:
184,336,144189,5,10,0:0:0:0:
104,288,144315,1,0,0:0:0:0:
104,201,144441,1,10,0:3:0:0:
184,152,144567,1,0,0:0:0:0:
376,264,144694,2,0,L|264:264,1,90,10|0,0:0|0:0,0:0:0:0:
480,80,144946,2,0,L|368:80,1,90,10|0,0:3|0:0,0:0:0:0:
120,72,145198,5,10,0:0:0:0:
236,72,145324,1,0,0:0:0:0:
352,72,145450,1,10,0:3:0:0:
236,72,145576,1,0,0:0:0:0:
456,176,145702,1,10,0:0:0:0:
340,176,145828,1,0,0:0:0:0:
224,176,145954,1,10,0:3:0:0:
108,176,146080,1,0,0:0:0:0:
368,288,146206,5,6,0:0:0:0:
256,192,146332,12,0,147719,0:0:0:0:
304,352,150240,6,0,P|392:200|288:56,1,360,0|0,0:0|0:0,0:0:0:0:
192,360,151248,6,0,L|320:24,1,360,0|0,0:0|0:0,0:0:0:0:
208,352,152257,6,0,P|120:200|224:56,1,360,0|0,0:0|0:0,0:0:0:0:
320,360,153265,6,0,L|192:24,1,360,0|0,0:0|0:0,0:0:0:0:
376,352,154273,6,0,P|448:256|360:144,1,270,6|2,0:0|0:0,0:0:0:0:
160,96,155030,2,0,L|320:192,1,180,2|0,0:0|0:0,0:0:0:0:
104,352,155660,2,0,P|32:256|120:144,1,270,0|0,0:0|0:0,0:0:0:0:
264,80,156290,6,0,L|48:272,1,270,2|2,0:0|0:0,0:0:0:0:
256,160,157047,2,0,L|96:256,1,180,0|2,0:0|0:0,0:0:0:0:
344,272,157803,2,0,L|344:80,1,180,0|0,0:0|0:0,0:0:0:0:
184,320,158307,6,0,P|112:224|200:112,1,270,0|0,0:0|0:0,0:0:0:0:
384,104,159063,2,0,L|224:200,1,180,0|0,0:0|0:0,0:0:0:0:
440,176,159694,2,0,L|224:368,1,270,0|0,0:0|0:0,0:0:0:0:
400,312,160324,6,0,P|472:216|384:104,1,270,2|2,0:0|0:0,0:0:0:0:
184,312,161080,1,2,0:0:0:0:
216,312,161143,1,0,0:0:0:0:
248,312,161206,1,0,0:0:0:0:
280,312,161269,1,0,0:0:0:0:
312,312,161332,1,10,0:0:0:0:
184,208,161584,1,0,0:0:0:0:
336,80,161836,2,0,L|496:176,1,180,10|0,0:0|0:0,0:0:0:0:
16,128,162341,6,0,L|136:128,2,90,6|0|0,0:0|0:0|0:0,0:0:0:0:
232,192,162719,2,0,L|424:192,1,180,6|0,0:0|0:0,0:0:0:0:
192,72,163097,2,0,L|88:72,1,90,10|0,0:0|0:0,0:0:0:0:
360,304,163349,6,0,L|160:304,1,180,6|0,0:0|0:0,0:0:0:0:
400,208,163727,2,0,L|496:208,2,90,6|0|0,0:0|0:0|0:0,0:0:0:0:
184,208,164105,2,0,L|64:208,1,90,10|0,0:0|0:0,0:0:0:0:
400,352,164357,6,0,P|448:264|392:240,1,180,6|0,0:0|0:0,0:0:0:0:
200,344,164736,2,0,P|152:256|208:232,1,180,6|0,0:0|0:0,0:0:0:0:
392,144,165114,2,0,L|496:144,1,90,10|0,0:0|0:0,0:0:0:0:
224,56,165366,6,0,L|344:56,1,90,0|0,0:0|0:0,0:0:0:0:
176,320,165618,2,0,L|176:208,1,90,0|0,0:0|0:0,0:0:0:0:
384,144,165870,1,0,0:0:0:0:
268,144,165996,1,0,0:0:0:0:
152,144,166122,1,0,0:0:0:0:
36,144,166248,1,0,0:0:0:0:
312,320,166374,6,0,P|360:232|304:208,1,180,6|0,0:0|0:0,0:0:0:0:
224,208,166752,1,0,0:0:0:0:
440,312,166878,2,0,L|440:200,1,90,10|0,0:0|0:0,0:0:0:0:
300,312,167131,2,0,L|300:208,1,90,2|0,0:0|0:0,0:0:0:0:
80,112,167383,6,0,L|192:112,1,90,2|0,0:0|0:0,0:0:0:0:
308,168,167635,2,0,L|308:56,1,90,0|0,0:0|0:0,0:0:0:0:
120,296,167887,2,0,L|24:296,1,90,8|0,0:0|0:0,0:0:0:0:
120,224,168139,2,0,L|216:224,1,90,0|0,0:0|0:0,0:0:0:0:
432,288,168391,6,0,P|480:200|424:176,1,180,6|0,0:0|0:0,0:0:0:0:
344,176,168769,2,0,L|288:176,1,45,0|0,0:0|0:0,0:0:0:0:
144,288,168895,1,10,0:0:0:0:
64,240,169021,1,0,0:0:0:0:
64,153,169147,1,2,0:0:0:0:
144,104,169273,1,0,0:0:0:0:
360,104,169399,6,0,L|248:104,1,90,2|0,0:0|0:0,0:0:0:0:
132,344,169652,2,0,L|132:232,1,90,0|0,0:0|0:0,0:0:0:0:
272,232,169904,2,0,L|368:232,1,90,8|0,0:0|0:0,0:0:0:0:
168,96,170156,2,0,L|72:96,1,90,0|0,0:0|0:0,0:0:0:0:
352,96,170408,6,0,L|456:96,1,90,6|0,0:0|0:0,0:0:0:0:
304,288,170660,2,0,L|424:288,1,90,8|0,0:0|0:0,0:0:0:0:
152,288,170912,2,0,L|48:288,1,90,8|0,0:0|0:0,0:0:0:0:
200,176,171164,2,0,L|72:176,1,90,8|0,0:0|0:0,0:0:0:0:
392,176,171416,6,0,L|488:176,1,90,8|0,0:0|0:0,0:0:0:0:
344,96,171668,2,0,L|448:96,1,90,8|0,0:0|0:0,0:0:0:0:
296,288,171920,2,0,L|408:288,1,90,8|0,0:0|0:0,0:0:0:0:
248,208,172173,2,0,L|344:208,1,90,8|0,0:0|0:0,0:0:0:0:
64,352,172425,6,0,L|64:248,1,90,2|0,0:0|0:0,0:0:0:0:
204,352,172677,2,0,L|204:256,1,90,0|0,0:0|0:0,0:0:0:0:
344,352,172929,2,0,L|344:256,1,90,0|0,0:0|0:0,0:0:0:0:
484,352,173181,2,0,L|484:256,1,90,0|0,0:0|0:0,0:0:0:0:
136,144,173433,5,4,0:0:0:0:
224,224,173969,2,0,L|160:224,1,45,2|2,0:0|0:0,0:0:0:0:
384,304,174095,2,0,L|328:304,1,45,2|2,0:0|0:0,0:0:0:0:
96,304,174221,2,0,L|40:304,1,45,2|2,0:0|0:0,0:0:0:0:
96,304,174347,1,2,0:0:0:0:
368,128,174441,6,0,L|368:32,1,90,6|0,0:0|0:0,0:0:0:0:
228,128,174693,2,0,L|228:24,1,90,8|0,0:0|0:0,0:0:0:0:
416,320,174945,2,0,L|512:320,1,90,2|0,0:0|0:0,0:0:0:0:
364,232,175198,2,0,L|268:232,1,90,8|0,0:0|0:0,0:0:0:0:
48,128,175450,6,0,L|48:32,1,90,2|0,0:0|0:0,0:0:0:0:
188,128,175702,2,0,L|188:24,1,90,8|0,0:0|0:0,0:0:0:0:
384,336,175954,2,0,L|288:336,1,90,2|0,0:0|0:0,0:0:0:0:
432,240,176207,2,0,L|336:240,1,90,8|0,0:0|0:0,0:0:0:0:
136,232,176458,6,0,L|136:136,1,90,2|0,0:0|0:0,0:0:0:0:
336,64,176710,2,0,L|440:64,1,90,8|0,0:0|0:0,0:0:0:0:
176,328,176962,2,0,L|64:328,1,90,2|0,0:0|0:0,0:0:0:0:
224,232,177214,2,0,L|112:232,1,90,8|0,0:0|0:0,0:0:0:0:
416,360,177466,6,0,P|464:272|408:248,1,180,2|8,0:0|0:0,0:0:0:0:
176,200,177971,2,0,L|128:200,1,45,2|0,0:0|0:0,0:0:0:0:
176,200,178097,2,0,L|240:200,1,45,0|0,0:0|0:0,0:0:0:0:
64,360,178223,2,0,P|40:272|72:256,1,135,8|0,0:0|0:0,0:0:0:0:
256,88,178475,6,0,L|440:88,1,180,6|8,0:0|0:0,0:0:0:0:
352,160,178853,1,0,0:0:0:0:
160,328,178979,2,0,L|48:328,1,90,2|0,0:0|0:0,0:0:0:0:
288,336,179231,2,0,L|288:232,1,90,8|0,0:0|0:0,0:0:0:0:
72,248,179483,6,0,P|24:160|80:136,1,180,2|8,0:0|0:0,0:0:0:0:
160,136,179861,1,0,0:0:0:0:
376,320,179987,2,0,L|376:208,1,90,2|0,0:0|0:0,0:0:0:0:
160,56,180240,2,0,L|56:56,1,90,8|0,0:0|0:0,0:0:0:0:
360,176,180492,5,10,0:0:0:0:
244,176,180618,1,0,0:0:0:0:
360,88,180744,1,0,0:0:0:0:
476,88,180870,1,8,0:0:0:0:
244,88,180996,1,2,0:0:0:0:
360,88,181122,1,0,0:0:0:0:
244,88,181248,1,8,0:0:0:0:
128,88,181374,1,0,0:0:0:0:
384,304,181500,6,0,L|448:304,1,45,10|8,0:0|0:0,0:0:0:0:
384,304,181626,2,0,L|312:304,1,45,8|8,0:0|0:0,0:0:0:0:
200,152,181752,1,0,0:0:0:0:
245,152,181815,1,0,0:0:0:0:
290,152,181878,1,0,0:0:0:0:
335,152,181941,1,0,0:0:0:0:
168,328,182004,2,8,L|112:328,1,45,10|8,0:0|0:0,0:0:0:0:
288,328,182130,2,8,L|336:328,1,45,0|0,0:0|0:0,0:0:0:0:
128,256,182256,2,8,P|128:160|144:160,1,135,0|0,0:0|0:0,0:0:0:0:
376,56,182509,6,0,L|280:56,1,90,6|0,0:0|0:0,0:0:0:0:
144,248,182761,2,0,L|256:248,1,90,8|0,0:0|0:0,0:0:0:0:
432,352,183013,2,0,L|432:248,1,90,2|0,0:0|0:0,0:0:0:0:
292,352,183265,2,0,L|292:256,1,90,8|0,0:0|0:0,0:0:0:0:
72,144,183517,6,0,L|200:144,1,90,2|0,0:0|0:0,0:0:0:0:
304,64,183769,2,0,L|208:64,1,90,8|0,0:0|0:0,0:0:0:0:
408,344,184021,2,0,L|512:344,1,90,2|0,0:0|0:0,0:0:0:0:
356,284,184273,2,0,L|356:180,1,90,8|0,0:0|0:0,0:0:0:0:
106,120,184525,6,0,L|16:120,1,90,2|0,0:0|0:0,0:0:0:0:
224,48,184778,2,0,L|120:48,1,90,8|0,0:0|0:0,0:0:0:0:
340,320,185030,2,0,L|340:212,1,90,2|0,0:0|0:0,0:0:0:0:
476,324,185282,2,0,L|476:228,1,90,8|0,0:0|0:0,0:0:0:0:
184,336,185534,6,0,P|136:248|192:224,1,180,2|8,0:0|0:0,0:0:0:0:
424,128,186039,2,0,L|472:128,1,45,2|0,0:0|0:0,0:0:0:0:
424,128,186165,2,0,L|360:128,1,45,0|0,0:0|0:0,0:0:0:0:
224,160,186290,2,0,L|80:160,1,135,8|0,0:0|0:0,0:0:0:0:
296,352,186542,6,0,P|344:264|288:240,1,180,6|8,0:0|0:0,0:0:0:0:
208,240,186920,1,0,0:0:0:0:
424,192,187046,2,0,L|424:80,1,90,2|0,0:0|0:0,0:0:0:0:
232,88,187298,2,0,L|128:88,1,90,8|0,0:0|0:0,0:0:0:0:
360,352,187551,6,0,P|408:264|352:240,1,180,2|8,0:0|0:0,0:0:0:0:
272,240,187929,1,0,0:0:0:0:
56,240,188055,2,0,L|56:136,1,90,2|0,0:0|0:0,0:0:0:0:
272,56,188307,2,0,L|160:56,1,90,8|0,0:0|0:0,0:0:0:0:
472,320,188559,5,10,0:0:0:0:
356,320,188685,1,0,0:0:0:0:
240,320,188811,1,0,0:0:0:0:
124,320,188937,1,8,0:0:0:0:
356,216,189063,1,2,0:0:0:0:
240,216,189189,1,0,0:0:0:0:
356,216,189315,1,8,0:0:0:0:
472,216,189441,1,0,0:0:0:0:
208,64,189567,6,0,L|136:64,1,45,10|8,0:0|0:0,0:0:0:0:
208,64,189693,2,0,L|288:64,1,45,8|8,0:0|0:0,0:0:0:0:
112,104,189820,2,0,L|64:104,1,45,8|8,0:0|0:0,0:0:0:0:
22,104,189946,2,0,L|78:104,1,45,8|8,0:0|0:0,0:0:0:0:
240,256,190072,2,8,L|296:256,1,45,10|8,0:0|0:0,0:0:0:0:
120,256,190198,2,8,L|64:256,1,45,0|0,0:0|0:0,0:0:0:0:
264,136,190324,2,0,P|264:40|248:40,1,135,8|0,0:0|0:0,0:0:0:0:
40,344,190576,6,0,L|144:344,1,90,6|0,0:0|0:0,0:0:0:0:
272,232,190828,2,0,L|160:232,1,90,8|0,0:0|0:0,0:0:0:0:
376,320,191080,2,0,L|480:320,1,90,2|0,0:0|0:0,0:0:0:0:
324,240,191332,2,0,L|220:240,1,90,8|0,0:0|0:0,0:0:0:0:
448,176,191584,6,0,L|448:72,1,90,2|0,0:0|0:0,0:0:0:0:
360,176,191836,2,0,L|360:80,1,90,8|0,0:0|0:0,0:0:0:0:
168,336,192089,2,0,L|72:336,1,90,2|0,0:0|0:0,0:0:0:0:
168,256,192341,2,0,L|264:256,1,90,8|0,0:0|0:0,0:0:0:0:
40,160,192593,6,0,L|144:160,1,90,2|0,0:0|0:0,0:0:0:0:
272,80,192845,2,0,L|176:80,1,90,8|0,0:0|0:0,0:0:0:0:
376,240,193097,2,0,L|272:240,1,90,2|0,0:0|0:0,0:0:0:0:
424,160,193349,2,0,L|328:160,1,90,8|0,0:0|0:0,0:0:0:0:
120,344,193601,6,0,L|120:240,1,90,2|0,0:0|0:0,0:0:0:0:
208,144,193853,2,0,L|112:144,1,90,8|0,0:0|0:0,0:0:0:0:
312,240,194105,2,0,L|416:240,1,90,2|0,0:0|0:0,0:0:0:0:
312,240,194357,2,0,L|208:240,1,90,8|0,0:0|0:0,0:0:0:0:
440,184,194610,6,0,L|440:80,1,90,6|0,0:0|0:0,0:0:0:0:
300,184,194862,2,0,L|300:72,1,90,10|0,0:3|0:0,0:0:0:0:
104,328,195114,2,0,L|8:328,1,90,2|0,0:0|0:0,0:0:0:0:
152,240,195366,2,0,L|56:240,1,90,10|0,0:3|0:0,0:0:0:0:
288,192,195618,6,0,L|408:192,1,90,2|0,0:0|0:0,0:0:0:0:
288,192,195870,2,0,L|176:192,1,90,10|0,0:3|0:0,0:0:0:0:
392,320,196122,2,0,L|504:320,1,90,2|0,0:0|0:0,0:0:0:0:
392,320,196374,2,0,L|288:320,1,90,10|0,0:3|0:0,0:0:0:0:
80,240,196626,6,0,L|80:128,1,90,10|0,0:0|0:0,0:0:0:0:
220,240,196878,2,0,L|220:144,1,90,10|0,0:3|0:0,0:0:0:0:
416,240,197131,2,0,L|416:144,1,90,10|0,0:0|0:0,0:0:0:0:
276,240,197383,2,0,L|276:136,1,90,10|0,0:3|0:0,0:0:0:0:
56,48,197635,5,10,0:0:0:0:
172,48,197761,1,0,0:0:0:0:
288,48,197887,1,10,0:3:0:0:
404,48,198013,1,0,0:0:0:0:
364,48,198076,1,0,0:0:0:0:
160,320,198139,2,0,L|48:320,1,90,10|0,0:0|0:0,0:0:0:0:
264,192,198391,2,0,L|168:192,1,90,10|8,0:3|0:0,0:0:0:0:
432,320,198643,6,0,L|432:224,1,90,6|0,0:0|0:0,0:0:0:0:
344,320,198895,1,0,0:0:0:0:
304,302,198958,1,0,0:0:0:0:
294,260,199021,1,0,0:0:0:0:
321,226,199084,1,0,0:0:0:0:
480,112,199147,2,0,L|384:112,1,90,12|0,0:0|0:0,0:0:0:0:
200,48,199399,2,0,L|312:48,1,90,0|0,0:0|0:0,0:0:0:0:
32,192,199652,6,0,L|152:192,1,90,6|0,0:0|0:0,0:0:0:0:
208,120,199904,2,0,L|256:120,1,45,0|0,0:0|0:0,0:0:0:0:
208,120,200030,2,0,L|160:120,1,45,0|0,0:0|0:0,0:0:0:0:
336,352,200156,2,0,P|384:264|328:240,1,180,12|0,0:0|0:0,0:0:0:0:
248,240,200534,1,0,0:0:0:0:
496,152,200660,6,0,L|384:152,1,90,6|0,0:0|0:0,0:0:0:0:
320,72,200912,2,0,L|272:72,1,45,0|0,0:0|0:0,0:0:0:0:
320,72,201038,2,0,L|368:72,1,45,0|0,0:0|0:0,0:0:0:0:
208,160,201164,2,0,L|96:160,1,90,12|0,0:0|0:0,0:0:0:0:
28,160,201416,2,0,L|132:160,1,90,0|0,0:0|0:0,0:0:0:0:
384,336,201668,6,0,P|432:248|376:224,1,180,6|0,0:0|0:0,0:0:0:0:
296,224,202047,1,0,0:0:0:0:
80,96,202173,1,12,0:0:0:0:
168,48,202299,2,0,L|224:48,1,45,0|0,0:0|0:0,0:0:0:0:
48,344,202425,2,0,L|48:224,1,90,8|8,0:0|0:0,0:0:0:0:
336,320,202677,6,0,L|440:320,1,90,14|0,0:0|0:0,0:0:0:0:
284,192,202929,2,0,L|172:192,1,90,8|0,0:0|0:0,0:0:0:0:
384,192,203181,2,0,L|384:88,1,90,10|0,0:0|0:0,0:0:0:0:
244,192,203433,2,0,L|244:96,1,90,8|0,0:0|0:0,0:0:0:0:
24,312,203685,5,10,0:0:0:0:
140,312,203811,1,0,0:0:0:0:
256,312,203937,1,8,0:0:0:0:
372,312,204063,1,0,0:0:0:0:
184,208,204189,1,10,0:0:0:0:
304,208,204315,1,8,0:0:0:0:
184,208,204441,1,8,0:0:0:0:
304,208,204568,1,8,0:0:0:0:
64,120,204694,5,4,0:0:0:0:
256,192,204820,12,0,206458,0:0:0:0:
248,320,206710,6,0,L|248:224,1,90,6|0,0:0|0:0,0:0:0:0:
108,320,206962,2,0,L|108:224,1,90,8|0,0:0|0:0,0:0:0:0:
296,160,207215,2,0,L|184:160,1,90,0|0,0:0|0:0,0:0:0:0:
344,80,207467,2,0,L|240:80,1,90,8|0,0:0|0:0,0:0:0:0:
480,336,207719,6,0,L|480:232,1,90,0|0,0:0|0:0,0:0:0:0:
340,344,207971,2,0,L|340:248,1,90,8|0,0:0|0:0,0:0:0:0:
144,288,208223,1,2,0:0:0:0:
64,236,208349,1,2,0:0:0:0:
64,149,208475,1,10,0:0:0:0:
144,104,208601,1,2,0:0:0:0:
360,104,208727,6,0,L|248:104,1,90,6|0,0:0|0:0,0:0:0:0:
412,304,208979,2,0,L|412:208,1,90,8|0,0:0|0:0,0:0:0:0:
224,184,209231,2,0,L|320:184,1,90,0|0,0:0|0:0,0:0:0:0:
172,320,209483,2,0,L|172:224,1,90,8|0,0:0|0:0,0:0:0:0:
392,88,209736,6,0,L|288:88,1,90,0|0,0:0|0:0,0:0:0:0:
440,32,209988,2,0,L|328:32,1,90,8|0,0:0|0:0,0:0:0:0:
164,264,210240,2,0,L|108:264,1,45,2|0,0:0|0:0,0:0:0:0:
260,200,210366,2,0,L|324:200,1,45,8|8,0:0|0:0,0:0:0:0:
140,192,210492,2,0,P|140:96|156:96,1,135,8|0,0:0|0:0,0:0:0:0:
368,320,210744,6,0,L|368:224,1,90,6|0,0:0|0:0,0:0:0:0:
228,316,210996,2,0,L|228:220,1,90,0|0,0:0|0:0,0:0:0:0:
416,160,211249,2,0,L|304:160,1,90,8|0,0:0|0:0,0:0:0:0:
464,80,211501,2,0,L|360:80,1,90,0|8,0:0|0:0,0:0:0:0:
168,288,211752,6,0,L|280:288,1,90,0|8,0:0|0:0,0:0:0:0:
116,168,212004,2,0,L|52:168,1,45,0|0,0:0|0:0,0:0:0:0:
116,168,212131,2,0,L|172:168,1,45,0|0,0:0|0:0,0:0:0:0:
312,168,212257,2,0,L|312:64,1,90,8|0,0:0|0:0,0:0:0:0:
172,48,212509,2,0,L|76:48,1,90,0|0,0:0|0:0,0:0:0:0:
344,320,212761,6,0,L|248:320,1,90,6|0,0:0|0:0,0:0:0:0:
392,232,213013,2,0,L|296:232,1,90,8|0,0:0|0:0,0:0:0:0:
112,144,213265,2,0,L|208:144,1,90,8|0,0:0|0:0,0:0:0:0:
64,64,213517,2,0,L|160:64,1,90,8|0,0:0|0:0,0:0:0:0:
400,192,213769,6,0,L|336:192,1,45,8|8,0:0|0:0,0:0:0:0:
200,192,213895,2,0,L|136:192,1,45,8|8,0:0|0:0,0:0:0:0:
312,116,214021,2,8,L|376:116,1,45,8|8,0:0|0:0,0:0:0:0:
312,116,214147,2,8,L|248:116,1,45,8|8,0:0|0:0,0:0:0:0:
40,308,214273,2,0,L|144:308,1,90,8|8,0:0|0:0,0:0:0:0:
408,236,214526,6,0,L|408:56,1,180,14|2,0:0|0:0,0:0:0:0:
