osu file format v14

[General]
AudioFilename: audio.mp3
AudioLeadIn: 0
PreviewTime: 53440
Countdown: 0
SampleSet: Soft
StackLeniency: 0.9
Mode: 0
LetterboxInBreaks: 0
WidescreenStoryboard: 1

[Editor]
Bookmarks: 63573
DistanceSpacing: 0.2
BeatDivisor: 4
GridSize: 8
TimelineZoom: 3.499999

[Metadata]
Title:Blade of Hope (Another Version)
TitleUnicode:Blade of Hope (Another Version)
Artist:Selphius
ArtistUnicode:Selphius
Creator:Nao Tomori
Version:Normal
Source:新妹魔王の契約者
Tags:shinmai maou no keiyakusha testament new sister devil opening sweet arms season one anime japanese pop electronic edm dnb hard tech remix crouka mir keevy
BeatmapID:2864261
BeatmapSetID:1386486

[Difficulty]
HPDrainRate:3
CircleSize:3.4
OverallDifficulty:3.6
ApproachRate:6
SliderMultiplier:0.969999999999999
SliderTickRate:1

[Events]
//Background and Video events
0,0,"78926154_p0.jpg",0,0
//Break Periods
2,2026,9712
//Storyboard Layer 0 (Background)
//Storyboard Layer 1 (Fail)
//Storyboard Layer 2 (Pass)
//Storyboard Layer 3 (Foreground)
//Storyboard Layer 4 (Overlay)
//Storyboard Sound Samples

[TimingPoints]
-3280,319.148936170213,4,2,1,32,1,0
1188,-100,4,2,1,32,0,0
4379,-100,4,2,1,16,0,0
6932,-100,4,2,1,20,0,0
9485,-100,4,2,1,25,0,0
10762,-100,4,2,1,66,0,0
11081,-100,4,2,1,66,0,0
12039,-100,4,2,1,66,0,0
12358,-100,4,2,1,66,0,0
12517,-100,4,2,1,66,0,0
12837,-100,4,2,1,66,0,0
13315,-100,4,2,1,66,0,0
13954,-100,4,2,1,66,0,0
14113,-100,4,2,1,66,0,0
14273,-100,4,2,1,66,0,0
14592,-100,4,2,1,66,0,0
14911,-100,4,2,1,66,0,0
15071,-100,4,2,1,66,0,0
15390,-100,4,2,1,66,0,0
15868,-100,4,2,1,66,0,0
16507,-100,4,2,1,66,0,0
17145,-100,4,2,1,66,0,0
17464,-100,4,2,1,66,0,0
17624,-100,4,2,1,66,0,0
17943,-100,4,2,1,66,0,0
18422,-100,4,2,1,66,0,0
19060,-100,4,2,1,66,0,0
19379,-100,4,2,1,66,0,0
19698,-100,4,2,1,66,0,0
20017,-100,4,2,1,66,0,0
20177,-100,4,2,1,66,0,0
22251,-114.942528735632,4,2,1,36,0,0
23847,-114.942528735632,4,2,1,36,0,0
29432,-100,4,2,1,36,0,0
30948,-100,4,2,1,36,0,0
31028,-100,4,2,1,66,0,0
31188,-100,4,2,1,66,0,0
32464,-100,4,2,1,56,0,0
34060,-100,4,2,1,56,0,0
34539,-100,4,2,1,56,0,0
35017,-100,4,2,1,56,0,0
36613,-100,4,2,1,56,0,0
36932,-100,4,2,1,56,0,0
37251,-100,4,2,1,56,0,0
37571,-100,4,2,1,56,0,0
39645,-100,4,2,1,56,0,0
40124,-100,4,2,1,56,0,0
40922,-100,4,2,1,56,0,0
41560,-100,4,2,1,36,0,0
42677,-100,4,2,1,56,0,0
48422,-100,4,2,1,56,0,0
52890,-100,4,2,1,56,0,0
53528,-100,4,2,1,56,0,0
54166,-100,4,2,1,76,0,1
54485,-100,4,2,1,76,0,0
54645,-100,4,2,1,76,0,0
55443,-100,4,2,1,76,0,1
55762,-100,4,2,1,76,0,0
56081,-100,4,2,1,76,0,0
56720,-100,4,2,1,76,0,1
57039,-100,4,2,1,76,0,0
57996,-100,4,2,1,76,0,1
58954,-100,4,2,1,76,0,1
59193,-100,4,2,1,76,0,0
59273,-100,4,2,1,76,0,1
59592,-100,4,2,1,76,0,1
60071,-100,4,2,1,76,0,1
60230,-100,4,2,1,76,0,1
60549,-100,4,2,1,76,0,1
61347,-100,4,2,1,76,0,1
61507,-100,4,2,1,76,0,1
61826,-100,4,2,1,76,0,1
62145,-100,4,2,1,76,0,1
64060,-100,4,2,1,76,0,0
64379,-100,4,2,1,76,0,1
64698,-100,4,2,1,76,0,0
65337,-100,4,2,1,76,0,0
65656,-100,4,2,1,76,0,1
65975,-100,4,2,1,76,0,0
66454,-100,4,2,1,76,0,0
66613,-100,4,2,1,76,0,0
66932,-100,4,2,1,76,0,1
67251,-100,4,2,1,76,0,0
67411,-100,4,2,1,76,0,0
67890,-100,4,2,1,76,0,0
68209,-100,4,2,1,76,0,1
69007,-100,4,2,1,76,0,1
69166,-100,4,2,1,76,0,1
69485,-100,4,2,1,76,0,1
70283,-100,4,2,1,76,0,1
70443,-100,4,2,1,76,0,1
70762,-100,4,2,1,76,0,1
71560,-100,4,2,1,76,0,1
71720,-100,4,2,1,76,0,1
72039,-100,4,2,1,76,0,1
72517,-100,4,2,1,76,0,1
72996,-100,4,2,1,76,0,1
73634,-100,4,2,1,76,0,1
74592,-100,4,2,1,76,0,1
75549,-100,4,2,1,76,0,1
76826,-100,4,2,1,76,0,1
77145,-100,4,2,1,76,0,1
78102,-100,4,2,1,76,0,1
78422,-111.111111111111,4,2,1,76,0,0
79698,-100,4,2,1,66,0,0
80656,-100,4,2,1,66,0,0
80975,-100,4,2,1,66,0,0
81613,-100,4,2,1,66,0,0
82251,-100,4,2,1,66,0,0
83209,-100,4,2,1,66,0,0
83688,-100,4,2,1,66,0,0
84805,-100,4,2,1,66,0,0

[Colours]
Combo1 : 244,219,117
Combo2 : 244,94,94
Combo3 : 130,217,238
Combo4 : 190,134,236

[HitObjects]
169,142,1347,6,0,P|254:118|270:127,1,96.9999999999999,0|0,0:0|0:0,0:0:0:0:
282,136,1826,5,12,0:0:0:0:
86,337,10762,5,0,3:2:0:0:
57,234,11081,1,10,0:2:0:0:
146,174,11400,1,8,0:0:0:0:
146,174,11560,1,0,3:0:0:0:
146,174,11720,1,8,0:0:0:0:
230,240,12039,6,0,P|269:256|338:229,1,96.9999999999999,6|8,3:2|0:0,0:0:0:0:
353,202,12517,2,0,L|337:92,1,96.9999999999999,2|0,0:0|3:0,0:0:0:0:
361,57,12996,2,0,B|412:67|412:67|430:92|462:94,1,96.9999999999999,8|2,0:0|3:2,0:0:0:0:
508,180,13634,1,10,0:0:0:0:
508,180,13794,1,2,0:0:0:0:
508,180,13954,2,0,P|481:220|461:267,1,96.9999999999999,2|10,0:0|0:0,0:0:0:0:
448,370,14592,5,2,3:2:0:0:
344,344,14911,1,8,0:0:0:0:
344,344,15071,2,0,P|299:358|242:378,1,96.9999999999999,2|2,0:0|3:2,0:0:0:0:
206,346,15549,1,8,0:0:0:0:
100,333,15868,6,2,B|84:348|84:348|34:306|53:254|76:222,1,145.5,4|0,3:2|0:0,0:1:0:0:
109,204,16507,2,2,B|124:219|124:219|174:177|155:125|132:93,1,145.5,0|0,3:2|0:0,0:1:0:0:
98,77,17145,5,6,3:2:0:0:
184,15,17464,1,8,0:0:0:0:
184,15,17624,2,0,P|231:16|256:74,1,96.9999999999999,2|2,0:0|3:2,0:0:0:0:
248,106,18102,2,0,B|236:153|246:161|232:221,1,96.9999999999999,8|0,0:0|3:2,0:0:0:0:
296,290,18741,1,8,0:0:0:0:
392,245,19060,2,0,L|456:253,2,48.5,2|0|10,0:0|3:0|0:0,0:0:0:0:
336,153,19698,5,0,3:2:0:0:
241,202,20017,1,8,0:0:0:0:
241,202,20177,1,2,0:0:0:0:
251,308,20496,1,0,3:0:0:0:
251,308,20656,2,0,P|274:347|336:337,1,96.9999999999999,14|10,0:0|0:0,0:0:0:0:
411,290,21294,2,0,B|432:262|432:262|435:235|400:195,1,96.9999999999999,10|8,0:0|0:0,0:0:0:0:
346,133,21932,1,8,0:0:0:0:
346,133,22092,1,0,3:0:0:0:
346,133,22251,6,0,B|318:142|295:145|295:145|276:171|276:171|224:170|178:195,2,168.780001416458,0|8|0,3:0|0:0|0:0,0:0:0:0:
416,193,23847,1,2,3:2:0:0:
362,269,24166,1,8,0:0:0:0:
362,269,24326,2,0,P|333:273|291:317,1,84.390000708229,0|0,3:0|3:0,0:0:0:0:
259,341,24805,6,0,P|166:354|117:299,2,168.780001416458,0|8|0,3:0|0:0|0:0,0:0:0:0:
226,254,26400,1,0,3:0:0:0:
279,177,26720,2,0,L|329:162,2,42.1950003541145,8|8|0,0:0|0:0|3:0,0:0:0:0:
201,125,27358,6,0,B|101:137|150:182|45:203,2,168.780001416458,0|8|0,3:0|0:0|0:0,0:0:0:0:
260,53,28954,2,0,P|302:38|348:40,1,84.390000708229,2|8,3:2|0:0,0:0:0:0:
386,66,29432,2,0,L|367:178,1,96.9999999999999,0|0,3:0|3:0,0:0:0:0:
403,203,29911,6,0,P|449:248|446:389,2,194,0|8|0,3:0|0:0|3:0,0:0:0:0:
331,282,31507,1,0,3:0:0:0:
236,232,31826,1,8,2:0:0:0:
140,278,32145,1,8,0:0:0:0:
43,233,32464,6,0,B|15:195|15:195|31:138|55:86,2,145.5,6|2|8,3:2|0:0|0:0,0:0:0:0:
9,334,33741,1,0,3:0:0:0:
108,371,34060,2,0,P|131:351|205:331,1,96.9999999999999,8|0,0:0|0:1,0:0:0:0:
243,348,34539,1,0,3:1:0:0:
243,348,34698,1,8,0:0:0:0:
299,257,35017,6,0,P|329:282|392:287,1,96.9999999999999,2|8,3:2|0:0,0:0:0:0:
416,245,35496,2,0,P|464:214|514:216,2,96.9999999999999,2|0|2,0:0|3:0|0:0,0:0:0:0:
340,168,36454,1,2,0:0:0:0:
340,168,36613,2,0,P|320:126|432:60,1,194,8|8,0:0|0:0,0:0:0:0:
464,148,37571,6,0,L|307:123,1,145.5,2|2,3:2|0:0,0:0:0:0:
233,184,38368,1,0,3:0:0:0:
138,133,38688,2,0,B|108:101|123:24|162:0,2,145.5,2|8|0,0:0|0:0|3:0,0:0:0:0:
114,180,39805,1,8,0:0:0:0:
43,259,40124,6,0,P|30:305|71:358,1,96.9999999999999,2|8,3:2|0:0,0:0:0:0:
100,369,40602,1,2,0:0:0:0:
182,300,40922,2,0,L|337:330,1,145.5,2|0,3:2|3:0,0:0:0:0:
324,327,42677,6,0,L|274:175,1,145.5,6|0,3:2|0:0,0:0:0:0:
290,136,43315,2,0,P|347:133|385:6,2,194,8|2|10,0:0|3:2|0:0,0:0:0:0:
204,72,44911,1,2,0:0:0:0:
112,126,45230,6,0,B|90:100|63:103|63:103|18:169|73:233,1,194,2|8,3:2|0:0,0:0:0:0:
162,283,46188,1,2,0:0:0:0:
247,218,46507,1,0,3:0:0:0:
247,218,46666,2,0,P|286:187|389:212,2,145.5,0|8|0,3:0|0:0|0:0,0:0:0:0:
258,270,47783,5,2,3:2:0:0:
340,337,48102,1,0,3:0:0:0:
435,289,48422,2,0,L|408:140,1,145.5,8|0,0:0|3:0,0:0:0:0:
446,107,49060,1,0,3:0:0:0:
380,22,49379,1,0,3:0:0:0:
288,76,49698,2,0,P|249:81|195:32,1,96.9999999999999,8|0,0:0|0:0,0:0:0:0:
118,115,50337,6,0,L|133:174,2,48.5,8|0|0,0:0|3:0|3:0,0:0:0:0:
79,78,50815,2,0,L|67:30,2,48.5,8|2|0,0:0|3:2|3:0,0:0:0:0:
41,115,51294,2,0,P|4:160|0:218,1,96.9999999999999,8|0,0:0|3:0,0:0:0:0:
22,244,51773,2,0,P|52:249|103:300,1,96.9999999999999,2|0,3:2|3:0,0:0:0:0:
78,341,52251,6,0,P|116:317|243:372,1,194,0|0,3:0|1:1,0:0:0:0:
241,368,54166,6,0,L|258:250,1,96.9999999999999,6|8,3:2|0:0,0:0:0:0:
295,237,54645,1,2,0:0:0:0:
243,143,54964,1,0,3:0:0:0:
299,52,55283,2,0,P|368:30|418:85,1,145.5,2|8,0:0|0:0,0:0:0:0:
489,153,56081,1,2,0:0:0:0:
427,239,56400,1,10,0:0:0:0:
468,337,56720,6,0,P|432:370|374:361,1,96.9999999999999,6|8,3:2|0:0,0:0:0:0:
345,333,57198,1,2,0:0:0:0:
243,300,57517,1,0,3:0:0:0:
147,347,57837,2,0,B|108:359|108:359|63:318|86:241,1,145.5,2|10,0:0|0:0,0:0:0:0:
141,175,58634,2,0,L|121:67,2,96.9999999999999,0|8|0,3:0|0:0|3:2,0:0:0:0:
247,223,59592,5,10,0:0:0:0:
247,223,59751,1,2,0:0:0:0:
247,223,59911,1,2,0:0:0:0:
318,143,60230,2,0,B|367:156|367:156|396:138|428:134,1,96.9999999999999,8|0,0:0|3:2,0:0:0:0:
492,221,60868,1,10,2:0:0:0:
492,221,61028,1,2,2:0:0:0:
492,221,61188,2,0,P|485:255|424:280,1,96.9999999999999,2|8,2:0|2:0,0:0:0:0:
358,357,61826,6,0,P|310:336|258:345,1,96.9999999999999,6|8,3:2|0:0,0:0:0:0:
219,366,62305,1,2,0:0:0:0:
132,303,62624,1,2,3:2:0:0:
182,208,62943,2,0,L|198:95,1,96.9999999999999,2|0,3:2|3:0,0:0:0:0:
170,64,63422,1,10,0:0:0:0:
72,21,63741,1,0,3:0:0:0:
9,107,64060,1,10,0:0:0:0:
57,202,64379,6,0,B|93:204|123:240|165:228,1,96.9999999999999,6|8,3:2|0:0,0:0:0:0:
200,215,64858,1,2,0:0:0:0:
276,288,65177,1,0,3:0:0:0:
364,228,65496,2,0,P|383:159|353:94,1,145.5,2|8,0:0|0:0,0:0:0:0:
255,50,66294,1,2,0:0:0:0:
161,101,66613,1,10,0:0:0:0:
68,47,66932,6,0,L|54:143,1,96.9999999999999,6|8,3:2|0:0,0:0:0:0:
13,176,67411,1,2,0:0:0:0:
62,270,67730,1,0,3:0:0:0:
167,252,68049,2,0,B|235:266|201:317|296:335,1,145.5,2|10,0:0|0:0,0:0:0:0:
380,288,68847,1,2,0:0:0:0:
443,202,69166,2,0,P|431:154|407:113,1,96.9999999999999,8|0,0:0|3:0,0:0:0:0:
324,65,69805,5,8,0:0:0:0:
324,65,69964,1,2,0:0:0:0:
324,65,70124,1,2,0:0:0:0:
235,125,70443,2,0,L|249:230,1,96.9999999999999,8|0,0:0|3:0,0:0:0:0:
182,306,71081,1,8,0:0:0:0:
182,306,71241,1,2,0:0:0:0:
182,306,71400,2,0,P|142:317|99:271,1,96.9999999999999,2|8,0:0|2:0,0:0:0:0:
146,186,72039,6,0,L|250:176,1,96.9999999999999,6|8,3:2|0:0,0:0:0:0:
288,150,72517,1,2,0:0:0:0:
359,229,72837,2,0,P|398:242|457:217,1,96.9999999999999,2|0,3:2|0:0,0:0:0:0:
485,185,73315,2,0,L|467:74,1,96.9999999999999,0|8,3:0|0:0,0:0:0:0:
377,53,73954,1,0,3:0:0:0:
377,53,74113,1,0,3:0:0:0:
292,189,74592,6,0,P|254:210|182:195,1,96.9999999999999,6|8,3:2|0:0,0:0:0:0:
161,171,75071,2,0,B|140:130|140:130|149:106|155:63,1,96.9999999999999,2|0,0:0|3:0,0:0:0:0:
115,42,75549,1,8,0:0:0:0:
25,95,75868,1,0,3:0:0:0:
69,192,76188,2,0,L|80:288,1,96.9999999999999,8|2,0:0|0:0,0:0:0:0:
52,333,76666,1,0,3:0:0:0:
52,333,76826,1,8,0:0:0:0:
152,368,77145,6,0,B|227:358|192:305|274:289,1,145.5,2|0,3:2|0:0,0:0:0:0:
317,312,77783,2,0,P|343:327|416:325,1,96.9999999999999,2|8,0:0|0:0,0:0:0:0:
479,247,78422,2,2,B|538:126|439:44|439:44|390:63|398:124,1,305.549990675354,2|0,0:0|0:0,0:1:0:0:
383,157,79698,6,0,B|343:180|343:180|278:161,1,96.9999999999999,6|8,3:2|0:0,0:0:0:0:
250,135,80177,2,0,P|221:123|157:144,1,96.9999999999999,2|0,0:0|3:0,0:0:0:0:
123,179,80656,1,10,0:0:0:0:
175,272,80975,1,2,3:2:0:0:
104,352,81294,2,0,L|7:344,2,96.9999999999999,8|2|8,0:0|0:0|0:0,0:0:0:0:
207,375,82251,5,2,3:2:0:0:
303,328,82571,1,8,0:0:0:0:
303,328,82730,2,0,P|280:293|284:228,1,96.9999999999999,2|0,0:0|3:0,0:0:0:0:
308,194,83209,1,10,0:0:0:0:
417,208,83528,1,2,3:2:0:0:
417,208,83688,2,0,L|404:111,1,96.9999999999999,2|2,0:0|0:0,0:0:0:0:
439,71,84166,1,2,0:0:0:0:
361,14,84485,5,8,0:0:0:0:
361,14,84645,1,0,3:0:0:0:
361,14,84805,1,6,3:1:0:0:
256,192,84964,12,0,89911,0:0:0:0:
