osu file format v14

[General]
AudioFilename: audio.mp3
AudioLeadIn: 0
PreviewTime: 57237
Countdown: 0
SampleSet: Soft
StackLeniency: 0.4
Mode: 0
LetterboxInBreaks: 0
WidescreenStoryboard: 0

[Editor]
DistanceSpacing: 1.5
BeatDivisor: 4
GridSize: 4
TimelineZoom: 2.999999

[Metadata]
Title:ADAMAS
TitleUnicode:ADAMAS
Artist:Selphius
ArtistUnicode:Selphius
Creator:Nao Tomori
Version:Glaenzendes Schwert
Source:Sword Art Online: Alicization
Tags:ソードアート・オンライン アリシゼーション lisa german anime opening tv size cut version rock pop crouka cover selphy sao english stratos agatsu easy normal hard insane extra
BeatmapID:2703601
BeatmapSetID:1303798

[Difficulty]
HPDrainRate:6
CircleSize:4.2
OverallDifficulty:8.3
ApproachRate:9.1
SliderMultiplier:1.77
SliderTickRate:1

[Events]
//Background and Video events
0,0,"1080p.jpg",0,0
//Break Periods
//Storyboard Layer 0 (Background)
//Storyboard Layer 1 (Fail)
//Storyboard Layer 2 (Pass)
//Storyboard Layer 3 (Foreground)
//Storyboard Layer 4 (Overlay)
//Storyboard Sound Samples

[TimingPoints]
3103,314.13612565445,4,2,0,75,1,0
6872,-50,4,2,0,75,0,0
7972,-90.9090909090909,4,2,1,75,0,0
18181,-100,4,2,1,60,0,0
28076,-100,4,2,1,65,0,0
38286,-100,4,2,1,60,0,0
48338,-100,4,2,1,65,0,0
53364,-100,4,2,1,75,0,0
58233,-86.9565217391304,4,2,1,83,0,1
68286,-100,4,2,1,75,0,1
78338,-100,4,2,1,75,0,0
85563,-76.9230769230769,4,2,1,75,0,0
85877,-90.9090909090909,4,2,1,75,0,0

[Colours]
Combo1 : 206,206,206
Combo2 : 245,165,165
Combo3 : 156,219,243
Combo4 : 228,187,78

[HitObjects]
430,94,7500,6,0,P|443:79|424:94,1,88.5,2|0,0:2|0:2,0:2:0:0:
419,91,7972,6,0,B|308:93|373:185|242:189,1,194.700005941773,6|0,3:2|3:2,0:2:0:0:
113,53,8443,2,0,P|126:113|138:172,1,97.3500029708863,10|0,0:2|0:2,0:2:0:0:
0,301,8757,2,0,P|31:270|96:275,1,97.3500029708863,2|0,3:2|0:2,0:2:0:0:
172,362,9071,1,8,0:2:0:0:
73,353,9228,1,0,0:2:0:0:
282,266,9385,6,0,P|270:315|264:385,1,97.3500029708863,2|0,3:2|0:2,0:2:0:0:
374,172,9699,2,0,P|366:123|360:75,1,97.3500029708863,10|0,0:2|0:2,0:2:0:0:
449,225,10013,1,2,3:2:0:0:
267,140,10171,1,2,0:2:0:0:
436,12,10328,1,10,0:2:0:0:
333,254,10485,6,0,B|306:259|281:276|281:276|225:241|225:241|191:260|133:255,1,194.700005941773,2|0,2:2|3:2,0:2:0:0:
1,112,10956,2,0,P|61:137|100:117,1,97.3500029708863,10|0,0:2|0:2,0:2:0:0:
236,21,11270,2,0,L|247:155,1,97.3500029708863,2|0,3:2|0:2,0:2:0:0:
347,345,11584,1,8,0:2:0:0:
399,175,11741,1,0,0:2:0:0:
78,343,11898,6,0,B|89:310|89:310|61:221,1,97.3500029708863,2|0,3:2|0:2,0:2:0:0:
258,40,12212,2,0,L|247:174,1,97.3500029708863,10|0,0:2|0:2,0:2:0:0:
320,366,12527,1,10,0:2:0:0:
365,381,12605,1,8,0:2:0:0:
412,371,12684,1,10,0:2:0:0:
448,339,12762,1,8,0:2:0:0:
464,294,12841,1,10,0:2:0:0:
455,246,12919,1,8,0:2:0:0:
423,210,12998,6,0,B|313:205|369:135|231:136,1,194.700005941773,6|0,3:2|3:2,0:2:0:0:
414,9,13469,2,0,P|404:78|396:139,1,97.3500029708863,10|0,0:2|0:2,0:2:0:0:
174,279,13783,2,0,P|164:210|156:149,1,97.3500029708863,2|0,3:2|0:2,0:2:0:0:
102,359,14097,1,8,0:2:0:0:
273,270,14254,1,0,0:2:0:0:
67,126,14411,6,0,B|47:154|47:154|69:237,1,97.3500029708863,2|0,3:2|0:2,0:2:0:0:
255,117,14726,2,0,L|266:2,1,97.3500029708863,10|0,0:2|0:2,0:2:0:0:
333,180,15040,1,2,3:2:0:0:
161,68,15197,1,2,0:2:0:0:
367,46,15354,1,10,0:2:0:0:
163,197,15511,6,0,B|133:276|180:330|180:330|199:307|198:258,1,194.700005941773,2|0,0:2|3:2,0:2:0:0:
55,108,15982,2,0,B|26:100|3:106|3:106|21:138|63:147,1,97.3500029708863,10|0,0:2|0:2,0:2:0:0:
356,219,16296,2,0,B|377:197|383:174|383:174|347:174|318:206,1,97.3500029708863,2|0,3:2|0:2,0:2:0:0:
291,337,16610,1,8,0:2:0:0:
455,251,16767,1,0,0:2:0:0:
274,113,16924,5,2,3:2:0:0:
237,102,17002,1,0,3:2:0:0:
202,118,17081,1,0,3:2:0:0:
186,152,17159,1,0,3:2:0:0:
196,189,17238,5,10,0:2:0:0:
187,226,17317,1,8,0:2:0:0:
158,250,17396,1,8,0:2:0:0:
119,251,17474,1,8,0:2:0:0:
89,228,17553,5,2,3:2:0:0:
70,121,17710,1,0,3:2:0:0:
33,106,17788,1,0,3:2:0:0:
0,94,17867,1,10,0:2:0:0:
0,94,18181,6,0,P|41:91|76:47,1,88.5,10|0,0:2|0:2,0:2:0:0:
188,54,18495,2,0,P|229:57|264:101,1,88.5,10|0,0:2|0:2,0:2:0:0:
139,229,18809,2,0,L|133:140,1,88.5,10|0,0:2|0:2,0:2:0:0:
265,178,19123,2,0,L|259:89,1,88.5,10|0,0:2|0:2,0:2:0:0:
224,273,19438,5,10,2:2:0:0:
349,237,19595,2,0,P|393:225|443:210,1,88.5,2|8,0:2|0:2,0:2:0:0:
265,178,19909,1,2,3:2:0:0:
326,325,20066,2,0,P|363:346|420:319,1,88.5,10|0,0:2|3:2,0:2:0:0:
349,237,20380,1,10,0:2:0:0:
248,358,20537,2,0,P|231:297|215:245,1,88.5,2|8,0:2|0:2,0:2:0:0:
142,201,20851,6,0,P|125:262|109:314,1,88.5,2|8,0:2|0:2,0:2:0:0:
43,342,21165,1,2,0:2:0:0:
86,133,21322,2,0,P|121:108|177:123,1,88.5,10|0,0:2|0:2,0:2:0:0:
301,292,21637,2,0,P|258:297|222:272,1,88.5,10|0,0:2|0:2,0:2:0:0:
288,193,21951,5,10,0:2:0:0:
368,359,22108,1,0,0:2:0:0:
452,307,22265,2,0,P|441:258|433:209,1,88.5,10|0,0:2|3:2,0:2:0:0:
288,193,22579,2,0,P|280:236|270:279,1,88.5,10|0,0:2|3:2,0:2:0:0:
269,279,22815,1,0,3:2:0:0:
269,279,22893,1,8,0:2:0:0:
177,358,23050,2,0,B|146:344|146:344|78:367,1,88.5,2|8,3:2|2:2,2:2:0:0:
94,361,23521,5,10,0:2:0:0:
30,311,23678,1,0,0:2:0:0:
88,161,23835,2,0,B|103:191|103:191|91:260,1,88.5,10|0,0:2|0:2,0:2:0:0:
42,94,24150,2,0,P|82:77|126:83,1,88.5,10|0,0:2|0:2,0:2:0:0:
93,245,24464,5,10,0:2:0:0:
7,198,24621,1,0,0:2:0:0:
188,205,24778,2,0,P|181:259|177:323,1,88.5,10|0,0:2|3:2,0:2:0:0:
281,367,25092,1,10,2:2:0:0:
359,313,25249,1,2,3:2:0:0:
442,368,25406,1,10,0:2:0:0:
349,225,25563,2,0,P|356:279|360:343,1,88.5,0|8,3:2|0:2,0:2:0:0:
456,21,26034,6,0,B|444:46|444:46|466:144,1,88.5,10|0,0:2|3:2,0:2:0:0:
469,115,26270,1,0,3:2:0:0:
480,126,26349,2,0,B|455:114|455:114|357:136,1,88.5,10|0,0:2|0:2,0:2:0:0:
273,71,26663,2,0,L|176:56,1,88.5,10|0,0:2|3:2,0:2:0:0:
256,192,26898,12,0,27998,0:2:0:0:
104,69,28076,6,0,P|36:96|53:203,1,177,6|0,3:2|3:2,0:2:0:0:
118,249,28548,1,10,0:2:0:0:
118,249,28705,1,0,0:2:0:0:
274,181,28862,2,0,L|185:184,1,88.5,2|0,3:2|0:2,0:2:0:0:
345,240,29176,1,10,0:2:0:0:
297,94,29333,1,2,0:2:0:0:
298,308,29490,6,0,P|336:324|396:305,1,88.5,2|0,3:2|0:2,0:2:0:0:
196,349,29804,2,0,P|153:340|112:356,1,88.5,10|0,2:2|0:2,0:2:0:0:
34,304,30118,1,2,3:2:0:0:
34,304,30275,1,2,0:2:0:0:
108,228,30432,1,10,0:2:0:0:
6,25,30589,6,0,L|21:223,1,177,2|0,0:2|2:2,0:2:0:0:
103,127,31061,1,10,0:2:0:0:
103,127,31218,1,0,0:2:0:0:
260,174,31375,2,0,P|220:195|162:165,1,88.5,2|0,3:2|0:2,0:2:0:0:
325,110,31689,2,0,P|367:99|405:120,1,88.5,10|0,0:2|0:2,0:2:0:0:
363,295,32003,6,0,L|351:180,1,88.5,2|0,3:2|0:2,0:2:0:0:
433,354,32317,1,10,0:2:0:0:
274,304,32474,1,0,0:2:0:0:
443,227,32631,1,2,3:2:0:0:
443,227,32788,1,2,0:2:0:0:
363,295,32945,1,10,0:2:0:0:
345,118,33102,6,0,P|384:144|488:69,1,177,2|2,0:2|0:2,0:2:0:0:
257,60,33574,2,0,L|248:169,1,88.5,10|0,0:2|0:2,0:2:0:0:
112,268,33888,1,2,3:2:0:0:
48,201,34045,1,0,0:2:0:0:
196,235,34202,2,0,L|205:344,1,88.5,10|0,0:2|0:2,0:2:0:0:
386,344,34516,6,0,P|331:336|298:372,1,88.5,2|0,3:2|0:2,0:2:0:0:
476,382,34830,1,10,0:2:0:0:
476,382,34987,1,2,0:2:0:0:
504,288,35144,2,0,L|496:199,1,88.5,2|0,3:2|0:2,0:2:0:0:
386,344,35459,2,0,L|378:255,1,88.5,10|0,0:2|0:2,0:2:0:0:
101,101,35773,6,0,P|143:91|174:60,1,88.5,6|0,3:2|0:2,0:2:0:0:
104,241,36087,2,0,P|74:209|31:199,1,88.5,10|0,0:2|0:2,0:2:0:0:
224,167,36401,2,0,P|211:210|224:252,1,88.5,2|0,3:2|0:2,0:2:0:0:
384,125,36715,2,0,L|372:4,1,88.5,10|0,0:2|0:2,0:2:0:0:
346,198,37029,6,0,B|380:212|380:212|461:189,1,88.5,6|0,3:2|0:2,0:2:0:0:
228,77,37343,2,0,B|257:54|257:54|269:4,1,88.5,10|0,0:2|0:2,2:2:0:0:
64,118,37657,2,0,B|59:81|59:81|-1:22,1,88.5,2|0,3:2|0:2,3:2:0:0:
80,280,37972,2,0,B|103:318|103:318|118:244,1,88.5,10|0,0:2|0:2,0:2:0:0:
74,206,38286,6,0,P|118:241|236:185,1,177,6|8,3:2|0:2,0:2:0:0:
307,257,38757,1,0,0:2:0:0:
433,135,38914,2,0,P|422:192|401:323,1,177,2|8,3:2|0:2,0:2:0:0:
402,309,39385,1,0,0:2:0:0:
328,164,39542,6,0,B|232:158|283:92|141:92,1,177,2|8,3:2|0:2,0:2:0:0:
422,38,40013,2,0,B|371:79|371:79|328:75|328:75|224:97,1,177,2|0,0:2|0:2,0:2:0:0:
482,97,40485,1,10,0:2:0:0:
254,4,40642,1,8,0:2:0:0:
254,4,40720,1,8,0:2:0:0:
254,4,40799,6,0,L|52:25,2,177,6|8|0,3:2|0:2|3:2,0:2:0:0:
112,119,41584,1,0,3:2:0:0:
112,119,41741,2,0,P|60:129|27:113,1,88.5,8|0,0:2|0:2,0:2:0:0:
51,290,42055,6,0,P|37:175|27:101,1,177,2|8,3:2|0:2,0:2:0:0:
145,355,42527,2,0,P|153:305|161:240,1,88.5,12|0,0:2|0:2,0:2:0:0:
355,170,42841,2,0,P|369:248|380:296,1,88.5,14|0,2:2|0:2,0:2:0:0:
465,320,43155,1,0,3:2:0:0:
465,320,43233,1,0,3:2:0:0:
465,320,43312,6,0,P|422:287|312:355,1,177,6|8,3:2|0:2,0:2:0:0:
475,206,43783,1,2,0:2:0:0:
356,73,43940,2,0,B|307:75|284:120|284:120|238:152|191:108,1,177,0|8,3:2|0:2,0:2:0:0:
363,164,44411,1,2,0:2:0:0:
150,41,44568,6,0,B|168:112|195:243,1,177,0|8,3:2|0:2,0:2:0:0:
141,296,45040,1,2,0:2:0:0:
13,218,45197,2,0,P|65:203|111:242,1,88.5,2|0,3:2|0:2,0:2:0:0:
307,340,45511,2,0,P|266:354|226:338,1,88.5,10|8,0:2|0:2,0:2:0:0:
226,320,45746,1,8,0:2:0:0:
234,307,45825,6,0,B|324:304|299:240|413:236,2,177,6|8|0,3:2|0:2|3:2,0:2:0:0:
377,354,46610,1,0,3:2:0:0:
317,141,46767,2,0,P|312:209|310:252,1,88.5,10|0,0:2|0:2,0:2:0:0:
278,63,47082,6,0,P|328:51|390:73,1,88.5,2|8,3:2|0:2,0:2:0:0:
227,149,47396,1,2,3:2:0:0:
227,149,47553,1,0,3:2:0:0:
173,64,47710,1,2,3:2:0:0:
55,193,47867,1,8,0:2:0:0:
69,215,47945,1,8,0:2:0:0:
94,225,48024,1,8,0:2:0:0:
120,218,48102,1,8,0:2:0:0:
137,197,48181,1,8,0:2:0:0:
138,170,48260,1,8,0:2:0:0:
123,148,48338,6,0,B|99:268|99:268|119:292|128:331,2,177,6|8|2,3:2|0:2|3:2,0:2:0:0:
206,88,49123,1,0,3:2:0:0:
39,173,49281,1,8,0:2:0:0:
207,264,49438,1,0,3:2:0:0:
207,264,49516,1,0,3:2:0:0:
207,264,49595,6,0,P|260:267|304:213,1,88.5,2|0,3:2|0:2,0:2:0:0:
315,57,49909,2,0,L|332:164,1,88.5,10|0,0:2|0:2,0:2:0:0:
395,278,50223,2,0,L|408:190,1,88.5,2|0,3:2|0:2,0:2:0:0:
235,180,50537,1,10,0:2:0:0:
300,354,50694,1,8,0:2:0:0:
300,354,50773,1,8,0:2:0:0:
300,354,50851,6,0,B|311:344|313:315|313:315|230:294|167:353,2,177,2|8|0,3:2|0:2|3:2,0:2:0:0:
105,377,51637,1,0,0:0:0:0:
185,225,51794,1,10,0:0:0:0:
112,155,51951,1,2,3:2:0:0:
214,115,52108,6,0,L|312:121,1,88.5,2|0,3:2|0:2,0:2:0:0:
160,37,52422,2,0,L|71:31,1,88.5,10|0,0:2|0:2,0:2:0:0:
381,160,52736,2,0,B|395:125|395:125|374:39,1,88.5,10|0,0:2|0:2,0:2:0:0:
299,215,53050,2,0,B|285:250|285:250|306:336,1,88.5,10|0,0:2|0:2,0:2:0:0:
503,384,53364,5,14,2:2:0:0:
376,256,53521,1,0,3:2:0:0:
208,317,53678,1,0,3:2:0:0:
310,373,53835,5,14,0:2:0:0:
205,219,53993,1,0,3:2:0:0:
108,377,54150,1,0,3:2:0:0:
208,317,54307,6,0,L|220:203,1,88.5,14|0,0:2|0:2,0:2:0:0:
235,26,54621,5,14,0:2:0:0:
167,88,54778,1,0,3:2:0:0:
82,52,54935,1,0,3:2:0:0:
297,165,55092,5,14,0:2:0:0:
369,53,55249,1,0,3:2:0:0:
483,131,55406,1,0,3:2:0:0:
366,313,55563,5,14,0:2:0:0:
397,214,55720,1,0,3:2:0:0:
435,378,55877,6,0,B|347:372|382:310|247:309,1,177,14|0,0:2|3:2,0:2:0:0:
69,317,56349,2,0,P|141:333|168:245,1,177,14|0,0:2|3:2,0:2:0:0:
171,251,56741,1,0,3:2:0:0:
171,251,56820,5,8,0:2:0:0:
219,384,56977,1,14,0:2:0:0:
489,14,58233,6,0,B|462:122|450:219,1,203.550003882408,6|0,3:2|0:2,0:2:0:0:
492,382,58705,2,0,P|475:329|399:324,1,101.775001941204,10|0,0:2|0:2,0:2:0:0:
272,245,59019,2,0,B|288:264|303:269|303:269|332:257|389:251,1,101.775001941204,2|0,3:2|0:2,0:2:0:0:
238,169,59333,1,10,0:2:0:0:
277,355,59490,1,0,0:2:0:0:
41,288,59647,6,0,P|56:236|71:173,1,101.775001941204,2|0,3:2|0:2,0:2:0:0:
28,107,59961,1,10,0:2:0:0:
167,279,60118,1,2,3:2:0:0:
167,279,60197,1,0,3:2:0:0:
167,279,60275,2,0,B|155:187|128:79,1,203.550003882408,0|8,3:2|0:2,0:2:0:0:
247,166,60746,1,2,0:2:0:0:
100,335,60904,5,2,3:2:0:0:
243,144,61061,1,0,0:2:0:0:
337,365,61218,1,10,0:2:0:0:
224,291,61375,1,2,0:2:0:0:
486,211,61532,1,2,3:2:0:0:
401,276,61689,2,0,P|393:215|382:152,1,101.775001941204,2|8,0:2|0:2,0:2:0:0:
481,345,62003,1,2,0:2:0:0:
286,145,62160,6,0,P|227:137|184:193,1,101.775001941204,2|0,3:2|0:2,0:2:0:0:
386,175,62474,2,0,B|394:137|394:137|363:68,1,101.775001941204,10|0,0:2|0:2,0:2:0:0:
124,239,62788,2,0,L|135:367,1,101.775001941204,2|0,3:2|0:2,0:2:0:0:
225,261,63102,1,10,0:2:0:0:
35,198,63260,1,8,0:2:0:0:
255,353,63417,6,8,B|286:311|336:330|336:330|349:362|376:374,1,152.662502911806,6|0,3:2|0:2,0:2:0:0:
445,334,63731,1,10,0:2:0:0:
364,183,63888,1,2,0:2:0:0:
476,43,64045,2,0,B|490:62|490:62|496:110|471:159,1,101.775001941204,2|0,3:2|0:2,0:2:0:0:
244,251,64359,2,0,B|242:215|230:187|230:187|240:168|254:108,1,101.775001941204,10|0,0:2|0:2,0:2:0:0:
124,14,64673,6,0,B|76:55|36:47|36:47|27:13|-23:-17,1,152.662502911806,2|0,3:2|0:2,0:2:0:0:
2,31,64987,2,0,P|21:95|29:164,1,101.775001941204,8|0,0:2|0:2,0:2:0:0:
2,352,65301,1,2,3:2:0:0:
205,190,65459,1,2,0:2:0:0:
71,240,65616,1,10,0:2:0:0:
347,379,65773,6,0,P|337:306|331:256,1,101.775001941204,10|0,0:2|3:2,0:2:0:0:
232,24,66087,2,0,P|229:49|226:75,1,50.8875009706021,10|0,0:2|0:2,0:2:0:0:
278,153,66244,1,8,0:2:0:0:
325,167,66322,1,8,0:2:0:0:
372,149,66401,1,8,0:2:0:0:
399,107,66479,1,8,0:2:0:0:
394,57,66558,5,8,0:3:0:0:
363,97,66636,1,8,0:3:0:0:
349,146,66715,1,8,0:3:0:0:
355,196,66793,1,8,0:3:0:0:
380,240,66872,1,4,0:3:0:0:
420,272,66950,1,4,0:3:0:0:
468,285,67029,5,6,3:2:0:0:
41,178,67343,5,6,3:2:0:0:
328,56,67657,5,6,3:2:0:0:
197,15,67972,5,14,2:2:0:0:
236,178,68286,6,0,P|267:304|278:355,1,177,6|0,3:2|3:2,0:2:0:0:
180,296,68757,1,8,0:2:0:0:
180,296,69071,1,2,3:2:0:0:
326,229,69228,1,0,3:2:0:0:
422,346,69385,1,10,0:2:0:0:
493,311,69542,1,0,3:2:0:0:
493,311,69621,1,0,3:2:0:0:
493,311,69699,6,0,B|396:310|443:244|326:247,1,177,2|8,3:2|0:2,0:2:0:0:
335,246,70328,1,8,0:2:0:0:
219,368,70485,1,0,3:2:0:0:
219,368,70563,1,8,0:2:0:0:
219,368,70642,1,8,0:2:0:0:
65,211,70799,6,0,P|71:268|79:337,1,88.5,14|0,0:2|0:2,0:2:0:0:
148,157,71113,2,0,P|154:214|162:283,1,88.5,2|0,3:2|3:2,0:2:0:0:
247,174,71427,2,0,P|253:231|261:300,1,88.5,10|0,0:2|0:2,0:2:0:0:
330,120,71741,2,0,P|336:177|344:246,1,88.5,2|0,3:2|0:2,0:2:0:0:
435,275,72055,1,2,3:2:0:0:
435,275,72134,1,0,3:2:0:0:
435,275,72212,5,8,0:2:0:0:
410,253,72290,1,8,0:2:0:0:
379,241,72369,1,8,0:2:0:0:
346,241,72447,1,8,0:2:0:0:
315,253,72526,1,8,0:2:0:0:
291,274,72604,1,8,0:2:0:0:
275,304,72683,1,8,0:2:0:0:
271,336,72761,1,8,0:2:0:0:
279,368,72840,5,8,0:3:0:0:
257,337,72919,1,8,0:3:0:0:
227,312,72998,1,8,0:3:0:0:
192,297,73076,1,8,0:3:0:0:
154,291,73155,1,4,0:3:0:0:
116,296,73233,1,4,0:3:0:0:
80,311,73312,1,4,0:3:0:0:
50,335,73390,1,4,0:3:0:0:
27,366,73469,6,0,B|46:246|46:246|19:224|7:175,1,177,6|0,3:2|3:2,0:2:0:0:
94,123,73940,2,0,B|93:121|92:166|92:166|124:95|94:37,1,177,10|0,0:2|3:2,0:2:0:0:
144,243,74411,2,0,B|196:272|246:240|246:240|246:202|270:171,1,177,10|0,0:2|3:2,0:2:0:0:
285,338,74883,2,0,P|246:254|267:173,1,177,10|0,0:2|3:2,2:2:0:0:
472,208,75354,5,10,0:2:0:0:
349,245,75511,1,0,3:2:0:0:
466,90,75668,5,10,0:2:0:0:
339,252,75825,1,0,3:2:0:0:
102,45,75982,6,0,B|145:27|145:27|208:50,1,88.5,6|0,3:2|3:2,0:2:0:0:
265,175,76296,1,2,3:2:0:0:
96,133,76453,6,0,L|102:33,1,88.5,10|2,0:2|3:2,0:2:0:0:
265,175,76767,1,0,3:2:0:0:
21,165,76924,6,0,P|64:131|120:148,1,88.5,10|2,0:2|3:2,0:2:0:0:
265,175,77239,1,0,3:2:0:0:
108,258,77396,5,8,0:2:0:0:
108,258,77474,1,8,0:2:0:0:
108,258,77553,1,8,0:3:0:0:
174,62,77710,1,8,0:3:0:0:
284,317,77867,5,2,3:2:0:0:
326,349,77946,1,0,3:0:0:0:
378,352,78024,1,2,3:2:0:0:
423,324,78103,1,0,3:0:0:0:
444,276,78181,1,10,2:0:0:0:
375,109,78338,6,0,B|261:91|261:91|250:127|209:144,1,177,6|0,3:2|3:2,0:2:0:0:
27,52,78809,2,0,P|84:17|181:77,1,177,8|0,0:2|3:2,0:2:0:0:
62,230,79281,1,0,3:2:0:0:
33,137,79438,2,0,B|68:131|68:131|148:158,1,88.5,8|0,0:2|0:2,0:2:0:0:
391,315,79752,6,0,B|286:308|348:235|204:241,2,177,0|8|0,3:2|0:2|3:2,0:2:0:0:
332,174,80537,1,0,3:2:0:0:
246,333,80694,1,8,0:2:0:0:
43,136,80851,6,0,P|99:159|172:75,1,177,10|0,0:2|3:2,0:2:0:0:
425,124,81322,2,0,P|377:55|295:73,2,177,8|0|8,0:2|3:2|0:2,0:2:0:0:
332,174,82108,1,0,0:2:0:0:
172,85,82265,6,0,P|190:148|200:210,1,88.5,2|0,3:2|0:2,0:2:0:0:
27,321,82579,2,0,P|59:285|121:276,1,88.5,10|0,0:2|0:2,0:2:0:0:
208,317,82893,1,2,3:2:0:0:
398,266,83050,2,0,B|372:276|372:276|282:254,1,88.5,2|8,0:2|0:2,0:2:0:0:
465,187,83364,1,8,0:2:0:0:
465,187,83443,1,8,0:2:0:0:
465,187,83521,6,0,P|473:258|491:379,2,177,6|8|0,3:2|0:2|3:2,0:2:0:0:
509,96,84307,1,0,3:2:0:0:
374,150,84464,2,0,P|372:210|364:278,1,88.5,8|0,0:2|0:2,0:2:0:0:
265,184,84778,5,8,0:3:0:0:
249,199,84856,1,8,0:3:0:0:
229,208,84935,1,8,0:3:0:0:
207,208,85013,1,8,0:3:0:0:
184,200,85092,5,4,0:3:0:0:
161,150,85170,1,4,0:3:0:0:
114,122,85249,1,4,0:3:0:0:
60,126,85327,1,4,0:3:0:0:
17,160,85406,5,0,3:2:0:0:
95,331,85563,2,0,B|93:317|99:289|99:289|90:269|90:269|94:234|94:206,1,115.049994733429,6|0,0:2|0:2,0:2:0:0:
299,38,85877,6,0,B|300:76|281:107|281:107|316:140|316:140|286:179|293:249,1,194.700005941773,6|0,3:2|3:2,0:2:0:0:
453,325,86349,2,0,P|432:290|350:311,1,97.3500029708863,10|0,0:2|0:2,0:2:0:0:
183,346,86663,2,0,B|199:353|215:357|215:357|294:323,1,97.3500029708863,2|0,3:2|0:2,0:2:0:0:
168,241,86977,1,8,0:2:0:0:
96,381,87134,1,0,0:2:0:0:
44,134,87291,6,0,B|57:104|65:80|65:80|75:99|108:121,1,97.3500029708863,2|0,3:2|0:2,0:2:0:0:
322,159,87605,2,0,B|311:175|304:189|304:189|282:162|285:96,1,97.3500029708863,10|0,0:2|0:2,0:2:0:0:
403,195,87919,1,2,3:2:0:0:
221,240,88076,1,2,0:2:0:0:
283,52,88233,1,10,0:2:0:0:
322,159,88390,6,0,P|336:233|341:366,1,194.700005941773,6|0,3:2|3:2,0:2:0:0:
355,40,88862,2,0,B|311:15|311:15|272:65,1,97.3500029708863,10|0,0:2|0:2,0:2:0:0:
129,239,89176,2,0,B|159:225|159:225|190:241|221:239,1,97.3500029708863,2|0,3:2|0:2,0:2:0:0:
322,159,89490,1,10,0:2:0:0:
80,122,89647,1,2,0:2:0:0:
193,358,89804,5,14,2:2:0:0:
254,10,90904,5,6,3:2:0:0:
