osu file format v14

[General]
AudioFilename: audio.mp3
AudioLeadIn: 0
PreviewTime: 57237
Countdown: 0
SampleSet: Soft
StackLeniency: 0.4
Mode: 0
LetterboxInBreaks: 0
WidescreenStoryboard: 1

[Editor]
Bookmarks: 12119
DistanceSpacing: 1.1
BeatDivisor: 4
GridSize: 32
TimelineZoom: 1.6

[Metadata]
Title:ADAMAS
TitleUnicode:ADAMAS
Artist:Selphius
ArtistUnicode:Selphius
Creator:Nao Tomori
Version:Einfach
Source:Sword Art Online: Alicization
Tags:ソードアート・オンライン アリシゼーション lisa german anime opening tv size cut version rock pop crouka cover selphy sao english stratos agatsu easy normal hard insane extra
BeatmapID:2704251
BeatmapSetID:1303798

[Difficulty]
HPDrainRate:3
CircleSize:3
OverallDifficulty:3
ApproachRate:4.5
SliderMultiplier:0.77
SliderTickRate:1

[Events]
//Background and Video events
0,0,"1080p.jpg",0,0
//Break Periods
//Storyboard Layer 0 (Background)
//Storyboard Layer 1 (Fail)
//Storyboard Layer 2 (Pass)
//Storyboard Layer 3 (Foreground)
//Storyboard Layer 4 (Overlay)
//Storyboard Sound Samples

[TimingPoints]
3103,314.13612565445,4,2,0,75,1,0
6872,-50,4,2,0,75,0,0
7972,-90.9090909090909,4,2,1,75,0,0
18181,-100,4,2,1,60,0,0
28076,-100,4,2,1,65,0,0
38286,-100,4,2,1,60,0,0
48338,-100,4,2,1,65,0,0
53364,-90.9090909090909,4,2,1,75,0,0
55877,-100,4,2,1,75,0,0
58233,-86.9565217391304,4,2,1,83,0,1
68286,-100,4,2,1,75,0,1
78338,-100,4,2,1,75,0,0
85563,-100,4,2,1,75,0,0
85877,-90.9090909090909,4,2,1,75,0,0

[Colours]
Combo1 : 206,206,206
Combo2 : 245,165,165
Combo3 : 156,219,243
Combo4 : 228,187,78

[HitObjects]
22,193,7972,6,0,P|42:200|132:137,1,127.050003877258,6|10,3:2|0:2,0:0:0:0:
196,90,8757,1,2,3:2:0:0:
262,154,9071,2,0,L|273:249,2,84.7000025848389,8|2|10,0:2|3:2|0:2,0:0:0:0:
324,85,10013,2,0,P|358:68|414:87,1,84.7000025848389,2|10,3:2|0:2,0:0:0:0:
437,108,10485,6,0,B|425:137|425:137|456:238,1,127.050003877258,2|10,2:2|0:2,0:0:0:0:
423,316,11270,2,0,P|381:335|333:319,1,84.7000025848389,2|8,3:2|0:2,0:0:0:0:
270,270,11898,1,2,3:2:0:0:
193,323,12212,2,0,B|152:313|152:313|104:325,2,84.7000025848389,10|10|10,0:2|0:2|0:2,0:0:0:0:
176,279,12998,6,0,P|156:213|131:155,1,127.050003877258,6|10,3:2|0:2,0:0:0:0:
160,70,13783,2,0,P|193:63|248:51,1,84.7000025848389,2|8,3:2|0:2,0:0:0:0:
321,102,14411,1,2,3:2:0:0:
409,72,14726,2,0,P|440:56|461:3,2,84.7000025848389,10|2|10,0:2|3:2|0:2,0:0:0:0:
422,116,15511,6,0,L|413:254,1,127.050003877258,2|10,0:2|0:2,0:0:0:0:
448,329,16296,1,2,3:2:0:0:
358,355,16610,2,0,P|328:364|270:336,1,84.7000025848389,8|2,0:2|3:2,0:0:0:0:
218,275,17239,2,0,L|236:184,1,84.7000025848389,10|2,0:2|3:2,0:0:0:0:
196,106,17867,1,10,0:2:0:0:
196,106,18181,6,0,B|123:97|133:151|39:133,2,154,10|10|10,0:2|0:2|2:2,0:0:0:0:
365,97,20066,2,0,L|376:177,1,77,10|10,0:2|0:2,0:0:0:0:
410,254,20694,6,0,B|444:275|452:282|452:282|502:265|519:197,2,154,8|10|10,0:2|0:2|0:2,0:0:0:0:
354,318,22265,1,10,0:2:0:0:
354,318,22579,2,0,P|327:338|270:340,1,77,10|8,0:2|0:2,0:0:0:0:
213,298,23207,6,0,P|171:283|81:347,1,154,8|10,2:2|0:2,0:0:0:0:
10,184,24464,2,0,L|48:21,1,154,10|10,0:2|2:2,0:0:0:0:
128,18,25406,1,10,0:2:0:0:
200,60,25720,6,0,B|253:50|253:50|292:93|276:147,1,154,8|10,0:2|0:2,0:0:0:0:
239,212,26663,2,0,L|150:190,1,77,8|2,0:0|0:0,0:0:0:0:
164,193,28076,6,0,P|207:210|275:169,1,115.5,6|10,3:2|0:2,0:0:0:0:
289,100,28862,2,0,L|278:21,2,77,2|10|2,3:2|0:2|3:2,0:0:0:0:
368,128,29804,1,10,2:2:0:0:
352,211,30118,2,0,L|346:287,1,77,2|10,3:2|0:2,0:0:0:0:
363,326,30589,6,0,B|380:334|399:342|399:342|429:318|446:264,1,115.5,2|10,3:2|2:2,3:0:0:0:
500,219,31375,2,0,P|489:188|483:137,1,77,2|8,3:2|0:0,0:0:0:0:
448,67,32003,1,2,3:2:0:0:
363,60,32317,1,10,2:2:0:0:
300,121,32631,2,0,P|249:121|214:99,1,77,2|10,3:2|0:2,0:0:0:0:
200,76,33102,6,0,B|155:100|125:96|125:96|90:69,1,115.5,2|10,3:2|0:2,0:0:0:0:
18,103,33888,1,2,3:2:0:0:
48,181,34202,1,10,0:0:0:0:
5,254,34516,2,0,P|11:310|32:334,1,77,2|10,3:2|2:2,3:2:0:0:
102,353,35144,2,0,L|177:328,1,77,2|8,3:2|0:0,0:0:0:0:
239,273,35773,5,6,3:2:0:0:
318,301,36087,1,10,0:2:0:0:
400,321,36401,2,0,P|406:284|416:239,1,77,2|10,3:2|0:2,0:0:0:0:
467,179,37029,5,6,3:2:0:0:
433,101,37343,1,10,0:2:0:0:
395,24,37657,2,0,B|362:8|362:8|308:24,1,77,2|10,3:2|0:2,0:0:0:0:
284,95,38286,6,0,P|251:133|147:103,2,154,6|2|2,3:2|3:2|3:2,0:0:0:0:
334,211,40013,1,2,0:2:0:0:
259,314,40485,1,10,0:2:0:0:
259,314,40799,2,0,B|164:342|164:342|148:326|128:296,2,154,6|0|2,3:2|3:2|3:2,0:0:0:0:
376,375,42527,1,12,0:2:0:0:
376,375,42841,1,14,2:2:0:0:
444,324,43155,6,0,P|452:264|406:222,1,115.5,6|8,3:2|0:2,0:0:0:0:
373,153,43940,2,0,B|369:98|388:47|388:47|377:24|351:-4,1,154,0|0,3:2|3:2,0:0:0:0:
281,35,44883,1,8,0:2:0:0:
201,64,45197,2,0,P|158:67|121:36,1,77,2|10,3:2|0:2,0:0:0:0:
67,106,45825,6,0,B|49:123|35:143|35:143|28:193|61:255,1,154,6|0,3:2|3:2,0:0:0:0:
196,339,47082,2,0,B|214:322|228:302|228:302|235:252|202:190,1,154,2|0,3:2|3:2,0:0:0:0:
269,143,48024,1,8,0:0:0:0:
328,202,48338,6,0,P|380:218|471:174,1,154,6|2,3:2|3:2,0:0:0:0:
432,101,49281,1,8,0:2:0:0:
391,26,49595,2,0,B|351:19|315:34,1,77,2|10,3:2|0:2,0:0:0:0:
247,84,50223,2,0,B|211:99|165:92,1,77,2|10,3:2|3:2,3:0:0:0:
163,177,50851,6,0,B|255:175|217:230|304:223,1,154,2|0,3:2|3:2,0:0:0:0:
373,176,51794,1,8,0:2:0:0:
444,220,52108,2,0,B|435:248|427:278|425:310,1,77,2|10,3:2|0:2,0:0:0:0:
361,348,52736,2,0,B|333:339|303:331|271:329,1,77,10|10,0:2|0:2,0:0:0:0:
206,360,53364,6,0,P|156:369|88:330,2,127.050003877258,14|14|14,2:2|0:2|0:2,0:0:0:0:
286,330,54621,2,0,B|305:342|325:351|325:351|361:324|416:314,2,127.050003877258,14|14|14,0:2|0:2|0:2,0:0:0:0:
258,250,55877,1,14,0:2:0:0:
335,148,56349,1,14,0:2:0:0:
270,38,56820,1,12,0:2:0:0:
270,38,58233,6,0,P|243:95|164:96,1,132.825002533436,6|10,3:2|0:2,0:0:0:0:
93,57,59019,1,2,3:2:0:0:
22,124,59333,1,10,0:2:0:0:
63,212,59647,2,0,P|74:235|83:298,1,88.5500016889573,2|10,3:2|0:2,0:0:0:0:
57,338,60118,2,0,P|91:321|184:306,1,132.825002533436,2|8,2:2|0:2,0:0:0:0:
269,352,60904,5,2,3:2:0:0:
351,299,61218,1,10,0:2:0:0:
448,294,61532,2,0,L|429:199,1,88.5500016889573,2|8,3:2|0:2,0:0:0:0:
476,121,62160,1,2,3:2:0:0:
413,46,62474,1,10,0:2:0:0:
315,53,62788,2,0,B|275:67|226:56,1,88.5500016889573,2|10,3:2|0:2,0:0:0:0:
135,25,63417,5,6,3:2:0:0:
63,90,63731,1,10,0:2:0:0:
114,172,64045,2,0,P|156:172|196:137,1,88.5500016889573,2|10,3:2|0:2,0:0:0:0:
287,160,64673,2,0,P|351:147|379:169,1,88.5500016889573,2|8,3:2|0:2,0:0:0:0:
456,198,65301,2,0,L|450:301,1,88.5500016889573,2|10,3:2|0:2,0:0:0:0:
419,324,65773,6,0,B|380:314|380:314|318:335,1,88.5500016889573,10|10,0:2|0:2,0:0:0:0:
241,299,66401,1,8,0:2:0:0:
158,350,66715,1,8,0:3:0:0:
72,303,67029,2,0,L|65:212,1,88.5500016889573,6|6,3:2|3:2,0:0:0:0:
133,145,67657,2,0,L|126:54,1,88.5500016889573,6|14,3:2|2:2,0:0:0:0:
202,21,68286,6,0,P|235:68|295:62,1,115.5,6|8,3:2|0:2,0:0:0:0:
372,55,69071,2,0,P|382:107|382:144,1,77,2|10,3:2|0:2,0:0:0:0:
451,180,69699,2,0,P|441:232|441:269,1,77,2|8,3:2|0:2,0:0:0:0:
396,328,70328,2,0,P|344:340|315:330,1,77,8|8,0:2|0:2,0:0:0:0:
288,309,70799,5,14,0:2:0:0:
213,349,71113,1,2,3:2:0:0:
167,277,71427,2,0,P|152:236|139:195,1,77,10|2,0:2|3:2,0:0:0:0:
215,161,72055,6,0,B|345:144,1,115.5,2|8,3:2|0:2,0:0:0:0:
378,77,72841,1,8,0:3:0:0:
313,21,73155,2,0,P|268:18|226:31,1,77,4|6,0:3|3:2,0:0:0:0:
176,85,73783,5,0,3:2:0:0:
127,154,74097,2,0,L|141:277,2,115.5,2|2|2,3:2|0:0|3:0,0:0:0:0:
176,85,75354,2,0,P|200:96|253:105,1,77,10|10,0:2|0:2,0:0:0:0:
327,70,75982,6,0,L|411:53,1,77,6|2,3:2|3:2,0:0:0:0:
419,137,76610,2,0,P|460:146|510:81,2,115.5,2|2|8,3:2|3:2|0:3,0:0:0:0:
354,192,77867,2,0,L|371:279,1,77,0|10,3:2|0:2,0:0:0:0:
398,297,78338,6,0,B|372:298|353:293|353:293|337:331|294:334,1,115.5,6|8,3:2|0:2,0:0:0:0:
225,292,79123,2,0,L|212:207,1,77,0|8,3:2|0:2,0:0:0:0:
263,147,79752,1,0,3:2:0:0:
208,81,80066,1,8,0:2:0:0:
128,108,80380,2,0,L|50:86,1,77,0|8,3:2|0:2,0:0:0:0:
4,156,81008,5,2,3:2:0:0:
9,240,81322,2,0,B|45:265|45:265|84:224|151:232,1,154,10|8,0:2|0:2,0:0:0:0:
212,284,82265,1,0,3:2:0:0:
272,224,82579,2,0,L|357:207,2,77,8|2|8,0:2|3:2|0:2,0:0:0:0:
212,284,83521,6,0,B|197:311|197:311|252:354|319:341,1,154,6|0,3:2|3:2,0:0:0:0:
401,357,84464,2,0,B|428:343|458:333|458:333|477:284|451:213|392:196,1,231,10|0,0:2|3:2,0:0:0:0:
350,192,85563,1,6,0:2:0:0:
280,254,85877,6,0,B|259:267|240:266|240:266|205:237|156:243,1,127.050003877258,6|10,3:2|0:2,0:0:0:0:
74,207,86663,1,2,3:2:0:0:
113,122,86977,2,0,L|100:32,2,84.7000025848389,8|2|10,0:2|3:2|0:2,0:0:0:0:
199,156,87919,2,0,P|236:158|276:122,1,84.7000025848389,2|10,3:2|0:2,0:0:0:0:
278,83,88390,6,0,P|303:109|398:112,1,127.050003877258,6|10,3:2|0:2,0:0:0:0:
471,161,89176,1,2,3:2:0:0:
430,245,89490,2,0,L|444:340,1,84.7000025848389,10|14,0:2|2:2,0:0:0:0:
256,192,90904,5,6,3:2:0:0:
