osu file format v14

[General]
AudioFilename: audio.mp3
AudioLeadIn: 0
PreviewTime: 57237
Countdown: 0
SampleSet: Soft
StackLeniency: 0.4
Mode: 0
LetterboxInBreaks: 0
WidescreenStoryboard: 1

[Editor]
Bookmarks: 12119
DistanceSpacing: 1.6
BeatDivisor: 4
GridSize: 4
TimelineZoom: 1.6

[Metadata]
Title:ADAMAS
TitleUnicode:ADAMAS
Artist:Selphius
ArtistUnicode:Selphius
Creator:Nao Tomori
Version:Durchschnittlich
Source:Sword Art Online: Alicization
Tags:ソードアート・オンライン アリシゼーション lisa german anime opening tv size cut version rock pop crouka cover selphy sao english stratos agatsu easy normal hard insane extra
BeatmapID:2704223
BeatmapSetID:1303798

[Difficulty]
HPDrainRate:3.5
CircleSize:3.5
OverallDifficulty:4.5
ApproachRate:6
SliderMultiplier:0.97
SliderTickRate:1

[Events]
//Background and Video events
0,0,"1080p.jpg",0,0
//Break Periods
//Storyboard Layer 0 (Background)
//Storyboard Layer 1 (Fail)
//Storyboard Layer 2 (Pass)
//Storyboard Layer 3 (Foreground)
//Storyboard Layer 4 (Overlay)
//Storyboard Sound Samples

[TimingPoints]
3103,314.13612565445,4,2,0,75,1,0
6872,-50,4,2,0,75,0,0
7972,-90.9090909090909,4,2,1,75,0,0
18181,-100,4,2,1,60,0,0
28076,-100,4,2,1,65,0,0
38286,-100,4,2,1,60,0,0
48338,-100,4,2,1,65,0,0
53364,-100,4,2,1,75,0,0
58233,-86.9565217391304,4,2,1,83,0,1
68286,-100,4,2,1,75,0,1
78338,-100,4,2,1,75,0,0
85563,-100,4,2,1,75,0,0
85877,-90.9090909090909,4,2,1,75,0,0

[Colours]
Combo1 : 206,206,206
Combo2 : 245,165,165
Combo3 : 156,219,243
Combo4 : 228,187,78

[HitObjects]
467,83,7972,6,0,L|357:103,1,106.700003256226,6|0,3:2|3:2,0:0:0:0:
332,152,8443,1,10,0:2:0:0:
224,104,8757,2,0,P|171:110|134:73,1,106.700003256226,2|8,3:2|0:2,0:0:0:0:
85,106,9228,1,0,0:2:0:0:
85,106,9385,1,2,3:2:0:0:
131,213,9699,1,10,0:2:0:0:
44,292,10013,2,0,L|34:355,2,53.3500016281128,2|2|10,3:2|0:2|0:2,0:0:0:0:
90,328,10485,6,0,B|135:306|135:306|210:337,1,106.700003256226,2|0,2:2|3:2,0:0:0:0:
243,344,10956,1,10,0:2:0:0:
349,305,11270,2,0,L|335:176,1,106.700003256226,2|8,3:2|0:2,0:0:0:0:
357,143,11741,1,0,0:2:0:0:
357,143,11898,1,2,3:2:0:0:
427,48,12212,1,10,0:2:0:0:
317,5,12527,2,0,L|247:12,2,53.3500016281128,10|10|10,0:2|0:2|0:2,0:0:0:0:
291,57,12998,6,0,B|269:83|269:83|180:59,1,106.700003256226,6|0,3:2|3:2,0:0:0:0:
142,47,13469,1,10,0:2:0:0:
106,158,13783,2,0,P|144:186|204:184,1,106.700003256226,2|8,3:2|0:2,0:0:0:0:
244,224,14254,1,0,0:2:0:0:
244,224,14411,1,2,3:2:0:0:
348,169,14726,1,10,0:2:0:0:
449,227,15040,2,0,P|477:265|461:328,1,106.700003256226,2|10,3:2|0:2,0:0:0:0:
421,357,15511,6,0,B|369:352|383:320|321:313,1,106.700003256226,2|0,0:2|3:2,0:0:0:0:
275,343,15982,1,10,0:2:0:0:
172,286,16296,2,0,P|127:285|75:346,1,106.700003256226,2|8,3:2|0:2,0:0:0:0:
72,381,16767,1,0,0:2:0:0:
72,381,16924,6,0,L|55:271,1,106.700003256226,2|10,3:2|0:2,0:0:0:0:
13,165,17553,1,2,3:2:0:0:
13,165,17710,1,0,3:2:0:0:
13,165,17867,1,10,0:2:0:0:
83,84,18181,6,0,P|134:70|189:91,2,97,10|10|10,0:2|0:2|0:2,0:0:0:0:
133,178,19123,1,10,0:2:0:0:
92,277,19438,2,0,B|118:303|118:303|198:292,1,97,10|8,2:2|0:2,0:0:0:0:
265,354,20066,2,0,B|324:362|324:362|350:336,1,97,10|10,0:2|0:2,0:0:0:0:
457,329,20694,6,0,L|443:223,1,97,8|8,0:2|0:2,0:0:0:0:
366,159,21322,2,0,L|380:53,1,97,10|10,0:2|0:2,0:0:0:0:
331,37,21794,1,0,0:2:0:0:
331,37,21951,2,0,P|280:36|234:0,1,97,10|10,0:2|0:2,0:0:0:0:
165,84,22579,2,0,P|114:84|68:121,1,97,10|8,0:2|0:2,0:0:0:0:
22,201,23207,6,0,B|46:230|46:230|26:294,1,97,8|10,2:2|0:2,0:0:0:0:
112,351,23835,2,0,P|147:358|177:301,1,97,10|10,0:2|0:2,0:0:0:0:
157,208,24464,2,0,L|172:96,1,97,10|10,0:2|0:2,0:0:0:0:
208,74,24935,1,0,3:2:0:0:
208,74,25092,2,0,B|241:92|241:92|272:66|304:64,2,97,10|10|8,2:2|0:2|0:2,0:0:0:0:
233,177,26034,5,10,0:2:0:0:
332,138,26349,2,0,P|365:131|427:115,1,97,10|10,0:2|0:2,0:0:0:0:
474,137,26820,1,0,3:2:0:0:
474,137,28076,6,0,P|430:142|382:53,1,145.5,6|10,3:2|0:2,0:0:0:0:
281,21,28862,1,2,3:2:0:0:
281,21,29019,1,0,0:2:0:0:
281,21,29176,1,10,0:2:0:0:
205,95,29490,2,0,L|221:208,1,97,2|10,3:2|2:2,0:0:0:0:
259,225,29961,1,0,0:2:0:0:
259,225,30118,2,0,P|240:255|212:319,1,97,2|10,3:2|0:2,0:0:0:0:
165,331,30589,6,0,P|137:340|82:299,1,97,2|0,0:2|2:2,0:0:0:0:
100,254,31061,1,10,0:2:0:0:
39,166,31375,1,2,3:2:0:0:
96,76,31689,1,10,0:2:0:0:
96,76,31846,1,0,0:2:0:0:
96,76,32003,2,0,L|198:102,1,97,2|10,3:2|0:2,0:0:0:0:
267,26,32631,2,0,L|360:2,1,97,2|10,3:2|0:2,0:0:0:0:
408,26,33102,2,0,P|428:51|417:128,1,97,2|2,0:2|0:2,0:0:0:0:
393,155,33574,5,10,0:2:0:0:
470,228,33888,1,2,3:2:0:0:
424,324,34202,1,10,0:2:0:0:
319,302,34516,2,0,L|206:332,1,97,2|10,3:2|0:2,0:0:0:0:
127,369,35144,1,2,3:2:0:0:
127,369,35301,1,0,0:2:0:0:
127,369,35459,1,10,0:2:0:0:
53,292,35773,6,0,P|59:237|80:190,1,97,6|10,3:2|0:2,0:0:0:0:
168,147,36401,1,2,3:2:0:0:
260,199,36715,1,10,0:2:0:0:
344,134,37029,1,6,3:2:0:0:
438,183,37343,1,10,0:2:0:0:
490,89,37657,2,0,B|486:58|459:27|459:27|430:53,1,97,2|10,3:2|0:2,0:0:0:0:
333,31,38286,6,0,P|312:52|234:43,1,97,6|8,3:2|0:2,0:0:0:0:
157,109,38914,2,0,P|136:88|58:97,1,97,2|8,3:2|0:2,0:0:0:0:
7,171,39542,2,0,L|17:284,1,97,2|8,3:2|0:2,0:0:0:0:
60,297,40013,2,0,B|90:284|90:284|168:302,1,97,2|0,0:2|0:2,0:0:0:0:
200,322,40485,1,10,0:2:0:0:
285,257,40799,6,0,B|382:223|369:302|483:259,2,194,6|0|2,3:2|3:2|3:2,0:0:0:0:
191,205,42370,1,8,0:2:0:0:
191,205,42527,2,0,B|181:170|177:145|177:145|192:95,2,97,12|14|0,0:2|2:2|3:2,0:0:0:0:
151,242,43312,6,0,P|111:267|55:256,1,97,6|8,3:2|0:2,0:0:0:0:
18,232,43783,2,0,L|37:86,1,145.5,2|8,2:2|0:2,0:0:0:0:
115,15,44568,1,0,3:2:0:0:
207,72,44883,1,8,0:2:0:0:
294,10,45197,2,0,P|327:38|394:33,1,97,2|10,3:2|0:2,0:0:0:0:
423,10,45668,6,0,B|393:49|393:49|420:162,1,145.5,8|8,0:2|0:2,0:0:0:0:
445,244,46453,1,0,3:2:0:0:
380,328,46767,1,10,0:2:0:0:
289,270,47082,1,2,3:2:0:0:
289,270,47239,2,0,L|190:287,1,97,8|0,0:2|3:2,0:0:0:0:
153,322,47710,2,0,L|54:305,1,97,2|8,3:2|0:2,0:0:0:0:
23,204,48338,6,0,P|75:208|114:165,1,97,6|8,3:2|0:2,0:0:0:0:
149,82,48966,2,0,P|186:110|233:105,1,97,2|8,3:2|0:2,0:0:0:0:
278,76,49438,1,0,3:2:0:0:
278,76,49595,1,2,3:2:0:0:
360,8,49909,1,10,0:2:0:0:
454,56,50223,2,0,L|442:169,1,97,2|10,3:2|0:2,0:0:0:0:
482,251,50851,6,0,P|502:287|396:364,1,194,2|0,3:2|3:2,0:0:0:0:
319,309,51794,1,8,0:2:0:0:
219,346,52108,2,0,P|159:355|113:362,1,97,2|10,3:2|0:2,0:0:0:0:
41,291,52736,1,10,0:2:0:0:
115,214,53050,1,10,0:2:0:0:
37,140,53364,6,0,B|69:131|69:131|111:73,1,97,14|0,2:2|3:2,0:0:0:0:
128,30,53835,2,0,B|167:58|167:58|229:75,1,97,14|0,0:2|3:2,0:0:0:0:
265,82,54307,1,14,0:2:0:0:
362,125,54621,2,0,L|380:17,1,97,14|0,0:2|3:2,0:0:0:0:
431,30,55092,2,0,B|459:47|459:47|472:117,1,97,14|0,0:2|3:2,0:0:0:0:
505,150,55563,1,14,0:2:0:0:
471,251,55877,6,0,P|438:256|399:305,1,97,14|0,0:2|3:2,0:0:0:0:
358,337,56349,2,0,P|334:306|264:290,1,97,14|0,0:2|3:2,0:0:0:0:
230,305,56820,1,8,0:2:0:0:
230,305,56977,1,14,0:2:0:0:
28,100,58233,6,0,P|78:108|120:46,1,111.550002127647,6|0,3:2|0:2,0:0:0:0:
119,5,58705,1,10,0:2:0:0:
224,68,59019,1,2,3:2:0:0:
327,2,59333,1,10,0:2:0:0:
410,91,59647,5,2,3:2:0:0:
484,195,59961,1,10,3:2:0:0:
484,195,60118,2,0,P|467:230|349:218,1,167.325003191471,2|8,2:2|2:2,3:0:0:0:
321,188,60746,1,2,0:2:0:0:
321,188,60904,6,0,L|204:208,1,111.550002127647,2|10,3:2|0:2,0:0:0:0:
112,143,61532,1,2,3:2:0:0:
112,143,61689,1,2,0:2:0:0:
22,225,62003,1,2,0:2:0:0:
22,225,62160,5,2,3:2:0:0:
52,343,62474,1,10,0:2:0:0:
168,305,62788,1,2,3:2:0:0:
280,353,63102,1,8,0:0:0:0:
280,353,63260,1,8,0:0:0:0:
280,353,63417,6,0,L|400:332,1,111.550002127647,6|10,3:2|0:2,0:0:0:0:
453,322,63888,1,2,0:2:0:0:
453,322,64045,1,2,3:2:0:0:
385,219,64359,1,10,0:2:0:0:
460,122,64673,2,0,P|418:142|356:102,1,111.550002127647,2|8,3:2|0:2,0:0:0:0:
267,177,65301,6,0,B|257:139|241:110|241:110|247:86|256:63,1,111.550002127647,2|10,3:2|0:2,0:0:0:0:
201,43,65773,1,10,0:2:0:0:
88,4,66087,1,10,0:2:0:0:
9,92,66401,1,8,0:2:0:0:
74,196,66715,1,8,0:3:0:0:
192,166,67029,5,6,3:2:0:0:
315,139,67344,1,6,3:2:0:0:
377,248,67657,1,6,3:2:0:0:
293,341,67972,1,14,2:2:0:0:
178,290,68286,6,0,P|114:277|46:340,1,145.5,6|8,3:2|0:2,0:0:0:0:
4,227,69071,2,0,L|-4:131,1,97,2|10,3:2|0:2,0:0:0:0:
8,78,69542,1,2,0:0:0:0:
108,59,69856,2,0,B|123:83|123:83|116:155,1,97,2|0,2:2|0:2,0:0:0:0:
162,178,70328,2,0,P|195:185|243:148,1,97,8|8,0:2|0:2,0:0:0:0:
275,107,70799,5,14,0:2:0:0:
372,149,71113,1,2,3:2:0:0:
449,76,71427,1,10,0:2:0:0:
351,31,71741,1,2,3:2:0:0:
275,107,72055,6,0,P|239:120|155:48,1,145.5,2|8,3:2|0:2,0:0:0:0:
117,38,72684,1,8,0:2:0:0:
117,38,72841,2,0,P|64:34|17:36,1,97,8|4,0:3|0:3,0:0:0:0:
10,142,73469,6,0,B|1:179|1:179|30:248,1,97,6|0,3:2|3:2,0:0:0:0:
34,285,73940,2,0,P|79:293|132:252,1,97,10|0,0:2|3:2,0:0:0:0:
172,250,74411,2,0,P|202:234|257:277,1,97,10|0,0:2|3:2,0:0:0:0:
298,290,74883,2,0,B|332:313|332:313|404:289,1,97,10|0,0:2|3:2,0:0:0:0:
438,301,75354,1,10,0:2:0:0:
493,209,75668,1,10,0:2:0:0:
427,124,75982,6,0,B|393:142|393:142|331:128,1,97,6|2,3:2|3:2,0:0:0:0:
286,149,76453,2,0,L|291:46,1,97,10|0,0:2|3:2,0:0:0:0:
248,19,76924,2,0,P|202:14|162:64,1,97,10|0,0:2|3:2,0:0:0:0:
186,96,77396,2,0,B|200:130|200:130|188:207,1,97,8|8,0:2|0:3,0:0:0:0:
179,241,77867,1,0,3:2:0:0:
77,206,78181,1,10,0:2:0:0:
77,206,78338,6,0,P|39:248|75:339,1,145.5,6|8,3:2|0:2,0:0:0:0:
161,356,79123,1,0,3:2:0:0:
258,311,79438,1,8,0:2:0:0:
357,348,79752,2,0,P|387:356|445:313,1,97,0|8,3:2|0:2,0:0:0:0:
484,226,80380,1,0,3:2:0:0:
415,144,80694,1,8,0:2:0:0:
415,144,80851,6,0,P|382:162|308:189,1,97,10|0,0:2|3:2,0:0:0:0:
276,167,81322,2,0,P|224:149|169:142,2,97,8|0|8,0:2|3:2|0:2,0:0:0:0:
343,84,82265,1,2,3:2:0:0:
444,117,82579,1,10,0:2:0:0:
465,221,82893,2,0,L|478:278,2,48.5,2|2|8,3:2|0:2|0:2,0:0:0:0:
371,271,83521,6,0,P|358:330|343:386,1,97,6|8,3:2|0:2,0:0:0:0:
244,340,84150,2,0,P|232:292|221:245,1,97,0|8,3:2|0:2,0:0:0:0:
177,215,84621,1,0,0:2:0:0:
177,215,84778,2,0,B|140:201|140:201|74:224,2,97,8|4|0,0:3|0:3|3:2,0:0:0:0:
210,173,85563,1,6,0:2:0:0:
167,63,85877,6,0,P|125:47|57:84,1,106.700003256226,6|0,3:2|3:2,0:0:0:0:
33,115,86349,1,10,0:2:0:0:
98,212,86663,2,0,L|81:330,1,106.700003256226,2|8,3:2|0:2,0:0:0:0:
111,368,87134,1,0,0:2:0:0:
111,368,87291,1,2,3:2:0:0:
209,305,87605,1,10,0:2:0:0:
321,337,87919,2,0,L|345:391,2,53.3500016281128,2|2|10,3:2|0:2|0:2,0:0:0:0:
361,294,88390,6,0,B|406:278|381:236|451:217,1,106.700003256226,6|0,3:2|3:2,0:0:0:0:
494,222,88862,1,10,0:2:0:0:
438,118,89176,1,2,3:2:0:0:
486,11,89490,1,10,0:2:0:0:
486,11,89647,1,2,0:2:0:0:
486,11,89804,1,14,2:2:0:0:
185,145,90904,5,6,3:2:0:0:
