osu file format v14

[General]
AudioFilename: audio.mp3
AudioLeadIn: 0
PreviewTime: 57237
Countdown: 0
SampleSet: Soft
StackLeniency: 0.4
Mode: 0
LetterboxInBreaks: 0
WidescreenStoryboard: 1

[Editor]
Bookmarks: 15967,30574,33873,58218
DistanceSpacing: 1.1
BeatDivisor: 4
GridSize: 16
TimelineZoom: 1.6

[Metadata]
Title:ADAMAS
TitleUnicode:ADAMAS
Artist:Selphius
ArtistUnicode:Selphius
Creator:Nao Tomori
Version:Das Irre von Stratsu
Source:Sword Art Online: Alicization
Tags:ソードアート・オンライン アリシゼーション lisa german anime opening tv size cut version rock pop crouka cover selphy sao english stratos agatsu easy normal hard insane extra
BeatmapID:2704179
BeatmapSetID:1303798

[Difficulty]
HPDrainRate:5
CircleSize:4
OverallDifficulty:7.8
ApproachRate:8.8
SliderMultiplier:1.7
SliderTickRate:1

[Events]
//Background and Video events
0,0,"1080p.jpg",0,0
//Break Periods
//Storyboard Layer 0 (Background)
//Storyboard Layer 1 (Fail)
//Storyboard Layer 2 (Pass)
//Storyboard Layer 3 (Foreground)
//Storyboard Layer 4 (Overlay)
//Storyboard Sound Samples

[TimingPoints]
3103,314.13612565445,4,2,0,75,1,0
7972,-100,4,2,1,75,0,0
18181,-100,4,2,1,60,0,0
18495,-125,4,2,1,60,0,0
26820,-160,4,2,1,60,0,0
28076,-160,4,2,1,65,0,0
28548,-111.111111111111,4,2,1,65,0,0
38286,-142.857142857143,4,2,1,60,0,0
48338,-111.111111111111,4,2,1,65,0,0
53364,-111.111111111111,4,2,1,75,0,0
54307,-105.263157894737,4,2,1,75,0,0
58233,-100,4,2,1,83,0,1
68286,-111.111111111111,4,2,1,75,0,1
78338,-100,4,2,1,75,0,0

[Colours]
Combo1 : 206,206,206
Combo2 : 245,165,165
Combo3 : 156,219,243
Combo4 : 228,187,78

[HitObjects]
17,343,7972,6,0,P|86:352|185:314,1,170,6|0,3:2|3:2,0:0:0:0:
91,166,8443,2,0,P|82:219|96:268,1,85,10|0,0:2|0:2,0:0:0:0:
269,360,8757,2,0,P|286:286|259:189,1,170,2|8,3:2|0:2,0:0:0:0:
200,126,9228,1,0,0:2:0:0:
240,40,9385,6,0,L|338:23,1,85,2|0,3:2|0:2,0:0:0:0:
328,121,9699,2,0,L|426:104,1,85,10|0,0:2|0:2,0:0:0:0:
395,338,10013,1,2,3:2:0:0:
320,288,10171,1,2,0:2:0:0:
398,249,10328,1,10,0:2:0:0:
301,372,10485,6,0,P|283:304|314:201,1,170,2|0,2:2|3:2,0:0:0:0:
484,290,10956,2,0,P|490:335|481:373,1,85,10|0,0:2|0:2,0:0:0:0:
232,289,11270,2,0,B|134:316|156:266|49:293,1,170,2|8,3:2|0:2,0:0:0:0:
101,377,11741,1,0,0:2:0:0:
185,198,11898,6,0,L|172:101,1,85,2|0,3:2|0:2,0:0:0:0:
69,101,12212,2,0,L|80:185,1,85,10|0,0:2|0:2,0:0:0:0:
284,236,12527,1,10,0:2:0:0:
311,199,12605,1,8,0:2:0:0:
317,152,12684,1,10,0:2:0:0:
304,106,12762,1,8,0:2:0:0:
270,72,12841,2,0,L|221:78,1,42.5,10|8,0:2|0:2,0:0:0:0:
317,152,12998,6,0,B|383:147|383:147|429:163|429:163|505:158,1,170,6|0,3:2|3:2,0:0:0:0:
357,246,13469,2,0,L|242:255,1,85,10|0,0:2|0:2,0:0:0:0:
468,377,13783,2,0,P|483:301|450:202,1,170,2|8,3:2|0:2,0:0:0:0:
381,348,14254,1,0,0:2:0:0:
289,384,14411,6,0,P|283:346|301:286,1,85,2|0,3:2|0:2,0:0:0:0:
461,130,14726,2,0,P|467:168|449:228,1,85,10|0,0:2|0:2,0:0:0:0:
238,162,15040,1,2,3:2:0:0:
311,114,15197,1,2,0:2:0:0:
228,75,15354,1,10,0:2:0:0:
323,212,15511,6,0,P|241:190|159:209,1,170,2|0,0:2|3:2,0:0:0:0:
348,28,15982,2,0,P|388:40|430:35,1,85,10|0,0:2|0:2,0:0:0:0:
489,277,16296,2,0,P|497:217|512:109,1,170,2|8,3:2|0:2,0:0:0:0:
404,156,16767,1,0,0:2:0:0:
267,74,16924,5,2,3:2:0:0:
236,66,17002,1,0,3:2:0:0:
205,72,17081,1,0,3:2:0:0:
178,89,17159,1,0,3:2:0:0:
161,116,17238,1,10,0:2:0:0:
264,193,17396,5,8,0:2:0:0:
268,198,17474,1,8,0:2:0:0:
272,203,17553,1,2,3:2:0:0:
135,284,17710,5,0,3:2:0:0:
139,289,17788,1,0,3:2:0:0:
143,294,17867,2,0,P|210:303|311:317,1,170,10|10,0:2|0:2,0:0:0:0:
50,231,18495,6,0,P|34:201|33:167,1,68,10|0,0:2|0:2,0:0:0:0:
155,84,18809,2,0,P|171:114|172:148,1,68,10|0,0:2|0:2,0:0:0:0:
349,86,19123,2,0,P|364:56|366:22,1,68,10|0,0:2|0:2,0:0:0:0:
277,0,19438,2,0,P|261:29|259:63,1,68,10|2,2:2|0:2,0:0:0:0:
406,172,19752,5,8,0:2:0:0:
406,172,19909,1,2,3:2:0:0:
332,226,20066,2,0,L|265:217,1,68,10|0,0:2|3:2,0:0:0:0:
396,296,20380,2,0,L|463:305,1,68,10|2,0:2|0:2,0:0:0:0:
291,333,20694,6,0,P|257:330|227:315,1,68,10|2,2:2|0:2,0:0:0:0:
125,380,21008,2,0,P|110:350|108:316,1,68,8|2,0:2|0:2,0:0:0:0:
1,261,21322,2,0,P|19:233|47:214,1,68,10|0,0:2|0:2,0:0:0:0:
42,95,21637,2,0,P|75:96|105:111,1,68,10|0,0:2|0:2,0:0:0:0:
252,192,21951,6,0,L|185:183,1,68,10|0,0:2|0:2,0:0:0:0:
315,78,22265,1,10,0:2:0:0:
315,78,22422,1,0,3:2:0:0:
356,153,22579,2,0,L|423:162,1,68,10|0,0:2|3:2,0:0:0:0:
430,157,22815,1,0,3:2:0:0:
436,153,22893,1,8,0:2:0:0:
380,238,23050,1,2,3:2:0:0:
476,357,23207,6,0,P|488:325|487:291,1,68,8|0,2:2|0:0,0:0:0:0:
380,238,23521,2,0,P|367:269|368:303,1,68,10|0,0:2|0:2,0:0:0:0:
304,350,23757,1,0,3:0:0:0:
297,355,23835,2,0,L|230:346,1,68,10|0,0:2|0:2,0:0:0:0:
312,229,24150,2,0,L|379:238,1,68,10|0,0:2|0:2,0:0:0:0:
446,184,24385,5,0,3:0:0:0:
454,180,24464,2,0,P|467:149|466:115,1,68,10|0,0:2|0:2,0:0:0:0:
387,28,24778,1,10,0:2:0:0:
387,28,24935,1,0,3:2:0:0:
304,84,25092,2,0,L|237:75,1,68,10|2,2:2|3:2,0:0:0:0:
97,133,25406,2,0,L|164:142,1,68,10|0,0:2|3:2,0:0:0:0:
42,0,25720,6,0,P|29:31|30:65,1,68,8|0,0:2|0:0,0:0:0:0:
97,133,26034,1,10,0:2:0:0:
11,207,26192,1,0,3:2:0:0:
7,212,26270,1,0,3:2:0:0:
3,217,26349,1,10,0:2:0:0:
124,258,26506,1,0,3:2:0:0:
128,263,26584,1,0,3:0:0:0:
132,268,26663,1,10,0:2:0:0:
105,374,26820,6,2,B|68:386|22:365|12:316|38:272|84:255|149:263|221:315|165:359|240:407|332:372,1,425,2|6,3:2|3:2,0:2:0:0:
512,249,28390,5,0,3:2:0:0:
403,224,28548,2,0,L|414:300,1,76.4999976654053,10|0,0:2|0:2,0:0:0:0:
482,141,28862,2,0,P|497:106|495:68,1,76.4999976654053,2|0,3:2|0:2,0:0:0:0:
332,72,29176,1,10,0:2:0:0:
403,0,29333,1,2,0:2:0:0:
321,82,29490,6,0,L|245:71,1,76.4999976654053,2|0,3:2|0:2,0:0:0:0:
327,213,29804,2,0,L|403:224,1,76.4999976654053,10|0,2:2|0:2,0:0:0:0:
214,283,30118,2,0,P|199:248|201:210,1,76.4999976654053,2|2,3:2|0:2,0:0:0:0:
209,207,30354,1,2,0:0:0:0:
216,204,30432,1,10,0:2:0:0:
289,353,30589,6,0,P|225:314|153:332,1,152.999995330811,2|2,0:0|0:2,0:0:0:0:
59,384,31061,1,10,0:0:0:0:
5,311,31218,1,0,0:2:0:0:
82,259,31375,2,0,P|100:225|103:188,1,76.4999976654053,2|0,3:2|0:2,0:0:0:0:
0,55,31689,2,0,L|15:129,1,76.4999976654053,10|0,0:2|0:2,0:0:0:0:
181,0,32003,5,2,3:2:0:0:
113,58,32160,1,0,0:2:0:0:
184,114,32317,2,0,L|260:103,1,76.4999976654053,10|0,0:2|0:2,0:0:0:0:
438,79,32631,1,2,3:2:0:0:
313,13,32788,1,2,0:2:0:0:
451,86,32945,1,10,0:2:0:0:
378,253,33102,6,0,P|347:185|352:109,1,152.999995330811,2|2,0:2|0:2,0:0:0:0:
512,158,33574,2,0,L|499:233,1,76.4999976654053,10|0,0:2|0:2,0:0:0:0:
486,328,33888,1,2,3:2:0:0:
486,328,34045,1,0,0:2:0:0:
415,160,34202,1,10,0:2:0:0:
415,160,34359,1,0,0:2:0:0:
388,310,34516,6,0,P|336:302|236:288,1,152.999995330811,2|10,3:2|0:2,0:0:0:0:
59,196,34987,1,2,0:2:0:0:
132,253,35144,2,0,P|147:288|145:326,1,76.4999976654053,2|0,3:2|0:2,0:0:0:0:
16,342,35459,2,0,P|1:307|3:269,1,76.4999976654053,10|0,0:2|0:2,0:0:0:0:
144,162,35773,6,0,P|174:139|186:56,1,114.749996498108,6|0,3:2|0:0,0:0:0:0:
132,13,36087,2,0,L|56:1,1,76.4999976654053,10|0,0:2|0:2,0:0:0:0:
212,127,36401,2,0,L|288:139,1,76.4999976654053,2|0,3:2|0:2,0:0:0:0:
486,56,36715,2,0,P|414:48|381:112,1,152.999995330811,10|6,0:2|3:2,0:0:0:0:
439,222,37186,5,0,3:2:0:0:
445,219,37265,1,0,3:0:0:0:
451,216,37343,2,0,L|463:140,1,76.4999976654053,10|0,0:2|0:2,0:0:0:0:
344,263,37657,2,0,L|332:339,1,76.4999976654053,2|0,3:2|0:2,0:0:0:0:
144,195,37972,2,0,P|178:180|216:182,1,76.4999976654053,10|0,0:2|0:2,0:0:0:0:
250,289,38286,6,0,P|197:314|139:307,1,118.999996368408,6|8,3:2|0:2,0:0:0:0:
12,370,38757,1,0,0:2:0:0:
12,370,38914,2,0,L|2:311,1,59.4999981842042,2|0,3:2|0:0,0:0:0:0:
49,183,39228,2,0,L|59:242,1,59.4999981842042,8|0,0:2|0:2,0:0:0:0:
185,111,39542,6,0,P|195:83|193:53,2,59.4999981842042,2|0|8,3:2|0:0|0:2,0:0:0:0:
108,50,40013,1,2,0:2:0:0:
108,50,40171,2,0,P|98:78|100:108,2,59.4999981842042,0|0|10,3:2|0:2|0:2,0:0:0:0:
267,13,40642,5,8,0:2:0:0:
272,17,40720,1,8,0:2:0:0:
277,21,40799,2,0,L|394:1,1,118.999996368408,6|8,3:2|0:2,0:0:0:0:
512,127,41270,1,0,0:0:0:0:
454,68,41427,2,0,P|411:107|406:165,1,118.999996368408,0|8,3:2|0:2,0:0:0:0:
512,235,41898,1,0,0:2:0:0:
512,235,42055,6,0,L|395:255,1,118.999996368408,2|8,3:2|0:2,0:0:0:0:
252,335,42527,2,0,L|310:345,1,59.4999981842042,12|0,0:2|0:2,0:0:0:0:
221,207,42841,2,0,L|279:217,1,59.4999981842042,14|0,2:2|0:2,0:0:0:0:
167,287,43155,1,0,3:2:0:0:
86,235,43312,6,0,P|55:185|66:128,1,118.999996368408,6|8,3:2|0:2,0:0:0:0:
163,23,43783,1,2,0:2:0:0:
163,23,43940,2,0,L|152:81,1,59.4999981842042,0|0,3:2|0:0,0:0:0:0:
221,207,44254,2,0,L|231:148,1,59.4999981842042,8|2,0:2|0:2,0:0:0:0:
330,107,44568,6,0,P|366:151|424:155,1,118.999996368408,0|8,3:2|0:2,0:0:0:0:
512,0,45040,1,2,0:2:0:0:
512,0,45197,2,0,P|455:9|423:57,1,118.999996368408,2|10,3:2|0:2,0:0:0:0:
493,212,45668,5,8,0:2:0:0:
498,209,45746,1,8,0:2:0:0:
503,206,45825,2,0,L|513:147,1,59.4999981842042,6|0,3:2|0:0,0:0:0:0:
423,57,46139,2,0,L|413:116,1,59.4999981842042,8|0,0:2|0:0,0:0:0:0:
337,238,46453,2,0,L|347:179,1,59.4999981842042,0|0,3:2|3:2,0:0:0:0:
257,89,46767,2,0,L|247:148,1,59.4999981842042,10|0,0:2|0:2,0:0:0:0:
177,189,47003,5,0,3:0:0:0:
170,194,47082,2,0,L|111:184,1,59.4999981842042,2|8,3:2|0:2,0:0:0:0:
199,296,47396,2,0,P|227:286|257:288,1,59.4999981842042,2|0,3:2|3:2,0:0:0:0:
97,195,47710,2,0,P|69:205|39:203,1,59.4999981842042,2|8,3:2|0:2,0:0:0:0:
168,66,48024,5,8,0:2:0:0:
168,66,48102,1,8,0:2:0:0:
168,66,48181,1,8,0:2:0:0:
168,66,48260,1,8,0:2:0:0:
168,66,48338,2,0,B|241:53|241:53|243:55|243:55|318:41,2,152.999995330811,6|8|2,3:2|0:2|3:2,0:0:0:0:
31,129,49123,1,0,3:2:0:0:
97,195,49281,2,0,L|84:270,1,76.4999976654053,8|0,0:2|3:2,0:0:0:0:
165,261,49516,5,0,3:2:0:0:
172,256,49595,2,0,L|185:181,1,76.4999976654053,2|0,3:2|0:2,0:0:0:0:
252,333,49909,2,0,L|327:346,1,76.4999976654053,10|0,0:2|0:2,0:0:0:0:
449,243,50223,2,0,P|412:239|377:255,1,76.4999976654053,2|0,3:2|0:2,0:0:0:0:
488,384,50537,2,0,P|509:353|513:315,1,76.4999976654053,10|8,0:2|0:2,0:0:0:0:
457,250,50773,5,8,0:2:0:0:
449,243,50851,2,0,L|475:92,2,152.999995330811,2|8|0,3:2|0:2|3:2,0:0:0:0:
332,325,51637,1,0,0:0:0:0:
259,257,51794,2,0,P|243:222|247:185,1,76.4999976654053,8|2,0:2|3:2,0:0:0:0:
350,129,52029,5,0,3:0:0:0:
346,133,52108,2,0,L|333:208,1,76.4999976654053,2|0,3:2|0:2,0:0:0:0:
203,107,52422,2,0,L|216:32,1,76.4999976654053,10|0,0:2|0:2,0:0:0:0:
332,35,52736,2,0,L|407:48,1,76.4999976654053,10|0,0:2|0:2,0:0:0:0:
217,205,53050,2,0,L|142:192,1,76.4999976654053,10|0,0:2|0:2,0:0:0:0:
81,125,53364,5,14,2:2:0:0:
158,277,53521,1,0,3:2:0:0:
158,277,53678,1,0,3:2:0:0:
142,192,53835,5,14,0:2:0:0:
65,344,53992,1,0,3:2:0:0:
65,344,54149,1,0,3:2:0:0:
245,302,54307,6,0,L|165:288,1,80.7499978437424,14|0,0:2|0:2,0:0:0:0:
2,111,54621,2,0,L|81:124,1,80.7499978437424,14|0,0:2|3:2,0:0:0:0:
276,78,54935,2,0,P|292:41|289:1,1,80.7499978437424,2|14,3:2|0:2,0:0:0:0:
190,95,55171,1,0,3:0:0:0:
184,101,55249,2,0,P|167:137|170:177,1,80.7499978437424,2|0,3:2|3:2,0:0:0:0:
382,33,55563,2,0,L|461:46,1,80.7499978437424,14|0,0:2|3:2,0:0:0:0:
467,133,55877,5,14,0:2:0:0:
470,137,55956,1,0,3:0:0:0:
473,141,56034,1,0,3:0:0:0:
476,145,56113,1,0,3:0:0:0:
479,150,56192,1,0,3:2:0:0:
398,227,56349,5,14,0:2:0:0:
395,231,56428,1,0,3:0:0:0:
392,235,56506,1,0,3:0:0:0:
389,239,56585,1,0,3:0:0:0:
386,244,56664,1,0,3:2:0:0:
512,255,56820,5,8,0:2:0:0:
363,131,56977,1,14,0:2:0:0:
291,344,58233,6,0,P|386:351|468:300,1,170,6|0,3:2|0:2,0:0:0:0:
202,294,58705,2,0,P|187:353|200:394,1,85,10|0,0:2|0:2,0:0:0:0:
359,254,59019,2,0,P|374:195|361:154,1,85,2|0,3:2|0:2,0:0:0:0:
105,279,59333,2,0,P|90:338|103:379,1,85,10|0,0:2|0:2,0:0:0:0:
225,200,59647,6,0,B|199:115|259:111|228:25,1,170,2|10,3:2|0:2,0:0:0:0:
13,183,60118,2,0,B|39:268|-21:272|10:358,1,170,2|0,2:2|0:0,0:0:0:0:
123,191,60589,1,8,0:2:0:0:
123,191,60746,1,2,0:2:0:0:
136,282,60904,6,0,L|145:375,1,85,2|0,3:2|0:2,0:0:0:0:
313,179,61218,2,0,L|322:86,1,85,10|2,0:2|0:2,0:0:0:0:
303,274,61532,1,2,3:2:0:0:
123,191,61689,2,0,L|114:106,1,85,2|8,0:2|0:2,0:0:0:0:
221,226,62003,1,2,0:2:0:0:
303,274,62160,6,0,P|385:284|477:231,1,170,2|10,3:2|0:2,0:0:0:0:
201,133,62631,1,0,0:2:0:0:
123,191,62788,2,0,P|96:261|132:362,1,170,2|10,3:2|0:2,0:0:0:0:
328,170,63260,5,8,0:2:0:0:
328,170,63338,1,8,0:0:0:0:
328,170,63417,2,0,L|421:160,1,85,6|0,3:2|0:0,0:0:0:0:
504,152,63731,1,10,0:2:0:0:
504,152,63888,1,2,0:2:0:0:
426,256,64045,2,0,L|341:265,1,85,2|0,3:2|0:2,0:0:0:0:
312,69,64359,2,0,L|405:59,1,85,10|0,0:2|0:2,0:0:0:0:
160,165,64673,6,0,B|224:161|224:161|273:174|273:174|347:168,1,170,2|8,3:2|0:2,0:0:0:0:
78,225,65301,2,0,P|62:180|70:131,1,85,2|2,3:2|0:2,0:0:0:0:
130,74,65616,1,10,0:2:0:0:
199,313,65773,6,0,B|97:291|136:340|31:315,1,170,10|10,2:2|0:2,0:0:0:0:
178,215,66244,1,8,0:2:0:0:
300,308,66401,2,0,L|289:385,1,42.5,8|8,0:2|0:2,0:0:0:0:
482,259,66558,1,8,0:3:0:0:
508,219,66637,1,8,0:3:0:0:
512,172,66715,1,8,0:3:0:0:
501,128,66794,1,8,0:3:0:0:
469,97,66872,2,0,L|394:107,1,42.5,4|4,0:3|0:3,0:0:0:0:
232,144,67029,5,6,3:2:0:0:
310,185,67343,5,6,3:2:0:0:
231,231,67658,5,6,3:2:0:0:
307,95,67972,5,14,2:2:0:0:
141,292,68286,6,0,P|121:230|138:134,1,152.999995330811,6|0,3:2|3:2,0:0:0:0:
340,149,68757,2,0,L|331:233,1,76.4999976654053,8|0,0:2|0:0,0:0:0:0:
231,231,69071,2,0,L|239:154,1,76.4999976654053,2|0,3:2|3:2,0:0:0:0:
251,67,69385,1,10,0:2:0:0:
424,94,69542,6,0,P|436:131|425:188,1,76.4999976654053,2|0,3:2|2:2,0:0:0:0:
476,256,69856,2,0,P|445:294|345:296,1,152.999995330811,2|0,0:0|0:0,0:0:0:0:
224,210,70328,1,8,0:2:0:0:
228,356,70485,1,0,3:2:0:0:
228,356,70563,1,8,0:2:0:0:
228,356,70642,1,8,0:2:0:0:
152,293,70799,6,0,P|82:314|-13:287,1,152.999995330811,14|2,0:2|3:2,0:0:0:0:
144,135,71270,1,0,3:2:0:0:
224,210,71427,2,0,P|245:280|218:375,1,152.999995330811,10|2,0:2|3:2,0:0:0:0:
343,277,71898,2,0,L|419:270,1,76.4999976654053,0|2,3:2|3:2,0:0:0:0:
456,77,72212,5,8,0:2:0:0:
428,54,72291,1,8,0:2:0:0:
392,46,72370,1,8,0:2:0:0:
355,54,72448,1,8,0:2:0:0:
332,80,72527,2,0,P|335:104|335:130,1,38.2499988327027,8|0,0:2|0:0,0:0:0:0:
244,97,72684,2,0,P|241:80|243:55,1,38.2499988327027,8|0,0:2|0:0,0:0:0:0:
71,121,72841,5,8,0:3:0:0:
102,113,72920,1,8,0:3:0:0:
135,122,72999,1,8,0:3:0:0:
163,140,73077,1,8,0:3:0:0:
181,168,73155,1,4,0:3:0:0:
196,200,73233,1,4,0:3:0:0:
224,219,73311,1,4,0:3:0:0:
256,230,73390,1,4,0:3:0:0:
287,222,73469,1,6,3:2:0:0:
81,254,73783,6,0,L|89:356,1,76.4999976654053,0|10,3:2|0:2,0:0:0:0:
260,142,74097,2,0,P|278:63|236:-14,1,152.999995330811,0|10,0:0|0:2,0:0:0:0:
164,112,74568,2,0,P|155:165|169:207,1,76.4999976654053,0|0,0:0|3:2,0:0:0:0:
237,365,74883,1,10,0:2:0:0:
308,307,75040,2,0,P|317:254|303:212,1,76.4999976654053,0|0,0:0|3:2,0:0:0:0:
215,268,75354,1,10,0:2:0:0:
215,268,75432,1,2,0:0:0:0:
215,268,75511,1,0,3:2:0:0:
411,319,75668,2,0,P|420:266|406:224,2,76.4999976654053,10|0|6,0:2|3:2|3:2,0:0:0:0:
204,38,76296,6,0,L|113:48,1,76.4999976654053,2|10,3:2|0:2,0:0:0:0:
1,137,76610,2,0,B|60:131|60:131|102:144|102:144|177:136,1,152.999995330811,2|10,3:2|0:2,0:0:0:0:
50,314,77082,2,0,P|37:278|41:240,1,76.4999976654053,2|0,3:2|3:2,0:0:0:0:
92,90,77396,1,8,0:2:0:0:
92,90,77474,1,8,0:2:0:0:
92,90,77553,1,8,0:3:0:0:
149,268,77710,1,8,0:3:0:0:
279,113,77867,2,0,L|341:120,1,38.2499988327027,0|0,3:2|3:2,0:0:0:0:
198,170,78024,2,0,L|136:163,1,38.2499988327027,0|0,3:2|3:2,0:0:0:0:
256,260,78181,1,10,0:2:0:0:
231,21,78338,6,0,P|298:12|407:50,1,170,6|0,3:2|3:2,0:0:0:0:
512,231,78809,2,0,L|500:325,1,85,8|0,0:2|0:0,0:0:0:0:
396,346,79123,2,0,L|406:261,1,85,0|0,3:2|3:2,0:0:0:0:
309,200,79438,2,0,L|297:294,1,85,8|0,0:2|0:2,0:0:0:0:
167,365,79752,6,0,B|74:346|94:391|-17:361,1,170,0|8,3:2|0:2,0:0:0:0:
48,275,80223,1,0,0:0:0:0:
236,291,80380,2,0,B|329:272|309:317|420:287,1,170,0|8,3:2|0:2,0:0:0:0:
150,73,80851,5,10,0:2:0:0:
150,73,80930,1,8,0:0:0:0:
150,73,81008,2,0,P|131:160|150:247,1,170,0|8,3:0|0:2,0:0:0:0:
235,180,81479,1,0,0:0:0:0:
249,85,81637,2,0,L|259:-11,1,85,0|0,3:2|0:0,0:0:0:0:
361,0,81951,2,0,L|351:96,1,85,8|0,0:2|0:2,0:0:0:0:
447,275,82265,6,0,P|466:188|447:101,1,170,2|10,3:2|0:2,0:0:0:0:
364,172,82736,1,0,0:2:0:0:
341,359,82893,2,0,P|428:378|515:359,1,170,2|8,3:2|0:2,0:0:0:0:
340,262,83364,1,8,0:2:0:0:
251,302,83521,6,0,P|241:372|247:393,1,85,6|0,3:2|0:0,0:0:0:0:
434,271,83835,2,0,P|444:201|438:180,1,85,8|0,0:2|0:0,0:0:0:0:
333,0,84150,2,0,B|308:85|364:85|342:173,1,170,0|8,3:2|0:2,0:0:0:0:
421,43,84621,1,0,0:2:0:0:
301,252,84778,5,8,0:3:0:0:
262,279,84856,1,8,0:3:0:0:
214,285,84935,1,8,0:3:0:0:
166,267,85013,1,8,0:3:0:0:
141,223,85092,2,0,L|153:162,1,42.5,4|4,0:3|0:3,0:0:0:0:
247,139,85249,2,0,L|238:180,1,42.5,4|4,0:3|0:3,0:0:0:0:
62,150,85406,2,0,L|74:89,1,42.5,0|0,3:2|0:0,0:0:0:0:
184,19,85563,2,0,B|124:23|124:23|83:6|83:6|17:12,1,170,6|6,0:2|3:2,0:0:0:0:
346,275,86192,5,0,3:2:0:0:
425,226,86349,2,0,P|431:185|414:135,1,85,10|0,0:2|0:2,0:0:0:0:
326,10,86663,2,0,P|310:128|327:178,1,170,2|8,3:2|0:2,0:0:0:0:
419,143,87134,1,0,0:2:0:0:
502,39,87291,2,0,L|392:52,1,85,2|0,3:2|0:2,0:0:0:0:
253,138,87605,2,0,B|319:131|319:131|362:149|362:149|444:140,1,170,10|2,0:2|3:2,0:0:0:0:
297,235,88076,2,0,L|187:248,1,85,2|10,0:2|0:2,0:0:0:0:
9,384,88390,6,0,P|-11:294|6:217,1,170,6|0,3:2|3:2,0:0:0:0:
130,95,88862,2,0,P|144:141|138:183,1,85,10|0,0:2|0:2,0:0:0:0:
0,6,89176,2,0,B|105:27|74:-19|169:0,1,170,2|10,3:2|0:2,0:0:0:0:
323,80,89647,1,2,0:2:0:0:
323,80,89804,1,14,2:2:0:0:
189,304,90904,5,6,3:2:0:0:
