osu file format v14

[General]
AudioFilename: GUMI.mp3
AudioLeadIn: 0
PreviewTime: -1
Countdown: 0
SampleSet: Soft
StackLeniency: 0.2
Mode: 0
LetterboxInBreaks: 0
WidescreenStoryboard: 1

[Editor]
DistanceSpacing: 1.1
BeatDivisor: 4
GridSize: 4
TimelineZoom: 3.199999

[Metadata]
Title:shirayuki
TitleUnicode:白ゆき
Artist:Selio
ArtistUnicode:Selio
Creator:kanor
Version:Next Year
Source:
Tags:ナブナ n-buna 白ゆき Selio kanor Awaken
BeatmapID:973853
BeatmapSetID:454212

[Difficulty]
HPDrainRate:5
CircleSize:3.8
OverallDifficulty:8
ApproachRate:9.2
SliderMultiplier:1.4
SliderTickRate:1

[Events]
//Background and Video events
0,0,"maxresdefault.jpg",0,0
//Break Periods
//Storyboard Layer 0 (Background)
//Storyboard Layer 1 (Fail)
//Storyboard Layer 2 (Pass)
//Storyboard Layer 3 (Foreground)
//Storyboard Sound Samples

[TimingPoints]
828,285.714285714286,4,2,0,10,1,0
828,-133.333333333333,4,2,0,10,0,0
1114,285.714285714286,4,2,0,10,1,0
1114,-133.333333333333,4,2,0,15,0,0
10256,-133.333333333333,4,2,1,20,0,0
19114,-100,4,2,0,10,0,0
55971,-133.333333333333,4,2,0,10,0,0
65114,-100,4,2,0,10,0,0
74256,-83.3333333333333,4,2,0,10,0,0
102828,-133.333333333333,4,2,0,10,0,0
103828,-100,4,2,0,10,0,0
116256,-83.3333333333333,4,2,0,10,0,0
116828,-71.4285714285714,4,2,0,10,0,0
117399,-100,4,2,0,10,0,0
124542,-133.333333333333,4,2,0,10,0,0
135971,-100,4,2,0,10,0,0
145114,-83.3333333333333,4,2,0,10,0,0
163399,-90.9090909090909,4,2,0,10,0,0
169256,-83.3333333333333,4,2,0,10,0,0
169542,-71.4285714285714,4,2,0,10,0,0
169828,-90.9090909090909,4,2,0,10,0,0
172542,-76.9230769230769,4,2,0,10,0,0
179399,-133.333333333333,4,2,0,10,0,0
194256,-153.846153846154,4,2,0,10,0,0
196685,-66.6666666666667,4,2,0,10,0,0
197114,-181.818181818182,4,2,0,10,0,0
202256,-133.333333333333,4,2,0,10,0,0
204828,-83.3333333333333,4,2,0,10,0,0
205114,-71.4285714285714,4,2,0,10,0,0
205399,-62.5,4,2,0,10,0,0
205971,-83.3333333333333,4,2,0,10,0,0
209542,-71.4285714285714,4,2,0,10,0,0
210114,-62.5,4,2,0,10,0,0
210399,-83.3333333333333,4,2,0,10,0,0
214256,-71.4285714285714,4,2,0,10,0,0
214685,-62.5,4,2,0,10,0,0
215971,-83.3333333333333,4,2,0,10,0,0
235542,-76.9230769230769,4,2,0,10,0,0
235828,-71.4285714285714,4,2,0,10,0,0
236114,-62.5,4,2,0,10,0,0
236399,-83.3333333333333,4,2,0,10,0,0
240114,-76.9230769230769,4,2,0,10,0,0
240399,-71.4285714285714,4,2,0,10,0,0
240685,-62.5,4,2,0,10,0,0
240971,-83.3333333333333,4,2,0,10,0,0
252399,289.855072463768,4,2,0,10,1,0
252399,-133.333333333333,4,2,0,10,0,0
253558,287.081339712919,4,2,0,10,1,0
253558,-133.333333333333,4,2,0,10,0,0
254706,288.461538461538,4,2,0,10,1,0
254706,-133.333333333333,4,2,0,10,0,0
255859,289.855072463768,4,2,0,10,1,0
255859,-133.333333333333,4,2,0,10,0,0
257018,277.777777777778,4,2,0,10,1,0
257018,-133.333333333333,4,2,0,10,0,0
258129,294.117647058824,4,2,0,10,1,0
258129,-133.333333333333,4,2,0,10,0,0
259305,285.714285714286,4,2,0,10,1,0
259305,-133.333333333333,4,2,0,10,0,0

[Colours]
Combo1 : 0,105,234
Combo2 : 255,135,15

[HitObjects]
184,128,828,5,0,0:0:0:0:
184,128,970,2,0,P|248:104|336:136,1,157.5,2|0,0:0|0:0,0:0:0:0:
492,48,1685,2,0,P|473:97|435:131,1,105.000004005432,2|0,0:0|0:0,0:0:0:0:
329,130,2114,2,0,P|344:208|312:288,1,157.500006008148,2|0,0:0|0:0,0:0:0:0:
168,200,2828,2,0,P|224:216|280:200,1,105.000004005432
429,125,3399,2,0,P|378:114|328:130,2,105.000004005432,2|0|2,0:0|0:0|0:0,0:0:0:0:
429,125,5399,5,0,0:0:0:0:
429,125,5542,2,0,P|405:205|421:293,1,157.500006008148,2|0,0:0|0:0,0:0:0:0:
288,232,6256,2,0,P|288:176|256:128,1,105.000004005432,2|0,0:0|0:0,0:0:0:0:
214,206,6685,2,0,P|134:178|62:218,1,157.500006008148,2|2,0:0|0:0,0:0:0:0:
148,328,7399,1,2,0:0:0:0:
72,208,7685,5,0,0:0:0:0:
72,208,7828,2,0,B|104:160|32:112|80:40,1,157.500006008148,2|0,0:0|0:0,0:0:0:0:
160,96,8542,2,0,L|272:128,1,105.000004005432,2|0,0:0|0:0,0:0:0:0:
152,176,8971,2,0,L|312:224,1,157.500006008148,2|0,0:0|0:0,0:0:0:0:
224,280,9685,1,0,0:0:0:0:
392,160,9971,2,2,P|432:168|464:168,1,52.5000020027161
360,152,10256,6,0,P|312:136|256:144,1,105.000004005432,10|0,0:0|0:0,0:0:0:0:
152,232,10828,2,0,P|200:248|256:240,1,105.000004005432,10|0,0:0|0:0,0:0:0:0:
216,88,11256,1,0,0:0:0:0:
216,88,11399,2,0,P|200:136|208:192,1,105.000004005432,10|0,0:0|0:0,0:0:0:0:
296,296,11971,2,0,P|312:248|304:192,1,105.000004005432,10|0,0:0|0:0,0:0:0:0:
216,88,12542,6,0,P|160:80|88:88,1,105.000004005432,10|0,0:0|0:0,0:0:0:0:
296,296,13114,2,0,P|352:304|424:296,1,105.000004005432,10|0,0:0|0:0,0:0:0:0:
152,232,13685,2,0,P|144:288|152:360,1,105.000004005432,10|0,0:0|0:0,0:0:0:0:
360,152,14256,2,0,P|368:96|360:24,1,105.000004005432,10|0,0:0|0:0,0:0:0:0:
152,232,14685,5,0,0:0:0:0:
152,232,14828,2,0,L|168:352,1,105.000004005432,10|0,0:0|0:0,0:0:0:0:
360,232,15399,2,0,L|344:352,1,105.000004005432,10|0,0:0|0:0,0:0:0:0:
168,136,15828,1,0,0:0:0:0:
168,136,15971,2,0,P|108:132|56:160,1,105.000004005432,10|0,0:0|0:0,0:0:0:0:
344,136,16542,2,0,P|403:132|456:160,2,105.000004005432,10|0|10,0:0|0:0|0:0,0:0:0:0:
256,40,17399,5,2,0:0:0:0:
256,136,17685,1,2,0:0:0:0:
256,232,17971,5,2,0:0:0:0:
256,136,18114,1,2,0:0:0:0:
256,40,18256,1,12,0:0:0:0:
288,40,19114,5,0,0:0:0:0:
288,40,19185,1,0,0:0:0:0:
288,40,19256,2,0,L|440:40,1,140
352,128,19685,2,0,L|336:216,1,70
264,128,19971,1,0,0:0:0:0:
432,176,20114,1,0,0:0:0:0:
456,184,20185,1,0,0:0:0:0:
480,192,20256,1,0,0:0:0:0:
288,40,20399,6,0,L|448:40,1,140
349,129,20828,2,0,L|336:203,1,70
232,120,21114,1,0,0:0:0:0:
456,184,21256,1,0,0:0:0:0:
311,335,21542,6,0,L|338:186,1,140
168,252,21971,2,0,L|248:252,1,70
216,332,22256,1,0,0:0:0:0:
192,168,22399,1,0,0:0:0:0:
184,144,22471,1,0,0:0:0:0:
176,120,22542,1,0,0:0:0:0:
311,335,22685,6,0,L|338:188,1,140
240,256,23042,1,0,0:0:0:0:
240,256,23114,2,0,L|160:256,1,70
232,368,23399,1,0,0:0:0:0:
184,144,23542,1,0,0:0:0:0:
96,264,23685,5,0,0:0:0:0:
96,264,23756,1,0,0:0:0:0:
96,264,23828,2,0,P|80:192|112:128,1,140
176,240,24256,2,0,P|174:280|152:320,1,70
184,144,24542,1,0,0:0:0:0:
280,208,24685,1,0,0:0:0:0:
304,216,24756,1,0,0:0:0:0:
328,224,24828,1,0,0:0:0:0:
96,264,24971,6,0,P|80:192|112:128,1,140
280,208,25399,2,0,P|288:240|280:280,1,70
170,256,25685,1,0,0:0:0:0:
184,144,25828,1,0,0:0:0:0:
456,208,26114,6,0,P|480:144|452:48,1,140
312,120,26542,2,0,P|352:128|400:128,1,70
344,40,26828,1,0,0:0:0:0:
344,208,26971,1,0,0:0:0:0:
208,120,27114,1,0,0:0:0:0:
75,110,27256,6,0,P|139:134|211:118,1,140
133,187,27685,2,0,P|135:221|128:256,1,70
48,216,27971,1,0,0:0:0:0:
216,224,28114,1,0,0:0:0:0:
48,216,28256,5,0,0:0:0:0:
48,216,28328,1,0,0:0:0:0:
48,216,28399,2,0,P|24:128|64:64,1,140
208,104,28828,2,0,P|216:144|200:192,1,70
128,64,29113,1,0,0:0:0:0:
288,216,29256,1,0,0:0:0:0:
304,232,29327,1,0,0:0:0:0:
320,248,29398,1,0,0:0:0:0:
376,184,29542,6,0,P|400:256|360:328,1,140
272,192,29971,2,0,P|271:143|295:103,1,70
360,104,30257,1,0,0:0:0:0:
184,48,30400,1,0,0:0:0:0:
272,192,30685,6,0,B|231:229|176:176|135:197,1,140
24,216,31113,2,0,P|56:224|96:216,1,70
232,128,31399,1,0,0:0:0:0:
152,272,31541,1,0,0:0:0:0:
136,296,31614,1,0,0:0:0:0:
120,320,31684,1,0,0:0:0:0:
137,195,31828,6,0,B|175:176|230:229|271:191,1,140
296,176,32184,1,0,0:0:0:0:
330,168,32256,2,0,P|368:160|416:176,1,70
368,256,32541,1,0,0:0:0:0:
392,72,32684,1,0,0:0:0:0:
224,128,32827,5,0,0:0:0:0:
224,128,32898,1,0,0:0:0:0:
224,128,32970,2,0,L|208:272,1,140
137,195,33399,2,0,P|96:192|41:195,1,70
296,256,33684,1,0,0:0:0:0:
376,184,33828,1,0,0:0:0:0:
392,168,33898,1,0,0:0:0:0:
408,152,33970,1,0,0:0:0:0:
224,128,34114,6,0,L|208:267,1,140
288,64,34542,2,0,P|328:56|364:64,1,70
144,120,34827,1,0,0:0:0:0:
296,256,34970,1,0,0:0:0:0:
288,64,35256,6,0,P|360:56|424:72,1,140
384,184,35685,2,0,P|413:198|448:236,1,70
272,184,35970,1,0,0:0:0:0:
344,280,36114,2,0,P|352:312|352:352,1,70
224,64,36399,6,0,P|152:56|88:72,1,140
128,184,36828,2,0,P|98:198|64:236,1,70
168,280,37114,2,0,P|160:312|160:352,1,70
240,184,37399,5,0,0:0:0:0:
240,184,37542,2,0,P|304:176|400:192,1,140
496,176,37971,2,0,L|480:264,1,70
378,185,38256,2,0,L|394:113,1,70
483,244,38542,2,0,L|467:324,1,70
378,185,38828,2,0,L|298:185,1,70
200,224,39114,2,0,L|130:224,1,70
32,160,39399,1,0,0:0:0:0:
32,160,39542,1,0,0:0:0:0:
160,88,39685,1,0,0:0:0:0:
160,88,39828,1,0,0:0:0:0:
200,224,39971,6,0,L|272:224,1,70
445,161,40256,2,0,L|373:161,1,70
270,224,40542,2,0,P|244:264|256:328,1,105
256,336,40828,1,0,0:0:0:0:
360,288,40971,2,0,P|392:232|368:152,1,140
201,210,41399,2,0,L|270:224,1,70
443,174,41685,2,0,L|363:158,1,70
248,136,41971,5,0,0:0:0:0:
248,136,42114,2,0,P|208:192|232:272,1,140
272,344,42542,2,0,L|280:256,1,70
408,240,42828,2,0,L|400:336,1,70
278,274,43114,2,0,L|286:186,1,70
408,48,43399,1,0,0:0:0:0:
376,160,43542,1,0,0:0:0:0:
288,80,43685,2,0,P|232:68|176:80,1,105
136,48,43971,2,0,P|144:88|128:136,1,70
216,168,44256,5,0,0:0:0:0:
216,168,44399,2,0,B|200:224|256:256|192:320,1,140
144,256,44828,2,0,P|104:256|64:240,1,70
296,208,45114,1,0,0:0:0:0:
296,208,45256,2,0,P|336:176|352:144,1,70
344,72,45542,2,0,P|408:104|424:192,1,140
272,120,45971,2,0,P|224:112|176:120,1,70
120,256,46256,2,0,P|160:232|208:224,1,70
320,248,46542,5,0,0:0:0:0:
320,248,46685,2,0,P|368:288|464:256,1,140
511,153,47114,2,0,L|480:216,1,70
376,128,47399,2,0,L|408:64,1,70
320,248,47685,2,0,L|289:311,1,70
410,216,47971,2,0,L|496:216,1,70
280,160,48256,2,0,L|200:160,1,70
376,128,48542,1,0,0:0:0:0:
320,248,48685,1,0,0:0:0:0:
410,216,48828,1,0,0:0:0:0:
280,160,48971,6,0,B|248:192|192:128|128:176,1,140
200,320,49399,2,0,P|203:285|196:252,1,70
96,256,49685,1,0,0:0:0:0:
195,251,49828,1,0,0:0:0:0:
144,165,49971,2,0,P|105:162|48:168,1,70
96,256,50256,1,0,0:0:0:0:
143,163,50399,1,0,0:0:0:0:
192,72,50542,2,0,L|291:83,1,70
416,48,50828,2,0,L|336:40,1,70
336,168,51114,5,0,0:0:0:0:
336,168,51256,2,0,P|368:104|340:36,1,140
288,96,51685,2,0,P|249:95|200:120,1,70
256,176,51971,2,0,P|264:216|304:248,1,70
336,168,52256,1,0,0:0:0:0:
288,96,52399,2,0,P|208:112|176:168,1,140
251,244,52828,2,0,P|259:212|251:164,1,70
128,264,53114,2,0,P|120:304|136:352,1,70
251,244,53399,5,0,0:0:0:0:
251,244,53542,2,0,P|320:240|408:264,1,140
480,296,53971,2,0,P|496:264|504:224,1,70
408,216,54256,5,0,0:0:0:0:
408,216,54399,2,0,P|412:169|396:121,1,70
296,192,54685,5,0,0:0:0:0:
296,192,54828,2,0,P|288:144|264:112,1,70
192,216,55114,5,0,0:0:0:0:
192,216,55256,2,0,P|152:184|104:184,1,70
128,296,55542,5,0,0:0:0:0:
128,296,55685,2,0,P|80:288|48:296,1,70
240,304,55971,6,0,P|288:320|352:304,1,105.000004005432
404,249,56399,2,0,P|400:304|440:336,1,105.000004005432
488,264,56828,1,0,0:0:0:0:
488,264,56971,2,0,P|456:232|400:256,1,105.000004005432
464,188,57399,2,0,P|472:160|464:136,1,52.5000020027161
451,59,57685,2,0,L|400:48,1,52.5000020027161
370,116,57971,2,0,L|320:104,1,52.5000020027161
280,40,58256,6,0,P|248:80|256:144,1,105.000004005432
280,200,58685,2,0,P|232:176|168:176,1,105.000004005432
104,208,59114,2,0,L|136:120,2,78.7500030040742
80,288,59685,2,0,P|120:288|152:272,1,52.5000020027161
216,312,59971,2,0,P|232:280|232:248,1,52.5000020027161
328,256,60256,2,0,P|328:224|312:200,1,52.5000020027161
416,160,60542,6,0,P|368:128|320:128,1,105.000004005432
248,168,60971,2,0,P|264:112|248:40,1,105.000004005432
400,57,61399,1,0,0:0:0:0:
400,57,61542,2,0,P|400:112|417:162,1,105.000004005432
459,237,61971,2,0,L|512:248,1,52.5000020027161
328,240,62256,2,0,L|384:224,1,52.5000020027161
200,256,62542,2,0,L|261:267,1,52.5000020027161
104,268,62828,6,0,P|168:276|208:244,1,105.000004005432
143,104,63256,2,0,P|135:156|144:208,1,105.000004005432
224,152,63685,1,0,0:0:0:0:
224,152,63828,2,0,P|280:144|344:160,1,105.000004005432
424,176,64256,2,0,P|448:168|472:144,1,52.5000020027161
416,48,64542,2,0,P|400:80|400:120,1,52.5000020027161
360,240,64828,5,0,0:0:0:0:
360,240,64971,1,0,0:0:0:0:
360,240,65114,2,0,L|448:264,1,70
344,328,65399,2,0,L|256:352,1,70
440,368,65685,6,0,L|508:350,1,70
264,264,65971,2,0,L|197:246,1,70
416,184,66256,5,0,0:0:0:0:
416,184,66399,1,0,0:0:0:0:
416,184,66542,2,0,B|451:154|451:154|448:120,1,70
320,104,66828,2,0,B|339:66|339:66|320:32,1,70
208,96,67114,2,0,B|187:58|187:58|144:56,1,70
178,190,67399,6,0,L|248:184,1,70
432,216,67685,2,0,L|352:224,1,70
192,264,67971,6,0,L|261:257,1,70
280,256,68185,1,0,0:0:0:0:
296,256,68256,2,0,P|291:303|312:344,1,70
448,328,68542,1,0,0:0:0:0:
448,328,68685,1,0,0:0:0:0:
448,328,68828,2,0,P|456:288|440:240,1,70
366,154,69114,2,0,P|358:186|361:222,1,70
488,80,69399,5,0,0:0:0:0:
488,80,69542,1,0,0:0:0:0:
488,80,69685,2,0,L|408:80,1,70
272,48,69971,2,0,L|342:48,1,70
200,80,70256,2,0,L|120:80,1,70
264,128,70542,1,0,0:0:0:0:
240,208,70685,1,0,0:0:0:0:
216,296,70828,6,0,P|256:288|296:296,1,70
352,336,71114,1,0,0:0:0:0:
352,336,71256,2,0,P|328:272|344:192,1,140
384,128,71685,1,0,0:0:0:0:
432,200,71828,1,0,0:0:0:0:
288,136,71971,6,0,P|212:128|152:192,1,140
240,200,72399,1,0,0:0:0:0:
288,136,72542,2,0,P|312:96|312:48,1,70
404,24,72828,1,0,0:0:0:0:
404,24,72971,2,0,P|388:88|420:184,1,140
456,232,73399,1,0,0:0:0:0:
248,216,73685,5,0,0:0:0:0:
248,216,73971,1,0,0:0:0:0:
248,216,74256,2,0,P|288:232|352:224,1,83.9999974365235
512,184,74542,2,0,P|472:168|408:176,1,83.9999974365235
336,40,74828,2,0,P|328:80|336:136,1,83.9999974365235
344,152,75042,1,0,0:0:0:0:
344,152,75114,1,0,0:0:0:0:
408,80,75256,1,0,0:0:0:0:
264,72,75399,6,0,P|214:65|168:72,1,83.9999974365235
104,128,75685,1,0,0:0:0:0:
264,152,75828,2,0,P|214:145|168:152,1,83.9999974365235
104,208,76114,1,0,0:0:0:0:
184,224,76256,2,0,P|224:224|272:232,1,83.9999974365235
338,272,76471,5,0,0:0:0:0:
338,272,76542,2,0,P|330:216|354:168,1,83.9999974365235
411,70,76828,2,0,P|419:110|403:158,1,83.9999974365235
475,270,77114,2,0,P|436:256|402:219,1,83.9999974365235
336,112,77399,1,0,0:0:0:0:
336,112,77542,2,0,P|240:120|144:88,1,167.999994873047
152,96,77899,5,0,0:0:0:0:
136,88,77971,1,0,0:0:0:0:
200,16,78114,1,0,0:0:0:0:
224,104,78256,1,0,0:0:0:0:
112,0,78399,1,0,0:0:0:0:
288,32,78542,1,0,0:0:0:0:
152,168,78685,1,0,0:0:0:0:
152,168,78828,6,0,L|136:256,1,83.9999974365235
248,336,79114,2,0,L|232:248,1,83.9999974365235
56,192,79399,1,0,0:0:0:0:
240,144,79542,1,0,0:0:0:0:
248,128,79614,1,0,0:0:0:0:
256,112,79685,1,0,0:0:0:0:
344,208,79828,1,0,0:0:0:0:
464,176,79971,6,0,L|456:72,1,83.9999974365235
360,8,80256,2,0,L|352:112,1,83.9999974365235
344,208,80542,1,0,0:0:0:0:
256,112,80685,1,0,0:0:0:0:
248,128,80756,1,0,0:0:0:0:
240,144,80828,1,0,0:0:0:0:
160,64,80971,1,0,0:0:0:0:
256,8,81114,6,0,L|352:0,1,83.9999974365235
320,176,81399,1,0,0:0:0:0:
328,88,81542,2,0,L|424:80,1,83.9999974365235
416,256,81828,1,0,0:0:0:0:
400,336,81971,1,0,0:0:0:0:
424,168,82114,2,0,L|528:160,1,83.9999974365235
304,280,82399,5,0,0:0:0:0:
304,280,82542,2,0,P|256:296|192:280,1,83.9999974365235
192,160,82828,1,0,0:0:0:0:
256,216,82971,1,0,0:0:0:0:
144,288,83114,1,0,0:0:0:0:
128,264,83185,1,0,0:0:0:0:
112,240,83256,1,0,0:0:0:0:
96,216,83328,1,0,0:0:0:0:
80,192,83399,6,0,P|64:216|56:288,1,83.9999974365235
112,104,83685,2,0,P|80:72|40:64,1,83.9999974365235
208,56,83971,1,0,0:0:0:0:
320,112,84114,1,0,0:0:0:0:
336,88,84185,1,0,0:0:0:0:
336,64,84257,1,0,0:0:0:0:
208,56,84399,1,0,0:0:0:0:
216,168,84542,6,0,P|208:208|216:264,1,83.9999974365235
248,328,84828,1,0,0:0:0:0:
296,168,84971,2,0,P|288:208|296:264,1,83.9999974365235
344,328,85257,1,0,0:0:0:0:
376,248,85399,2,0,P|368:208|384:152,1,83.9999974365235
392,136,85614,5,0,0:0:0:0:
392,136,85685,2,0,P|424:184|464:200,1,83.9999974365235
256,104,85971,2,0,B|304:64|304:64|296:104,1,83.9999974365235
280,208,86256,2,0,B|288:264|288:264|256:256,1,83.9999974365235
176,184,86542,1,0,0:0:0:0:
176,184,86685,2,0,B|72:120|72:120|152:120,1,167.999994873047
152,120,87042,5,0,0:0:0:0:
184,120,87114,1,0,0:0:0:0:
296,120,87257,1,0,0:0:0:0:
240,208,87399,1,0,0:0:0:0:
344,208,87542,1,0,0:0:0:0:
296,120,87685,1,0,0:0:0:0:
288,280,87828,1,0,0:0:0:0:
400,120,87971,6,0,P|432:112|496:128,1,83.9999974365235
400,40,88256,2,0,P|448:32|496:48,1,83.9999974365235
440,192,88542,1,0,0:0:0:0:
440,272,88685,1,0,0:0:0:0:
440,288,88757,1,0,0:0:0:0:
440,304,88828,1,0,0:0:0:0:
336,256,88971,1,0,0:0:0:0:
264,184,89114,6,0,P|304:168|344:120,1,83.9999974365235
256,104,89399,2,0,P|263:63|252:23,1,83.9999974365235
184,64,89685,2,0,P|136:48|88:56,1,83.9999974365235
32,96,89971,5,0,0:0:0:0:
32,96,90114,2,0,B|72:136|16:192|48:272,1,167.999994873047
112,208,90542,1,0,0:0:0:0:
184,256,90685,1,0,0:0:0:0:
112,296,90828,1,0,0:0:0:0:
256,208,90971,1,0,0:0:0:0:
184,344,91114,1,0,0:0:0:0:
184,168,91256,6,0,B|216:112|144:56|192:-8,1,167.999994873047
272,24,91685,1,0,0:0:0:0:
432,48,91828,1,0,0:0:0:0:
312,112,91971,1,0,0:0:0:0:
400,160,92114,1,0,0:0:0:0:
400,160,92399,6,0,P|384:240|416:336,1,167.999994873047
416,336,92757,1,0,0:0:0:0:
424,352,92828,2,0,P|384:344|312:352,1,83.9999974365235
248,384,93114,2,0,P|240:336|272:280,1,83.9999974365235
340,345,93399,5,0,0:0:0:0:
160,312,93542,2,0,P|144:272|159:195,1,83.9999974365235
320,240,93828,2,0,P|328:200|304:128,1,83.9999974365235
48,192,94114,2,0,P|96:160|152:152,1,83.9999974365235
408,96,94400,2,0,P|376:80|312:80,1,83.9999974365235
135,13,94685,6,0,P|167:77|111:157,1,167.999994873047
88,80,95042,1,0,0:0:0:0:
88,80,95114,2,0,P|136:79|184:96,1,83.9999974365235
104,224,95399,1,0,0:0:0:0:
276,36,95542,2,0,P|254:71|260:117,1,83.9999974365235
389,172,95828,6,0,P|309:176|258:81,1,167.999994873047
340,108,96185,1,0,0:0:0:0:
340,108,96256,1,0,0:0:0:0:
436,236,96399,1,0,0:0:0:0:
320,264,96542,1,0,0:0:0:0:
456,64,96685,1,0,0:0:0:0:
303,5,96971,6,0,P|383:53|487:61,1,167.999994873047
480,64,97329,1,0,0:0:0:0:
504,64,97400,2,0,L|464:152,1,83.9999974365235
320,264,97686,2,0,L|376:160,1,83.9999974365235
464,240,97971,5,0,0:0:0:0:
320,88,98114,2,0,P|272:96|208:80,1,83.9999974365235
320,264,98400,2,0,P|278:257|237:265,1,83.9999974365235
144,104,98686,2,0,P|160:64|160:8,1,83.9999974365235
152,264,98971,2,0,P|168:304|168:360,1,83.9999974365235
56,184,99257,6,0,B|104:152|152:200|192:200|256:168,1,167.999994873047
240,184,99614,1,0,0:0:0:0:
264,184,99686,2,0,P|313:184|368:144,1,83.9999974365235
288,112,99971,1,0,0:0:0:0:
320,264,100114,2,0,L|416:264,1,83.9999974365235
512,224,100400,6,0,P|429:202|421:298,1,167.999994873047
408,280,100757,1,0,0:0:0:0:
416,296,100828,1,0,0:0:0:0:
328,200,100971,1,0,0:0:0:0:
232,304,101114,5,0,0:0:0:0:
224,152,101257,1,0,0:0:0:0:
128,256,101399,5,0,0:0:0:0:
120,104,101542,1,0,0:0:0:0:
24,208,101685,5,0,0:0:0:0:
40,192,102256,1,0,0:0:0:0:
56,176,102828,2,0,P|120:168|176:192,1,105.000004005432
248,224,103256,2,0,P|240:176|256:112,1,105.000004005432
264,40,103685,5,0,0:0:0:0:
264,40,103828,2,0,P|320:24|400:48,1,140
328,168,104256,2,0,P|320:120|336:80,1,70
400,128,104542,1,0,0:0:0:0:
240,144,104685,1,0,0:0:0:0:
240,144,104828,2,0,P|248:184|240:216,1,70
288,288,105113,2,0,P|328:296|358:288,1,70
184,280,105399,2,0,P|149:277|115:285,1,70
128,92,105685,1,0,0:0:0:0:
128,185,105828,1,0,0:0:0:0:
224,48,105971,1,0,0:0:0:0:
225,216,106114,1,0,0:0:0:0:
292,136,106256,6,0,P|331:139|362:136,1,70
376,256,106542,2,0,P|424:224|432:184,1,70
464,8,106827,2,0,P|438:48|450:112,1,105
448,112,107113,1,0,0:0:0:0:
512,64,107256,2,0,P|432:48|352:72,1,140
240,48,107685,2,0,L|216:120,1,70
337,203,107971,2,0,L|360:120,1,70
168,184,108256,5,0,0:0:0:0:
168,184,108399,2,0,P|240:224|264:304,1,140
296,360,108828,2,0,L|304:268,1,70
184,336,109114,1,0,0:0:0:0:
392,320,109256,1,0,0:0:0:0:
392,320,109399,2,0,L|400:232,1,70
312,184,109684,1,0,0:0:0:0:
464,184,109827,1,0,0:0:0:0:
464,184,109970,2,0,P|408:176|352:184,1,105
312,184,110256,2,0,P|272:176|216:184,1,70
168,208,110541,5,0,0:0:0:0:
168,208,110756,2,0,B|200:160|144:96|200:48,1,140
256,112,111113,2,0,P|296:112|336:128,1,70
96,168,111399,1,0,0:0:0:0:
96,168,111614,2,0,P|56:200|36:240,1,70
176,328,111827,2,0,P|155:267|93:238,1,105
240,176,112256,2,0,P|192:168|144:176,1,70
144,80,112542,2,0,P|184:56|236:48,1,70
320,120,112827,5,0,0:0:0:0:
320,120,112970,2,0,P|368:160|464:128,1,140
320,120,113399,2,0,L|289:183,1,70
224,120,113685,1,0,0:0:0:0:
392,192,113828,1,0,0:0:0:0:
392,192,113971,2,0,L|360:256,1,70
200,248,114256,2,0,L|286:248,1,70
512,312,114542,2,0,L|432:312,1,70
144,304,114828,1,0,0:0:0:0:
149,189,114971,1,0,0:0:0:0:
240,344,115114,1,0,0:0:0:0:
248,144,115256,1,0,0:0:0:0:
200,248,115399,6,0,P|256:256|296:248,1,70
352,224,115685,2,0,L|360:320,1,70
288,328,115970,1,0,0:0:0:0:
432,320,116113,1,0,0:0:0:0:
352,208,116256,2,0,L|360:312,1,83.9999974365235
272,336,116541,1,0,0:0:0:0:
448,328,116684,1,0,0:0:0:0:
352,192,116828,2,0,L|360:312,1,97.9999970092774
472,208,117113,2,0,L|464:96,1,97.9999970092774
320,72,117399,5,0,0:0:0:0:
320,72,117542,2,0,P|248:56|160:72,1,140
240,205,117971,2,0,P|247:170|243:131,1,70
152,144,118256,1,0,0:0:0:0:
152,240,118399,1,0,0:0:0:0:
240,205,118541,1,0,0:0:0:0:
336,168,118685,2,0,B|352:128|360:96|360:96|368:128|400:184,1,140
480,192,119113,2,0,P|488:160|480:112,1,70
400,248,119399,2,0,P|392:288|408:336,1,70
384,155,119684,5,0,0:0:0:0:
384,155,119828,2,0,P|312:144|240:155,1,140
104,200,120256,2,0,L|184:216,1,70
336,232,120541,5,0,0:0:0:0:
336,232,120685,2,0,L|240:248,1,70
104,128,120971,5,0,0:0:0:0:
104,128,121114,2,0,L|197:143,1,70
328,312,121399,5,0,0:0:0:0:
328,312,121542,2,0,L|235:327,1,70
104,48,121828,5,0,0:0:0:0:
104,48,121971,2,0,L|197:63,2,70
258,323,123399,5,0,0:0:0:0:
352,144,124685,5,0,0:0:0:0:
352,144,124828,2,0,L|472:136,1,105.000004005432
360,64,125256,2,0,L|488:56,1,105.000004005432
280,96,125685,1,0,0:0:0:0:
280,96,125971,2,0,B|280:136|280:136|288:160|288:160|280:184|280:184|288:208|288:208|280:232|280:232|280:256,1,157.500006008148
240,320,126542,2,0,P|200:328|168:320,1,52.5000020027161
40,256,126828,6,0,P|104:272|152:256,1,105.000004005432
91,177,127256,2,0,P|104:232|143:263,1,105.000004005432
168,136,127685,1,0,0:0:0:0:
168,136,127828,2,0,P|128:96|72:104,1,105.000004005432
216,48,128256,2,0,L|272:24,1,52.5000020027161
352,40,128542,2,0,L|352:104,1,52.5000020027161
280,104,128828,2,0,L|278:172,1,52.5000020027161
344,280,129113,6,0,P|392:296|448:288,1,105.000004005432
278,226,129542,2,0,P|264:276|272:328,1,105.000004005432
352,200,129971,2,0,L|384:112,2,78.7500030040742
232,152,130542,2,0,P|272:152|304:136,1,52.5000020027161
152,96,130828,2,0,P|132:61|102:41,1,52.5000020027161
144,192,131114,2,0,P|124:226|121:262,1,52.5000020027161
328,280,131399,6,0,P|288:256|216:264,1,105.000004005432
328,280,131828,2,0,P|344:232|328:160,1,105.000004005432
231,257,132256,1,0,0:0:0:0:
231,257,132399,2,0,P|216:312|240:368,1,105.000004005432
416,304,132828,2,0,L|400:376,1,52.5000020027161
416,184,133113,2,0,L|432:240,1,52.5000020027161
408,64,133399,2,0,L|397:125,1,52.5000020027161
306,57,133685,6,0,P|362:49|410:65,1,105.000004005432
251,115,134113,2,0,P|231:67|240:16,1,105.000004005432
328,136,134542,1,0,0:0:0:0:
328,136,134685,2,0,L|312:192,1,52.5000020027161
176,224,134971,2,0,L|248:216,1,52.5000020027161
344,360,135256,2,0,P|312:320|296:256,1,105.000004005432
456,192,135685,5,0,0:0:0:0:
456,192,135828,1,0,0:0:0:0:
456,192,135971,2,0,L|456:264,1,70
368,144,136256,2,0,L|368:232,1,70
280,104,136542,6,0,L|280:176,1,70
192,64,136828,2,0,L|192:152,1,70
40,104,137114,6,0,P|80:112|120:96,1,70
72,32,137399,1,0,0:0:0:0:
104,192,137542,1,0,0:0:0:0:
104,192,137685,2,0,P|120:232|160:264,1,70
312,200,137971,2,0,P|304:162|264:122,1,70
138,251,138256,5,0,0:0:0:0:
248,272,138399,1,0,0:0:0:0:
216,184,138542,1,0,0:0:0:0:
176,336,138685,1,0,0:0:0:0:
248,272,138828,1,0,0:0:0:0:
328,208,138971,1,0,0:0:0:0:
328,208,139042,1,0,0:0:0:0:
328,208,139114,2,0,P|368:208|408:184,1,70
400,288,139399,5,0,0:0:0:0:
400,288,139542,1,0,0:0:0:0:
400,288,139685,2,0,P|408:328|392:376,1,70
504,272,139971,2,0,P|500:237|508:203,1,70
336,80,140256,5,0,0:0:0:0:
336,80,140399,1,0,0:0:0:0:
336,80,140542,2,0,P|376:80|416:88,1,70
344,192,140828,1,0,0:0:0:0:
232,144,140971,1,0,0:0:0:0:
344,192,141113,2,0,P|376:205|408:240,1,70
248,256,141399,5,0,0:0:0:0:
232,144,141542,1,0,0:0:0:0:
248,256,141685,2,0,P|264:304|256:344,1,70
125,216,141971,1,0,0:0:0:0:
125,216,142113,2,0,P|112:144|127:79,1,140
216,40,142542,1,0,0:0:0:0:
312,40,142685,1,0,0:0:0:0:
392,96,142828,6,0,P|452:112|516:64,1,140
440,36,143256,1,0,0:0:0:0:
424,248,143399,2,0,P|444:216|448:160,1,70
311,39,143685,1,0,0:0:0:0:
301,172,143828,2,0,P|321:120|306:30,1,140
176,156,144256,1,0,0:0:0:0:
64,40,144542,5,0,0:0:0:0:
65,48,144828,1,0,0:0:0:0:
64,56,145114,2,0,L|80:152,1,83.9999974365235
256,200,145399,2,0,L|243:102,1,83.9999974365235
32,256,145685,2,0,P|80:264|120:256,1,83.9999974365235
136,256,145899,1,0,0:0:0:0:
160,248,145971,1,0,0:0:0:0:
244,116,146114,1,0,0:0:0:0:
160,248,146256,6,0,P|176:288|224:328,1,83.9999974365235
160,88,146542,1,0,0:0:0:0:
248,232,146685,2,0,P|288:280|336:288,1,83.9999974365235
80,64,146971,1,0,0:0:0:0:
336,216,147113,2,0,P|376:232|432:232,1,83.9999974365235
440,232,147328,5,0,0:0:0:0:
464,224,147399,2,0,L|435:302,1,83.9999974365235
336,216,147685,2,0,L|281:151,1,83.9999974365235
400,120,147971,2,0,L|482:105,1,83.9999974365235
435,302,148257,1,0,0:0:0:0:
435,302,148400,2,0,B|384:320|384:320|336:296|232:304,1,167.999994873047
256,304,148756,5,0,0:0:0:0:
240,304,148828,1,0,0:0:0:0:
200,168,148971,1,0,0:0:0:0:
304,80,149114,1,0,0:0:0:0:
264,224,149257,1,0,0:0:0:0:
280,8,149399,1,0,0:0:0:0:
328,152,149542,1,0,0:0:0:0:
159,102,149686,6,0,P|196:136|194:183,1,83.9999974365235
48,240,149972,2,0,P|72:200|104:184,1,83.9999974365235
184,328,150257,1,0,0:0:0:0:
104,183,150400,1,0,0:0:0:0:
112,199,150472,1,0,0:0:0:0:
120,215,150543,1,0,0:0:0:0:
400,296,150686,1,0,0:0:0:0:
264,144,150828,6,0,P|314:141|352:160,1,83.9999974365235
291,311,151114,2,0,P|279:265|291:231,1,83.9999974365235
400,296,151399,1,0,0:0:0:0:
344,154,151542,1,0,0:0:0:0:
352,170,151614,1,0,0:0:0:0:
360,186,151685,1,0,0:0:0:0:
184,112,151828,1,0,0:0:0:0:
343,71,151972,6,0,P|349:116|343:155,1,83.9999974365235
144,184,152256,1,0,0:0:0:0:
208,32,152400,2,0,P|251:60|267:91,1,83.9999974365235
152,256,152686,1,0,0:0:0:0:
160,328,152828,1,0,0:0:0:0:
104,111,152972,2,0,P|154:100|200:127,1,83.9999974365235
413,290,153256,5,0,0:0:0:0:
413,290,153399,2,0,P|368:296|329:290,1,83.9999974365235
336,176,153686,1,0,0:0:0:0:
216,272,153829,1,0,0:0:0:0:
248,128,153972,1,0,0:0:0:0:
272,112,154043,1,0,0:0:0:0:
304,104,154114,1,0,0:0:0:0:
336,96,154186,1,0,0:0:0:0:
362,98,154257,6,0,P|346:122|338:194,1,83.9999974365235
216,272,154543,2,0,P|184:240|144:232,1,83.9999974365235
128,232,154756,1,0,0:0:0:0:
112,240,154828,1,0,0:0:0:0:
152,336,154972,1,0,0:0:0:0:
288,224,155114,1,0,0:0:0:0:
248,128,155256,1,0,0:0:0:0:
152,336,155400,6,0,P|216:360|264:352,1,83.9999974365235
288,224,155686,1,0,0:0:0:0:
248,128,155828,1,0,0:0:0:0:
147,231,155971,2,0,P|155:191|144:144,1,83.9999974365235
365,149,156256,2,0,P|357:190|365:231,1,83.9999974365235
440,192,156472,5,0,0:0:0:0:
440,192,156543,2,0,P|472:240|512:256,1,83.9999974365235
440,112,156829,2,0,B|432:72|432:72|432:24,1,83.9999974365235
288,152,157114,2,0,B|248:136|248:136|220:95,1,83.9999974365235
256,280,157399,1,0,0:0:0:0:
256,280,157542,2,0,B|208:280|184:304|184:304|144:272|88:288,1,167.999994873047
80,288,157900,5,0,0:0:0:0:
64,296,157972,1,0,0:0:0:0:
88,168,158115,1,0,0:0:0:0:
216,272,158256,1,0,0:0:0:0:
194,143,158399,1,0,0:0:0:0:
376,200,158542,1,0,0:0:0:0:
292,99,158685,1,0,0:0:0:0:
200,0,158829,6,0,P|232:-8|296:8,1,83.9999974365235
194,143,159114,1,0,0:0:0:0:
194,143,159256,2,0,P|144:128|120:88,1,83.9999974365235
292,99,159543,1,0,0:0:0:0:
320,104,159615,1,0,0:0:0:0:
344,112,159686,1,0,0:0:0:0:
288,232,159829,1,0,0:0:0:0:
219,276,159972,6,0,P|259:260|299:212,1,83.9999974365235
293,108,160256,2,0,P|253:124|213:172,1,83.9999974365235
408,248,160542,2,0,P|414:205|392:146,1,83.9999974365235
104,136,160828,5,0,0:0:0:0:
104,136,160971,2,0,B|80:192|96:248|96:248|128:224|176:240,1,167.999994873047
315,239,161399,1,0,0:0:0:0:
232,288,161542,1,0,0:0:0:0:
232,191,161685,1,0,0:0:0:0:
440,238,161828,1,0,0:0:0:0:
378,129,161971,1,0,0:0:0:0:
315,239,162114,6,0,P|328:304|416:344,1,167.999994873047
440,238,162543,1,0,0:0:0:0:
280,96,162686,1,0,0:0:0:0:
496,80,162829,1,0,0:0:0:0:
360,184,162972,1,0,0:0:0:0:
72,232,163256,5,0,0:0:0:0:
72,232,163399,2,0,L|56:336,1,77.0000023498536
232,256,163685,2,0,L|220:172,1,77.0000023498536
60,308,163971,2,0,L|44:396,1,77.0000023498536
221,179,164256,1,0,0:0:0:0:
221,179,164399,2,0,P|264:112|184:96,1,154.000004699707
144,179,164828,6,0,L|232:179,1,77.0000023498536
296,216,165114,2,0,L|384:216,1,77.0000023498536
432,160,165399,2,0,L|544:160,1,77.0000023498536
296,120,165685,6,0,L|384:96,1,77.0000023498536
504,296,165971,2,0,L|416:272,1,77.0000023498536
370,99,166256,2,0,L|456:72,1,77.0000023498536
429,275,166542,1,0,0:0:0:0:
429,275,166685,2,0,P|350:272|362:203,1,154.000004699707
428,200,167114,6,0,P|440:240|424:287,1,77.0000023498536
304,352,167399,1,0,0:0:0:0:
184,280,167542,1,0,0:0:0:0:
208,272,167614,1,0,0:0:0:0:
232,264,167685,1,0,0:0:0:0:
351,211,167828,5,0,0:0:0:0:
351,211,167971,2,0,P|360:256|344:296,1,77.0000023498536
161,173,168256,2,0,P|152:128|168:88,1,77.0000023498536
232,296,168542,2,0,P|193:319|154:332,1,77.0000023498536
280,88,168828,1,0,0:0:0:0:
280,88,168971,2,0,P|318:64|357:51,1,77.0000023498536
360,152,169256,2,0,P|398:128|448:120,1,83.9999974365235
440,216,169542,2,0,P|488:200|536:200,1,97.9999970092774
320,264,169828,5,0,0:0:0:0:
320,264,169971,2,0,L|288:336,1,77.0000023498536
112,200,170256,1,0,0:0:0:0:
232,232,170399,1,0,0:0:0:0:
96,216,170542,1,0,0:0:0:0:
248,216,170685,1,0,0:0:0:0:
80,232,170828,1,0,0:0:0:0:
264,200,170971,1,0,0:0:0:0:
128,128,171114,1,0,0:0:0:0:
168,320,171256,6,0,B|224:304|248:336|248:336|288:312|336:336,1,154.000004699707
344,328,171614,1,0,0:0:0:0:
382,335,171685,2,0,L|366:223,1,77.0000023498536
280,240,171971,1,0,0:0:0:0:
464,256,172114,1,0,0:0:0:0:
362,182,172256,2,0,L|373:275,1,77.0000023498536
352,96,172542,6,0,L|365:199,1,90.9999958343508
232,128,172828,2,0,L|144:88,1,90.9999958343508
338,5,173114,2,0,L|354:113,1,90.9999958343508
232,241,173399,1,0,0:0:0:0:
232,241,173542,2,0,P|175:200|231:127,1,181.999991668702
322,240,173971,6,0,L|231:241,1,90.9999958343508
231,240,174256,2,0,L|111:240,1,90.9999958343508
140,240,174542,2,0,L|17:239,1,90.9999958343508
189,120,174828,6,0,L|292:107,1,90.9999958343508
237,240,175114,2,0,L|197:328,1,90.9999958343508
98,134,175400,2,0,L|206:118,1,90.9999958343508
237,375,175685,1,0,0:0:0:0:
237,375,175828,2,0,P|189:327|237:239,1,181.999991668702
320,272,176256,6,0,P|312:227|320:182,1,90.9999958343508
400,224,176542,1,0,0:0:0:0:
464,328,176685,1,0,0:0:0:0:
440,320,176756,1,0,0:0:0:0:
416,312,176828,1,0,0:0:0:0:
480,184,176971,1,0,0:0:0:0:
319,92,177114,6,0,P|325:136|313:200,1,90.9999958343508
149,48,177399,2,0,P|205:48|269:72,1,90.9999958343508
389,72,177685,6,0,P|397:120|391:180,1,90.9999958343508
133,128,177971,2,0,P|181:120|245:144,1,90.9999958343508
461,48,178256,6,0,P|469:88|471:156,1,90.9999958343508
125,212,178542,2,0,P|165:196|229:220,1,90.9999958343508
181,360,178828,6,0,P|173:320|171:252,1,90.9999958343508
397,104,179114,2,0,P|357:120|293:96,1,90.9999958343508
261,40,179399,2,0,B|309:88|325:184|237:152|237:336|397:328|413:176|317:200,1,367.500014019013
302,206,183971,6,0,L|288:320,2,105.000004005432
440,160,184828,1,0,0:0:0:0:
440,160,184971,1,0,0:0:0:0:
440,160,185114,2,0,L|456:40,2,105.000004005432
408,288,185971,5,0,0:0:0:0:
303,206,186256,2,0,P|246:196|200:208,2,105.000004005432
408,288,187114,1,0,0:0:0:0:
201,207,187399,2,0,P|192:160|209:103,2,105.000004005432
280,328,188256,5,0,0:0:0:0:
303,206,188542,2,0,L|415:166,2,105.000004005432
208,96,189399,1,0,0:0:0:0:
208,96,189542,1,0,0:0:0:0:
208,96,189685,2,0,L|104:56,2,105.000004005432
160,224,190542,5,0,0:0:0:0:
160,224,190685,1,0,0:0:0:0:
160,224,190828,1,0,0:0:0:0:
360,288,191399,1,0,0:0:0:0:
312,96,191971,1,0,0:0:0:0:
336,192,192256,5,0,0:0:0:0:
360,288,192542,2,0,L|488:296,2,105.000004005432
272,208,194542,5,0,0:0:0:0:
360,288,194828,2,0,L|472:296,2,90.9999958343508
200,256,196685,5,0,0:0:0:0:
200,256,196828,2,0,B|216:248|216:248|224:264|224:264|248:256|248:256|272:264|272:264|304:256,1,105.000004005432
360,288,197114,2,0,L|440:296,2,77.0000023498536
360,288,201685,5,0,0:0:0:0:
352,296,201971,1,0,0:0:0:0:
344,304,202256,2,0,P|360:248|392:200,1,105.000004005432
168,304,202828,2,0,P|152:248|120:200,1,105.000004005432
40,304,203256,5,0,0:0:0:0:
40,304,203328,1,0,0:0:0:0:
40,304,203399,1,0,0:0:0:0:
416,96,203685,1,0,0:0:0:0:
80,56,204399,5,0,0:0:0:0:
88,64,204471,1,0,0:0:0:0:
88,64,204542,1,0,0:0:0:0:
128,192,204685,1,0,0:0:0:0:
280,104,204828,2,0,P|256:144|192:168,1,83.9999974365235
408,208,205114,2,0,P|360:224|280:208,1,97.9999970092774
504,312,205400,1,0,0:0:0:0:
504,312,205543,2,0,B|416:312|408:384|256:304,1,224
272,312,205899,5,0,0:0:0:0:
256,304,205971,1,0,0:0:0:0:
184,168,206113,1,0,0:0:0:0:
336,224,206256,1,0,0:0:0:0:
159,249,206399,1,0,0:0:0:0:
280,136,206542,1,0,0:0:0:0:
245,335,206685,1,0,0:0:0:0:
131,104,206829,6,0,P|168:138|186:173,1,83.9999974365235
332,72,207114,2,0,P|295:106|277:141,1,83.9999974365235
392,152,207400,1,0,0:0:0:0:
224,48,207543,1,0,0:0:0:0:
224,48,207615,1,0,0:0:0:0:
224,48,207686,1,0,0:0:0:0:
96,192,207829,1,0,0:0:0:0:
264,320,207971,6,0,P|301:286|319:251,1,83.9999974365235
465,352,208256,2,0,P|428:318|410:283,1,83.9999974365235
508,269,208542,1,0,0:0:0:0:
352,360,208685,1,0,0:0:0:0:
352,360,208756,1,0,0:0:0:0:
352,360,208828,1,0,0:0:0:0:
261,203,208971,1,0,0:0:0:0:
418,113,209115,6,0,P|424:160|408:216,1,83.9999974365235
176,224,209399,1,0,0:0:0:0:
496,72,209542,2,0,P|504:120|496:200,1,97.9999970092774
176,224,209829,1,0,0:0:0:0:
344,184,209971,1,0,0:0:0:0:
16,280,210114,2,0,P|8:232|32:136,1,112
208,56,210399,5,0,0:0:0:0:
208,56,210542,2,0,P|264:64|320:64,1,83.9999974365235
504,72,210829,1,0,0:0:0:0:
312,144,210972,1,0,0:0:0:0:
400,32,211115,1,0,0:0:0:0:
400,56,211186,1,0,0:0:0:0:
400,80,211257,1,0,0:0:0:0:
400,104,211329,1,0,0:0:0:0:
400,128,211400,6,0,P|400:176|416:232,1,83.9999974365235
312,144,211685,2,0,P|270:120|208:112,1,83.9999974365235
304,248,211971,1,0,0:0:0:0:
407,210,212115,1,0,0:0:0:0:
432,200,212185,1,0,0:0:0:0:
464,192,212257,1,0,0:0:0:0:
312,144,212399,1,0,0:0:0:0:
408,304,212543,6,0,P|472:328|520:320,1,83.9999974365235
200,288,212828,1,0,0:0:0:0:
408,304,212971,1,0,0:0:0:0:
344,184,213114,1,0,0:0:0:0:
256,384,213257,1,0,0:0:0:0:
112,216,213399,1,0,0:0:0:0:
200,16,213542,5,0,0:0:0:0:
200,16,213615,1,0,0:0:0:0:
200,16,213686,2,0,P|200:64|240:120,1,83.9999974365235
344,184,213972,2,0,B|384:192|384:192|368:144,1,83.9999974365235
328,40,214257,2,0,B|272:40|272:40|296:88,1,97.9999970092774
408,296,214542,1,0,0:0:0:0:
408,296,214685,2,0,B|408:360|408:360|464:296|464:200,1,224
464,200,215043,5,0,0:0:0:0:
464,184,215115,1,0,0:0:0:0:
336,232,215256,1,0,0:0:0:0:
224,160,215399,1,0,0:0:0:0:
96,208,215542,1,0,0:0:0:0:
112,96,215685,1,0,0:0:0:0:
216,264,215828,1,0,0:0:0:0:
344,128,215972,6,0,P|376:120|440:136,1,83.9999974365235
336,232,216256,1,0,0:0:0:0:
438,60,216399,2,0,P|477:67|414:112,1,167.999994873047
288,96,216829,1,0,0:0:0:0:
384,0,216972,1,0,0:0:0:0:
296,384,217114,6,0,P|328:360|364:300,1,83.9999974365235
145,197,217399,2,0,P|113:221|77:281,1,83.9999974365235
424,272,217685,2,0,P|472:272|520:256,1,83.9999974365235
88,112,217971,1,0,0:0:0:0:
88,112,218114,2,0,P|40:112|-8:128,1,83.9999974365235
232,56,218399,5,0,0:0:0:0:
232,56,218542,2,0,L|328:32,1,83.9999974365235
480,88,218828,2,0,L|384:112,1,83.9999974365235
328,195,219114,1,0,0:0:0:0:
328,195,219256,2,0,B|280:147|360:99|304:19,1,167.999994873047
232,56,219685,6,0,L|120:56,1,83.9999974365235
56,144,219971,1,0,0:0:0:0:
192,168,220114,1,0,0:0:0:0:
104,256,220256,1,0,0:0:0:0:
192,168,220399,1,0,0:0:0:0:
240,296,220542,6,0,P|288:304|336:296,1,83.9999974365235
481,296,220828,2,0,P|440:287|400:296,1,83.9999974365235
368,368,221113,1,0,0:0:0:0:
360,224,221256,1,0,0:0:0:0:
360,208,221328,1,0,0:0:0:0:
360,192,221399,1,0,0:0:0:0:
256,200,221542,1,0,0:0:0:0:
464,208,221685,6,0,P|496:184|512:128,1,83.9999974365235
368,112,221971,2,0,P|375:71|364:31,1,83.9999974365235
256,48,222256,2,0,P|216:32|168:40,1,83.9999974365235
88,120,222542,5,0,0:0:0:0:
88,120,222685,2,0,P|48:184|128:176,1,167.999994873047
192,168,223113,1,0,0:0:0:0:
272,136,223256,1,0,0:0:0:0:
224,248,223399,1,0,0:0:0:0:
160,88,223542,1,0,0:0:0:0:
216,272,223685,1,0,0:0:0:0:
176,64,223828,6,0,P|264:40|280:96,1,167.999994873047
280,258,224256,1,0,0:0:0:0:
184,126,224399,1,0,0:0:0:0:
339,176,224542,1,0,0:0:0:0:
184,226,224685,1,0,0:0:0:0:
184,226,224970,6,0,P|224:280|152:320,1,167.999994873047
136,312,225328,1,0,0:0:0:0:
120,304,225399,2,0,P|104:256|128:216,1,83.9999974365235
136,72,225685,2,0,P|148:111|132:148,1,83.9999974365235
32,168,225970,1,0,0:0:0:0:
224,200,226114,6,0,L|324:189,1,83.9999974365235
496,144,226399,2,0,L|384:128,1,83.9999974365235
408,312,226685,2,0,L|397:212,1,83.9999974365235
328,16,226971,2,0,L|312:128,1,83.9999974365235
304,192,227256,6,0,P|312:120|248:40,1,167.999994873047
240,40,227614,1,0,0:0:0:0:
226,37,227685,2,0,P|184:31|144:40,1,83.9999974365235
32,128,227971,1,0,0:0:0:0:
168,168,228114,1,0,0:0:0:0:
168,168,228185,1,0,0:0:0:0:
168,168,228256,1,0,0:0:0:0:
56,241,228399,6,0,B|56:336|56:336|80:304|112:288,1,167.999994873047
144,280,228756,1,0,0:0:0:0:
176,280,228827,1,0,0:0:0:0:
328,328,228970,1,0,0:0:0:0:
288,176,229114,1,0,0:0:0:0:
232,352,229257,1,0,0:0:0:0:
384,224,229399,1,0,0:0:0:0:
184,160,229542,6,0,P|168:80|224:8,1,167.999994873047
248,8,229900,1,0,0:0:0:0:
280,16,229971,2,0,L|240:104,1,83.9999974365235
440,160,230257,2,0,L|496:56,1,83.9999974365235
312,216,230542,5,0,0:0:0:0:
312,216,230685,2,0,P|264:224|200:208,1,83.9999974365235
48,216,230971,2,0,P|89:208|130:215,1,83.9999974365235
184,368,231256,2,0,P|176:320|192:256,1,83.9999974365235
184,64,231542,2,0,P|191:105|184:146,1,83.9999974365235
184,368,231828,6,0,B|232:336|280:384|320:384|384:352,1,167.999994873047
368,364,232185,1,0,0:0:0:0:
392,364,232257,2,0,P|441:364|496:324,1,83.9999974365235
336,232,232542,1,0,0:0:0:0:
424,280,232685,2,0,L|440:184,1,83.9999974365235
480,72,232971,6,0,B|416:104|384:32|312:64,1,167.999994873047
304,72,233328,1,0,0:0:0:0:
288,88,233399,1,0,0:0:0:0:
200,200,233542,1,0,0:0:0:0:
160,80,233685,1,0,0:0:0:0:
328,184,233828,1,0,0:0:0:0:
328,184,234114,6,0,B|352:240|324:280|272:312|356:368,1,167.999994873047
340,344,234471,1,0,0:0:0:0:
352,344,234543,2,0,P|394:342|436:351,1,83.9999974365235
168,344,234828,2,0,P|126:345|84:337,1,83.9999974365235
159,124,235114,5,0,0:0:0:0:
159,124,235257,2,0,L|159:207,1,83.9999974365235
172,108,235542,2,0,L|152:224,1,90.9999958343508
205,84,235828,2,0,L|144:200,1,97.9999970092774
286,77,236114,2,0,L|159:132,1,112
396,96,236400,6,0,B|424:48|424:48|476:76|464:168,1,167.999994873047
468,160,236757,1,0,0:0:0:0:
468,176,236829,2,0,L|484:280,1,83.9999974365235
392,360,237114,1,0,0:0:0:0:
288,272,237257,2,0,L|272:360,1,83.9999974365235
288,272,237543,6,0,B|240:272|208:288|208:288|184:264|104:272,1,167.999994873047
104,264,237900,1,0,0:0:0:0:
88,264,237971,1,0,0:0:0:0:
240,176,238114,1,0,0:0:0:0:
64,168,238257,1,0,0:0:0:0:
208,272,238400,1,0,0:0:0:0:
208,272,238686,6,0,P|304:264|384:320,1,167.999994873047
384,312,239042,1,0,0:0:0:0:
404,328,239115,2,0,L|438:251,1,83.9999974365235
439,78,239399,2,0,L|400:152,1,83.9999974365235
320,240,239686,5,0,0:0:0:0:
320,240,239829,2,0,P|272:248|208:232,1,83.9999974365235
299,258,240114,2,0,P|254:252|215:229,1,90.9999958343508
260,271,240399,2,0,P|220:234|198:185,1,97.9999970092774
189,235,240685,2,0,P|201:177|255:127,1,112
432,88,240972,6,0,B|480:172|440:288,1,167.999994873047
440,276,241329,1,0,0:0:0:0:
432,300,241399,2,0,P|481:300|536:260,1,83.9999974365235
368,192,241686,1,0,0:0:0:0:
304,336,241829,2,0,P|344:360|400:352,1,83.9999974365235
256,208,242115,6,0,P|272:296|224:376,1,167.999994873047
216,360,242472,1,0,0:0:0:0:
200,352,242543,1,0,0:0:0:0:
168,224,242686,1,0,0:0:0:0:
344,192,242829,1,0,0:0:0:0:
80,240,242972,1,0,0:0:0:0:
344,192,243256,6,0,P|360:100|424:40,1,167.999994873047
428,36,243614,1,0,0:0:0:0:
448,28,243685,2,0,P|456:76|480:116,1,83.9999974365235
416,200,243971,1,0,0:0:0:0:
264,96,244114,2,0,P|312:112|376:104,1,83.9999974365235
177,33,244399,6,0,P|176:144|152:208,1,167.999994873047
144,216,244756,1,0,0:0:0:0:
128,232,244828,2,0,L|16:232,1,83.9999974365235
72,120,245114,1,0,0:0:0:0:
264,224,245256,1,0,0:0:0:0:
264,224,245542,6,0,B|296:216|296:216|328:224|328:224|352:216|352:216|383:224|383:224|408:216|408:216|440:224,1,167.999994873047
440,240,245899,1,0,0:0:0:0:
448,256,245971,1,0,0:0:0:0:
344,320,246114,1,0,0:0:0:0:
464,360,246256,1,0,0:0:0:0:
320,200,246399,1,0,0:0:0:0:
256,368,246542,5,0,0:0:0:0:
256,368,246614,1,0,0:0:0:0:
256,368,246685,2,0,B|176:324|176:324|100:328,1,167.999994873047
32,240,247114,1,0,0:0:0:0:
144,216,247256,1,0,0:0:0:0:
73,87,247399,1,0,0:0:0:0:
184,136,247541,1,0,0:0:0:0:
272,88,247685,5,0,0:0:0:0:
272,88,247828,2,0,P|360:72|456:104,1,167.999994873047
432,272,248256,1,0,0:0:0:0:
360,176,248399,1,0,0:0:0:0:
432,272,248542,2,0,L|336:272,1,83.9999974365235
232,224,248828,1,0,0:0:0:0:
248,344,248971,6,0,P|192:384|96:344,1,167.999994873047
136,208,249399,1,0,0:0:0:0:
176,304,249542,1,0,0:0:0:0:
56,280,249685,1,0,0:0:0:0:
48,264,249756,1,0,0:0:0:0:
40,248,249828,1,0,0:0:0:0:
32,232,249899,1,0,0:0:0:0:
24,216,249971,1,0,0:0:0:0:
152,128,250114,6,0,B|208:104|247:135|288:176|328:136,1,167.999994873047
393,97,250542,2,0,L|424:176,1,83.9999974365235
432,204,250756,1,0,0:0:0:0:
416,228,250828,1,0,0:0:0:0:
384,240,250899,1,0,0:0:0:0:
356,240,250971,1,0,0:0:0:0:
324,236,251042,1,0,0:0:0:0:
296,224,251114,1,0,0:0:0:0:
256,95,251256,6,0,P|305:124|296:223,1,167.999994873047
232,168,251685,1,0,0:0:0:0:
168,24,251828,1,0,0:0:0:0:
232,168,251971,1,0,0:0:0:0:
248,12,252114,1,0,0:0:0:0:
320,32,252256,5,0,0:0:0:0:
320,32,252399,2,0,B|352:56|400:72|400:72|400:128|424:168|424:168|392:216|392:256|392:256,1,262.500010013581
240,304,253558,2,0,P|168:280|80:304,1,157.500006008148
40,128,254275,2,0,P|54:178|46:230,1,105.000004005432
184,8,254706,6,0,P|152:48|104:72,1,105.000004005432
240,104,255138,2,0,L|304:104,2,52.5000020027161
304,352,255859,2,0,P|328:312|384:280,1,105.000004005432
248,256,256293,2,0,L|195:256,2,52.5000020027161
80,272,256873,5,0,0:0:0:0:
80,272,257018,2,0,P|128:304|160:360,1,105.000004005432
195,255,257434,2,0,P|204:203|228:157,1,105.000004005432
416,144,257990,5,0,0:0:0:0:
416,144,258129,2,0,P|368:112|344:64,1,105.000004005432
204,32,258570,2,0,L|152:32,2,52.5000020027161
304,248,259158,5,0,0:0:0:0:
304,248,259305,2,0,L|428:248,1,105.000004005432
224,304,259733,2,0,L|200:248,1,52.5000020027161
96,248,260019,2,0,L|120:192,1,52.5000020027161
216,160,260304,1,0,0:0:0:0:
280,216,260447,1,0,0:0:0:0:
