osu file format v14

[General]
AudioFilename: audio.mp3
AudioLeadIn: 0
PreviewTime: 55121
Countdown: 0
SampleSet: Soft
StackLeniency: 0.3
Mode: 0
LetterboxInBreaks: 0
WidescreenStoryboard: 1

[Editor]
DistanceSpacing: 1.6
BeatDivisor: 4
GridSize: 16
TimelineZoom: 2.1

[Metadata]
Title:Weight Of The World
TitleUnicode:Weight Of The World
Artist:Self Deception
ArtistUnicode:Self Deception
Creator:Smoke
Version:Hard
Source:
Tags:melodic kaneki english rock
BeatmapID:2472142
BeatmapSetID:1186066

[Difficulty]
HPDrainRate:4.8
CircleSize:3.6
OverallDifficulty:6.8
ApproachRate:8
SliderMultiplier:2.6
SliderTickRate:1

[Events]
//Background and Video events
0,0,"tokyo ghoul thing.jpg",0,0
//Break Periods
2,169963,173585
//Storyboard Layer 0 (Background)
//Storyboard Layer 1 (Fail)
//Storyboard Layer 2 (Pass)
//Storyboard Layer 3 (Foreground)
//Storyboard Layer 4 (Overlay)
//Storyboard Sound Samples

[TimingPoints]
621,571.428571428571,4,2,1,40,1,0
621,-142.857142857143,4,2,1,40,0,0
9192,-142.857142857143,4,2,1,30,0,0
9763,-125,4,2,2,50,0,0
13121,-125,4,2,2,5,0,0
13192,-125,4,2,2,50,0,0
14549,-125,4,2,2,5,0,0
14620,-125,4,2,2,50,0,0
15406,-125,4,2,2,5,0,0
15477,-125,4,2,2,50,0,0
15692,-125,4,2,2,5,0,0
15763,-125,4,2,2,50,0,0
16835,-125,4,2,2,5,0,0
16906,-125,4,2,2,50,0,0
17692,-125,4,2,2,5,0,0
17763,-125,4,2,2,50,0,0
18906,-100,4,2,1,70,0,0
19692,-100,4,2,1,5,0,0
19763,-100,4,2,1,70,0,0
20049,-100,4,2,1,70,0,0
20549,-100,4,2,1,5,0,0
20620,-100,4,2,1,70,0,0
20835,-100,4,2,1,5,0,0
20906,-100,4,2,1,70,0,0
21978,-100,4,2,1,5,0,0
22049,-100,4,2,1,70,0,0
22263,-100,4,2,1,5,0,0
22334,-100,4,2,1,70,0,0
22835,-100,4,2,1,5,0,0
22906,-100,4,2,1,70,0,0
23049,-100,4,2,1,70,0,0
23406,-100,4,2,1,5,0,0
23478,-100,4,2,1,70,0,0
23692,-100,4,2,1,5,0,0
23763,-100,4,2,1,70,0,0
24121,-100,4,2,1,5,0,0
24192,-100,4,2,1,70,0,0
24334,-100,4,2,1,70,0,0
24549,-100,4,2,1,5,0,0
24620,-100,4,2,1,70,0,0
24835,-100,4,2,1,5,0,0
24906,-100,4,2,1,70,0,0
25406,-100,4,2,1,5,0,0
25477,-100,4,2,1,70,0,0
25692,-100,4,2,1,5,0,0
25763,-100,4,2,1,70,0,0
25978,-100,4,2,1,5,0,0
26049,-100,4,2,1,70,0,0
26549,-100,4,2,1,5,0,0
26620,-100,4,2,1,70,0,0
26835,-100,4,2,1,5,0,0
26906,-100,4,2,1,70,0,0
27121,-100,4,2,1,5,0,0
27192,-100,4,2,1,70,0,0
28049,-100,4,2,1,70,0,0
29192,-100,4,2,1,70,0,0
29692,-100,4,2,1,5,0,0
29763,-100,4,2,1,70,0,0
29978,-100,4,2,1,5,0,0
30049,-100,4,2,1,70,0,0
31121,-100,4,2,1,5,0,0
31192,-100,4,2,1,70,0,0
31406,-100,4,2,1,5,0,0
31478,-100,4,2,1,70,0,0
32049,-100,4,2,1,70,0,0
32549,-100,4,2,1,5,0,0
32621,-100,4,2,1,70,0,0
32835,-100,4,2,1,5,0,0
32906,-100,4,2,1,70,0,0
33263,-100,4,2,1,5,0,0
33334,-100,4,2,1,70,0,0
33478,-100,4,2,1,70,0,0
33692,-100,4,2,1,5,0,0
33763,-100,4,2,1,70,0,0
33978,-100,4,2,1,5,0,0
34049,-100,4,2,1,70,0,0
34549,-100,4,2,1,5,0,0
34620,-100,4,2,1,70,0,0
34835,-100,4,2,1,5,0,0
34906,-100,4,2,1,70,0,0
35121,-100,4,2,1,5,0,0
35192,-100,4,2,1,70,0,0
35692,-100,4,2,1,5,0,0
35763,-100,4,2,1,70,0,0
35978,-100,4,2,1,5,0,0
36049,-100,4,2,1,70,0,0
36264,-100,4,2,1,5,0,0
36335,-100,4,2,1,70,0,0
37192,-125,4,2,1,60,0,0
38906,-125,4,2,3,60,0,0
39406,-125,4,2,1,5,0,0
39478,-125,4,2,1,60,0,0
41192,-125,4,2,3,60,0,0
41335,-125,4,2,1,60,0,0
41478,-125,4,2,1,60,0,0
43478,-125,4,2,3,60,0,0
43621,-125,4,2,1,60,0,0
43763,-125,4,2,1,60,0,0
45192,-125,4,2,3,60,0,0
45406,-125,4,2,1,5,0,0
45478,-125,4,2,1,60,0,0
47478,-125,4,2,3,60,0,0
47763,-125,4,2,1,60,0,0
48335,-125,4,2,2,60,0,0
48549,-125,4,2,1,5,0,0
48621,-125,4,2,1,60,0,0
49763,-125,4,2,3,60,0,0
50049,-125,4,2,1,60,0,0
50621,-125,4,2,2,60,0,0
50835,-125,4,2,1,5,0,0
50907,-125,4,2,1,60,0,0
52049,-125,4,2,3,65,0,0
52335,-125,4,2,1,65,0,0
52906,-125,4,2,2,65,0,0
53192,-125,4,2,1,65,0,0
54335,-125,4,2,3,70,0,0
54621,-125,4,2,1,70,0,0
55192,-142.857142857143,4,2,1,60,0,0
55406,-142.857142857143,4,2,1,5,0,0
55478,-90.9090909090909,4,2,1,80,0,1
56835,-90.9090909090909,4,2,1,5,0,1
56906,-90.9090909090909,4,2,1,80,0,1
57263,-90.9090909090909,4,2,1,5,0,1
57334,-90.9090909090909,4,2,1,80,0,1
57692,-90.9090909090909,4,2,1,5,0,1
57763,-90.9090909090909,4,2,1,80,0,1
59549,-90.9090909090909,4,2,1,5,0,1
59620,-90.9090909090909,4,2,1,80,0,1
59978,-90.9090909090909,4,2,1,5,0,1
60049,-90.9090909090909,4,2,1,80,0,1
62263,-90.9090909090909,4,2,1,5,0,1
62334,-90.9090909090909,4,2,1,80,0,1
63406,-90.9090909090909,4,2,1,5,0,1
63477,-90.9090909090909,4,2,1,80,0,1
64621,-90.9090909090909,4,2,1,80,0,1
65978,-90.9090909090909,4,2,1,5,0,1
66049,-90.9090909090909,4,2,1,80,0,1
66406,-90.9090909090909,4,2,1,5,0,1
66477,-90.9090909090909,4,2,1,80,0,1
66835,-90.9090909090909,4,2,1,5,0,1
66906,-90.9090909090909,4,2,1,80,0,1
67978,-90.9090909090909,4,2,1,5,0,1
68049,-90.9090909090909,4,2,1,80,0,1
68692,-90.9090909090909,4,2,1,5,0,1
68763,-90.9090909090909,4,2,1,80,0,1
69121,-90.9090909090909,4,2,1,5,0,1
69192,-90.9090909090909,4,2,1,80,0,1
71406,-90.9090909090909,4,2,1,5,0,1
71477,-90.9090909090909,4,2,1,80,0,1
73192,-125,4,2,1,70,0,0
73763,-100,4,2,1,70,0,0
74549,-100,4,2,1,5,0,0
74620,-100,4,2,1,70,0,0
74906,-100,4,2,1,70,0,0
75406,-100,4,2,1,5,0,0
75477,-100,4,2,1,70,0,0
75692,-100,4,2,1,5,0,0
75763,-100,4,2,1,70,0,0
76835,-100,4,2,1,5,0,0
76906,-100,4,2,1,70,0,0
77120,-100,4,2,1,5,0,0
77191,-100,4,2,1,70,0,0
77692,-100,4,2,1,5,0,0
77763,-100,4,2,1,70,0,0
77906,-100,4,2,1,70,0,0
78263,-100,4,2,1,5,0,0
78335,-100,4,2,1,70,0,0
78549,-100,4,2,1,5,0,0
78620,-100,4,2,1,70,0,0
78978,-100,4,2,1,5,0,0
79049,-100,4,2,1,70,0,0
79191,-100,4,2,1,70,0,0
79406,-100,4,2,1,5,0,0
79477,-100,4,2,1,70,0,0
79692,-100,4,2,1,5,0,0
79763,-100,4,2,1,70,0,0
80263,-100,4,2,1,5,0,0
80334,-100,4,2,1,70,0,0
80620,-100,4,2,1,70,0,0
80835,-100,4,2,1,5,0,0
80906,-100,4,2,1,70,0,0
81121,-100,4,2,1,5,0,0
81192,-100,4,2,1,70,0,0
81549,-100,4,2,1,5,0,0
81620,-100,4,2,1,70,0,0
81763,-100,4,2,1,70,0,0
81978,-100,4,2,1,5,0,0
82049,-100,4,2,1,70,0,0
82906,-100,4,2,1,70,0,0
84049,-100,4,2,1,70,0,0
84549,-100,4,2,1,5,0,0
84620,-100,4,2,1,70,0,0
84835,-100,4,2,1,5,0,0
84906,-100,4,2,1,70,0,0
85978,-100,4,2,1,5,0,0
86049,-100,4,2,1,70,0,0
86263,-100,4,2,1,5,0,0
86335,-100,4,2,1,70,0,0
86906,-100,4,2,1,70,0,0
87406,-100,4,2,1,5,0,0
87478,-100,4,2,1,70,0,0
87692,-100,4,2,1,5,0,0
87763,-100,4,2,1,70,0,0
88120,-100,4,2,1,5,0,0
88191,-100,4,2,1,70,0,0
88335,-100,4,2,1,70,0,0
88549,-100,4,2,1,5,0,0
88620,-100,4,2,1,70,0,0
88835,-100,4,2,1,5,0,0
88906,-100,4,2,1,70,0,0
89406,-100,4,2,1,5,0,0
89477,-100,4,2,1,70,0,0
89692,-100,4,2,1,5,0,0
89763,-100,4,2,1,70,0,0
89978,-100,4,2,1,5,0,0
90049,-100,4,2,1,70,0,0
90549,-100,4,2,1,5,0,0
90620,-100,4,2,1,70,0,0
90835,-100,4,2,1,5,0,0
90906,-100,4,2,1,70,0,0
91121,-100,4,2,1,5,0,0
91192,-100,4,2,1,70,0,0
92049,-117.647058823529,4,2,1,65,0,0
100263,-117.647058823529,4,2,1,5,0,0
100335,-117.647058823529,4,2,1,65,0,0
103406,-117.647058823529,4,2,1,5,0,0
103478,-117.647058823529,4,2,1,65,0,0
105692,-117.647058823529,4,2,1,5,0,0
105764,-117.647058823529,4,2,1,65,0,0
110049,-142.857142857143,4,2,1,65,0,0
110263,-142.857142857143,4,2,1,5,0,0
110335,-90.9090909090909,4,2,1,80,0,1
111692,-90.9090909090909,4,2,1,5,0,1
111763,-90.9090909090909,4,2,1,80,0,1
112120,-90.9090909090909,4,2,1,5,0,1
112191,-90.9090909090909,4,2,1,80,0,1
112549,-90.9090909090909,4,2,1,5,0,1
112620,-90.9090909090909,4,2,1,80,0,1
114406,-90.9090909090909,4,2,1,5,0,1
114477,-90.9090909090909,4,2,1,80,0,1
114835,-90.9090909090909,4,2,1,5,0,1
114906,-90.9090909090909,4,2,1,80,0,1
117120,-90.9090909090909,4,2,1,5,0,1
117191,-90.9090909090909,4,2,1,80,0,1
118263,-90.9090909090909,4,2,1,5,0,1
118334,-90.9090909090909,4,2,1,80,0,1
119478,-90.9090909090909,4,2,1,80,0,1
120835,-90.9090909090909,4,2,1,5,0,1
120906,-90.9090909090909,4,2,1,80,0,1
121263,-90.9090909090909,4,2,1,5,0,1
121334,-90.9090909090909,4,2,1,80,0,1
121692,-90.9090909090909,4,2,1,5,0,1
121763,-90.9090909090909,4,2,1,80,0,1
122835,-90.9090909090909,4,2,1,5,0,1
122906,-90.9090909090909,4,2,1,80,0,1
123549,-90.9090909090909,4,2,1,5,0,1
123620,-90.9090909090909,4,2,1,80,0,1
123978,-90.9090909090909,4,2,1,5,0,1
124049,-90.9090909090909,4,2,1,80,0,1
126263,-90.9090909090909,4,2,1,5,0,1
126335,-90.9090909090909,4,2,1,80,0,1
128620,-142.857142857143,4,2,1,70,0,0
132620,-100,4,2,2,65,0,0
133192,-100,4,2,1,70,0,0
133406,-100,4,2,1,5,0,0
133477,-100,4,2,1,70,0,0
133835,-100,4,2,1,5,0,0
133906,-100,4,2,1,70,0,0
134048,-100,4,2,1,70,0,0
134263,-100,4,2,1,5,0,0
134334,-100,4,2,1,70,0,0
134549,-100,4,2,1,5,0,0
134620,-100,4,2,1,70,0,0
135120,-100,4,2,1,5,0,0
135191,-100,4,2,1,70,0,0
135477,-100,4,2,1,70,0,0
135692,-100,4,2,1,5,0,0
135763,-100,4,2,1,70,0,0
135978,-100,4,2,1,5,0,0
136049,-100,4,2,1,70,0,0
136406,-100,4,2,1,5,0,0
136477,-100,4,2,1,70,0,0
136620,-100,4,2,1,70,0,0
136835,-100,4,2,1,5,0,0
136906,-100,4,2,1,70,0,0
137763,-100,4,2,1,70,0,0
138906,-100,4,2,1,70,0,0
139406,-100,4,2,1,5,0,0
139477,-100,4,2,1,70,0,0
139692,-100,4,2,1,5,0,0
139763,-100,4,2,1,70,0,0
140835,-100,4,2,1,5,0,0
140906,-100,4,2,1,70,0,0
141120,-100,4,2,1,5,0,0
141192,-100,4,2,1,70,0,0
141763,-100,4,2,1,70,0,0
142263,-100,4,2,1,5,0,0
142335,-100,4,2,1,70,0,0
142549,-100,4,2,1,5,0,0
142620,-100,4,2,1,70,0,0
142977,-100,4,2,1,5,0,0
143048,-100,4,2,1,70,0,0
143192,-100,4,2,1,70,0,0
143406,-100,4,2,1,5,0,0
143477,-100,4,2,1,70,0,0
143692,-100,4,2,1,5,0,0
143763,-100,4,2,1,70,0,0
144263,-100,4,2,1,5,0,0
144334,-100,4,2,1,70,0,0
144549,-100,4,2,1,5,0,0
144620,-100,4,2,1,70,0,0
144835,-100,4,2,1,5,0,0
144906,-100,4,2,1,70,0,0
145406,-100,4,2,1,5,0,0
145477,-100,4,2,1,70,0,0
145692,-100,4,2,1,5,0,0
145763,-100,4,2,1,70,0,0
145978,-100,4,2,1,5,0,0
146049,-100,4,2,1,70,0,0
146906,-100,4,2,1,70,0,0
148049,-111.111111111111,4,2,1,70,0,0
148263,-111.111111111111,4,2,1,5,0,0
148335,-111.111111111111,4,2,1,70,0,0
148549,-111.111111111111,4,2,1,5,0,0
148621,-111.111111111111,4,2,1,70,0,0
149406,-111.111111111111,4,2,1,5,0,0
149478,-111.111111111111,4,2,1,70,0,0
150406,-111.111111111111,4,2,1,5,0,0
150478,-111.111111111111,4,2,1,70,0,0
151692,-111.111111111111,4,2,1,5,0,0
151764,-111.111111111111,4,2,1,70,0,0
152835,-111.111111111111,4,2,1,5,0,0
152907,-111.111111111111,4,2,1,70,0,0
153121,-111.111111111111,4,2,1,5,0,0
153193,-111.111111111111,4,2,1,70,0,0
153978,-111.111111111111,4,2,1,5,0,0
154050,-111.111111111111,4,2,1,70,0,0
154978,-111.111111111111,4,2,1,5,0,0
155050,-111.111111111111,4,2,1,70,0,0
157406,-111.111111111111,4,2,1,5,0,0
157478,-111.111111111111,4,2,1,70,0,0
157692,-111.111111111111,4,2,1,5,0,0
157764,-111.111111111111,4,2,1,70,0,0
158549,-111.111111111111,4,2,1,5,0,0
158621,-111.111111111111,4,2,1,70,0,0
159549,-111.111111111111,4,2,1,5,0,0
159621,-111.111111111111,4,2,1,70,0,0
160835,-111.111111111111,4,2,1,5,0,0
160907,-111.111111111111,4,2,1,70,0,0
161978,-111.111111111111,4,2,1,5,0,0
162050,-111.111111111111,4,2,1,70,0,0
162263,-111.111111111111,4,2,1,5,0,0
162335,-111.111111111111,4,2,1,70,0,0
163121,-111.111111111111,4,2,1,5,0,0
163193,-111.111111111111,4,2,1,70,0,0
164121,-111.111111111111,4,2,1,5,0,0
164193,-111.111111111111,4,2,1,70,0,0
165406,-111.111111111111,4,2,1,5,0,0
165478,-111.111111111111,4,2,1,70,0,0
166334,-142.857142857143,4,2,1,55,0,0
166978,-142.857142857143,4,2,1,5,0,0
167049,-142.857142857143,4,2,1,55,0,0
168121,-142.857142857143,4,2,1,5,0,0
168192,-142.857142857143,4,2,1,55,0,0
168620,-99.9999999999999,4,2,1,70,0,0
169763,-142.857142857143,4,2,1,70,0,0
174335,-86.9565217391304,4,2,1,85,0,1
175692,-86.9565217391304,4,2,1,5,0,1
175763,-86.9565217391304,4,2,1,85,0,1
176120,-86.9565217391304,4,2,1,5,0,1
176191,-86.9565217391304,4,2,1,85,0,1
176549,-86.9565217391304,4,2,1,5,0,1
176620,-86.9565217391304,4,2,1,85,0,1
178406,-86.9565217391304,4,2,1,5,0,1
178477,-86.9565217391304,4,2,1,85,0,1
178835,-86.9565217391304,4,2,1,5,0,1
178906,-86.9565217391304,4,2,1,85,0,1
181120,-86.9565217391304,4,2,1,5,0,1
181191,-86.9565217391304,4,2,1,85,0,1
182263,-86.9565217391304,4,2,1,5,0,1
182334,-86.9565217391304,4,2,1,85,0,1
183478,-86.9565217391304,4,2,1,85,0,1
184835,-86.9565217391304,4,2,1,5,0,1
184906,-86.9565217391304,4,2,1,85,0,1
185263,-86.9565217391304,4,2,1,5,0,1
185334,-86.9565217391304,4,2,1,85,0,1
185692,-86.9565217391304,4,2,1,5,0,1
185763,-86.9565217391304,4,2,1,85,0,1
186835,-86.9565217391304,4,2,1,5,0,1
186906,-86.9565217391304,4,2,1,85,0,1
187549,-86.9565217391304,4,2,1,5,0,1
187620,-86.9565217391304,4,2,1,85,0,1
187978,-86.9565217391304,4,2,1,5,0,1
188049,-86.9565217391304,4,2,1,85,0,1
190263,-86.9565217391304,4,2,1,5,0,1
190335,-86.9565217391304,4,2,1,85,0,1
192620,-100,4,2,1,70,0,0
193407,-100,4,2,1,5,0,0
193478,-100,4,2,1,70,0,0
193763,-100,4,2,1,70,0,0
194264,-100,4,2,1,5,0,0
194335,-100,4,2,1,70,0,0
194835,-100,4,2,1,5,0,0
194906,-100,4,2,1,70,0,0
195693,-100,4,2,1,5,0,0
195763,-100,4,2,1,70,0,0
195978,-100,4,2,1,5,0,0
196049,-100,4,2,1,70,0,0
196550,-100,4,2,1,5,0,0
196621,-100,4,2,1,70,0,0
196764,-100,4,2,1,70,0,0
197121,-100,4,2,1,5,0,0
197192,-100,4,2,1,70,0,0
197407,-100,4,2,1,5,0,0
197478,-100,4,2,1,70,0,0
197835,-100,4,2,1,5,0,0
197906,-100,4,2,1,70,0,0
198049,-100,4,2,1,70,0,0
198264,-100,4,2,1,5,0,0
198335,-100,4,2,1,70,0,0
198550,-100,4,2,1,5,0,0
198621,-100,4,2,1,70,0,0
199121,-100,4,2,1,5,0,0
199192,-100,4,2,1,70,0,0
199478,-100,4,2,1,70,0,0
199693,-100,4,2,1,5,0,0
199764,-100,4,2,1,70,0,0
199979,-100,4,2,1,5,0,0
200050,-100,4,2,1,70,0,0
200407,-100,4,2,1,5,0,0
200478,-100,4,2,1,70,0,0
200621,-100,4,2,1,70,0,0
200836,-100,4,2,1,5,0,0
200907,-100,4,2,1,70,0,0
201764,-100,4,2,1,70,0,0
202906,-100,4,2,1,70,0,0
203407,-100,4,2,1,5,0,0
203478,-100,4,2,1,70,0,0
203693,-100,4,2,1,5,0,0
203764,-100,4,2,1,70,0,0
204836,-100,4,2,1,5,0,0
204906,-100,4,2,1,70,0,0
205121,-100,4,2,1,5,0,0
205192,-100,4,2,1,70,0,0
205763,-100,4,2,1,70,0,0
206264,-100,4,2,1,5,0,0
206335,-100,4,2,1,70,0,0
206549,-100,4,2,1,5,0,0
206621,-100,4,2,1,70,0,0
206978,-100,4,2,1,5,0,0
207049,-100,4,2,1,70,0,0
207192,-100,4,2,1,70,0,0
207406,-100,4,2,1,5,0,0
207478,-100,4,2,1,70,0,0
207692,-100,4,2,1,5,0,0
207763,-100,4,2,1,70,0,0
208263,-100,4,2,1,5,0,0
208335,-100,4,2,1,70,0,0
208550,-100,4,2,1,5,0,0
208621,-100,4,2,1,70,0,0
208836,-100,4,2,1,5,0,0
208907,-100,4,2,1,70,0,0
209407,-100,4,2,1,5,0,0
209478,-100,4,2,1,70,0,0
209693,-100,4,2,1,5,0,0
209763,-100,4,2,1,70,0,0
209979,-100,4,2,1,5,0,0
210050,-100,4,2,1,70,0,0
210906,-111.111111111111,4,2,1,70,0,0
211121,-111.111111111111,4,2,1,5,0,0
211192,-111.111111111111,4,2,1,70,0,0
211406,-111.111111111111,4,2,1,5,0,0
211477,-111.111111111111,4,2,1,70,0,0
212263,-111.111111111111,4,2,1,5,0,0
212334,-111.111111111111,4,2,1,70,0,0
213263,-111.111111111111,4,2,1,5,0,0
213334,-111.111111111111,4,2,1,70,0,0
214549,-111.111111111111,4,2,1,5,0,0
214620,-111.111111111111,4,2,1,70,0,0
215692,-111.111111111111,4,2,1,5,0,0
215763,-111.111111111111,4,2,1,70,0,0
215978,-111.111111111111,4,2,1,5,0,0
216049,-111.111111111111,4,2,1,70,0,0
216835,-111.111111111111,4,2,1,5,0,0
216906,-111.111111111111,4,2,1,70,0,0
217835,-111.111111111111,4,2,1,5,0,0
217906,-111.111111111111,4,2,1,70,0,0

[Colours]
Combo1 : 105,80,80
Combo2 : 255,13,19
Combo3 : 177,143,143
Combo4 : 193,0,5

[HitObjects]
256,192,621,12,0,9192,0:0:0:0:
148,284,9763,6,0,P|121:289|91:299,2,52,2|0|0,3:2|0:0|0:0,0:0:0:0:
225,239,10192,1,2,0:0:0:0:
225,239,10478,2,0,P|258:249|286:261,1,52,2|2,0:0|0:0,0:0:0:0:
364,293,10763,1,2,0:0:0:0:
364,293,10835,1,2,0:0:0:0:
364,293,10906,6,0,P|385:242|415:181,1,104,10|0,0:2|3:2,0:0:0:0:
478,35,11478,2,0,P|436:72|385:74,1,104,2|8,0:0|0:3,0:0:0:0:
312,32,11906,1,2,0:0:0:0:
236,78,12049,6,0,L|249:135,2,52,2|0|0,3:2|0:0|0:0,0:0:0:0:
153,44,12478,2,0,B|100:93|121:189|151:136|170:210|120:280,1,234,2|0,0:0|0:0,0:0:0:0:
113,303,13192,5,10,0:0:0:0:
292,267,13478,1,2,0:0:0:0:
292,267,13549,1,2,0:0:0:0:
292,267,13621,1,2,0:0:0:0:
238,192,13763,2,0,P|242:168|256:128,1,52,2|2,0:0|0:0,0:0:0:0:
275,56,14049,1,10,0:3:0:0:
445,7,14335,6,0,P|455:35|464:74,1,52,2|0,0:0|0:0,0:0:0:0:
484,142,14621,1,2,0:0:0:0:
484,142,15049,2,0,P|422:189|441:246,1,130,2|0,0:0|0:0,0:0:0:0:
443,274,15478,2,0,P|433:302|423:337,1,52,10|0,0:0|0:0,0:0:0:0:
350,368,15763,2,0,P|335:317|315:265,1,104,2|0,3:2|0:0,0:0:0:0:
285,191,16192,1,2,3:2:0:0:
285,191,16335,1,10,0:3:0:0:
142,295,16621,6,0,P|113:298|80:277,1,52,2|0,3:2|0:0,0:0:0:0:
31,224,16906,2,0,L|85:15,1,208,2|2,0:0|0:0,0:0:0:0:
229,121,17763,6,0,P|181:108|151:164,1,104,10|2,0:0|0:0,0:0:0:0:
220,216,18192,1,2,0:0:0:0:
220,216,18263,1,2,0:0:0:0:
220,216,18335,2,0,P|234:266|245:321,1,104,2|0,0:0|0:0,0:0:0:0:
244,317,18906,6,0,P|213:334|170:315,2,65,4|2|2,3:1|0:0|0:0,0:0:0:0:
320,266,19335,2,0,P|394:281|480:303,1,162.5,2|0,3:2|0:0,0:0:0:0:
509,270,19763,1,2,3:2:0:0:
421,110,20049,6,0,B|375:78|297:109|344:133|260:166|212:103,1,227.5,10|0,0:0|0:0,0:0:0:0:
178,77,20621,2,0,P|144:85|118:117,1,65,2|0,0:0|0:0,0:0:0:0:
120,200,20906,1,2,0:0:0:0:
120,200,21049,1,2,0:0:0:0:
200,241,21192,6,0,P|218:276|213:314,2,65,4|2|2,3:1|0:0|0:0,0:0:0:0:
127,296,21621,2,0,P|55:303|0:223,1,162.5,2|0,3:2|0:0,0:0:0:0:
2,192,22049,1,2,3:2:0:0:
176,139,22335,6,0,B|180:110|157:78|157:78|170:25|246:-6|310:34,1,227.5,10|0,0:0|0:0,0:0:0:0:
332,53,22906,1,10,0:0:0:0:
332,53,23049,1,0,3:2:0:0:
332,53,23478,6,0,P|312:130|301:193,1,130,4|2,3:1|0:0,0:0:0:0:
264,262,23906,2,0,B|234:255|216:220|216:220|183:212|149:239,1,130,2|2,3:2|0:0,0:0:0:0:
81,288,24335,1,2,3:2:0:0:
241,374,24621,6,0,P|272:366|321:357,1,65,10|0,0:0|0:0,0:0:0:0:
394,375,24906,2,0,P|341:335|370:275,1,130,2|4,0:0|0:0,0:0:0:0:
497,164,25478,2,0,P|463:156|419:145,1,65,2|0,0:0|0:0,0:0:0:0:
374,79,25763,6,0,B|332:91|332:91|316:136|316:136|259:158,1,130,4|2,3:1|0:0,0:0:0:0:
195,186,26192,2,0,B|228:223|228:223|196:346,1,162.5,2|0,3:2|0:0,0:0:0:0:
188,376,26621,1,2,3:2:0:0:
15,320,26906,6,0,P|14:288|41:248,1,65,14|0,3:2|0:0,0:0:0:0:
98,199,27192,2,0,P|99:167|72:127,1,65,2|2,3:2|0:0,0:0:0:0:
39,63,27478,1,10,0:0:0:0:
39,63,27621,1,0,3:2:0:0:
111,8,27763,1,8,3:3:0:0:
111,8,28049,6,0,P|145:15|179:27,2,65,4|2|2,3:1|0:0|0:0,0:0:0:0:
39,63,28478,2,0,P|18:147|6:210,1,130,2|2,3:2|0:0,0:0:0:0:
68,259,28906,1,2,3:2:0:0:
9,328,29049,1,2,0:0:0:0:
9,328,29121,1,2,0:0:0:0:
9,328,29192,6,0,B|62:280|142:320|96:338|177:378|229:326,1,227.5,10|0,0:0|0:0,0:0:0:0:
259,313,29763,2,0,P|258:281|234:241,1,65,2|0,0:0|0:0,0:0:0:0:
196,179,30049,1,2,0:0:0:0:
196,179,30192,1,2,0:0:0:0:
269,124,30335,6,0,B|303:120|303:120|331:143,2,65,4|2|2,3:1|0:0|0:0,0:0:0:0:
221,46,30763,2,0,L|394:22,1,162.5,2|0,3:2|0:0,0:0:0:0:
427,18,31192,1,2,3:2:0:0:
505,182,31478,6,0,P|460:226|472:295,1,130,10|2,0:0|0:0,0:0:0:0:
403,353,31906,1,2,0:0:0:0:
403,353,31978,1,2,0:0:0:0:
403,353,32049,2,0,B|338:337|338:337|269:376|269:376|185:356,1,227.5,10|0,0:0|0:0,0:0:0:0:
147,339,32621,6,0,P|136:292|183:232,1,130,4|2,3:1|0:0,0:0:0:0:
274,222,33049,2,0,P|227:208|199:137,1,130,2|2,3:2|0:0,0:0:0:0:
260,68,33478,1,2,3:2:0:0:
87,10,33763,6,0,P|73:46|61:83,1,65,10|0,0:0|0:0,0:0:0:0:
6,142,34049,2,0,P|32:216|50:284,1,130,2|4,0:0|0:0,0:0:0:0:
197,367,34621,2,0,P|216:350|229:299,1,65,2|0,0:0|0:0,0:0:0:0:
196,228,34906,6,0,P|243:272|321:247,1,130,4|2,3:1|0:0,0:0:0:0:
361,191,35335,2,0,P|346:253|407:308,1,130,2|0,3:2|0:0,0:0:0:0:
467,338,35763,1,2,3:2:0:0:
511,161,36049,6,0,B|474:151|474:151|454:111|454:111|404:98,1,130,14|2,3:2|3:2,0:0:0:0:
329,76,36478,1,2,0:0:0:0:
329,76,36549,1,2,0:0:0:0:
329,76,36621,2,0,L|259:93,1,65,10|0,0:0|3:2,0:0:0:0:
177,114,36906,1,8,3:3:0:0:
56,31,37192,6,0,L|29:145,1,104,0|0,3:2|0:0,0:0:0:0:
13,213,37621,2,0,P|67:231|86:288,1,104,8|0,0:0|0:0,0:0:0:0:
100,352,38049,1,2,3:2:0:0:
241,264,38335,2,0,L|361:299,1,104,2|2,0:0|0:0,0:0:0:0:
382,364,38763,2,0,P|462:363|434:244,1,234,2|0,0:0|0:0,0:0:0:0:
399,230,39478,6,0,P|387:179|363:110,1,104,0|0,3:2|0:0,0:0:0:0:
394,50,39906,2,0,P|354:83|292:70,1,104,8|2,0:0|0:0,0:0:0:0:
241,22,40335,2,0,P|223:47|222:75,1,52,2|2,3:2|0:0,0:0:0:0:
251,145,40621,2,0,P|269:194|291:267,1,104,2|0,0:0|0:0,0:0:0:0:
243,315,41049,2,0,B|212:311|189:337|210:339|181:365|152:358,1,104,2|0,0:0|0:0,0:0:0:0:
69,382,41478,1,2,0:0:0:0:
0,219,41763,6,0,B|17:196|46:191|46:191|53:162|37:136,1,104,0|0,3:2|0:0,0:0:0:0:
3,68,42192,2,0,P|44:57|122:31,1,104,8|2,0:0|0:0,0:0:0:0:
182,14,42621,2,0,P|209:17|232:36,1,52,2|2,3:2|0:0,0:0:0:0:
297,81,42906,2,0,P|247:76|213:113,1,104,2|0,0:0|0:0,0:0:0:0:
148,166,43335,2,0,P|198:160|232:197,1,104,2|0,0:0|0:0,0:0:0:0:
168,251,43763,1,2,0:0:0:0:
292,361,44049,5,0,3:2:0:0:
447,302,44335,2,0,P|443:272|414:240,1,52,2|8,0:0|0:0,0:0:0:0:
379,187,44621,2,0,P|389:146|417:64,1,104,2|2,0:0|3:2,0:0:0:0:
260,9,45192,2,0,P|276:58|289:108,1,104,2|0,0:0|3:2,0:0:0:0:
240,178,45621,1,2,3:2:0:0:
240,178,45763,1,8,0:0:0:0:
107,76,46049,1,8,3:3:0:0:
0,152,46335,5,4,3:2:0:0:
0,152,46621,2,0,P|13:185|23:220,1,52,2|8,0:0|0:0,0:0:0:0:
12,283,46906,2,0,P|40:244|99:250,1,104,2|0,0:0|3:2,0:0:0:0:
149,313,47335,1,2,0:0:0:0:
149,313,47478,2,0,L|268:341,1,104,2|0,0:0|3:2,0:0:0:0:
322,293,47906,1,2,0:0:0:0:
322,293,48049,2,0,P|318:262|299:239,1,52,10|0,0:0|0:0,0:0:0:0:
253,180,48335,2,0,P|257:159|273:112,1,52,8|0,0:3|0:0,0:0:0:0:
288,48,48621,1,0,3:2:0:0:
443,105,48906,6,0,P|450:129|456:155,1,52,2|8,0:0|0:0,0:0:0:0:
487,232,49192,2,0,P|438:200|394:221,1,104,2|2,0:0|3:2,0:0:0:0:
467,368,49763,2,0,P|419:382|379:352,1,104,2|0,0:0|3:2,0:0:0:0:
343,282,50192,1,2,0:0:0:0:
343,282,50335,2,0,P|313:288|275:301,1,52,8|0,0:0|0:0,0:0:0:0:
217,332,50621,2,0,P|192:323|148:313,1,52,8|0,0:3|0:0,0:0:0:0:
96,359,50906,6,0,P|82:310|58:244,1,104,0|0,3:2|0:0,0:0:0:0:
16,197,51335,1,10,0:0:0:0:
16,197,51478,2,0,P|19:170|40:140,1,52,2|0,0:0|0:0,0:0:0:0:
109,120,51763,2,0,P|106:93|85:63,1,52,2|0,3:2|0:0,0:0:0:0:
160,21,52049,6,0,B|193:19|214:44|198:47|222:71|252:68,1,104,2|2,0:0|3:2,0:0:0:0:
322,31,52478,1,2,0:0:0:0:
390,78,52621,2,0,P|373:137|360:193,1,104,8|8,0:0|0:3,0:0:0:0:
484,292,53192,6,0,B|451:290|430:315|446:318|422:342|392:339,1,104,2|2,3:2|0:0,0:0:0:0:
322,379,53621,2,0,P|309:328|295:278,1,104,10|0,0:0|0:0,0:0:0:0:
270,199,54049,1,0,3:2:0:0:
151,316,54335,2,0,P|138:265|124:215,1,104,2|2,0:0|3:2,0:0:0:0:
99,136,54763,1,2,0:0:0:0:
31,71,54906,2,0,P|46:51|84:43,1,52,8|8,3:2|3:2,0:0:0:0:
166,10,55192,6,0,P|186:31|227:44,1,68.2499979171754,10|0,3:3|0:0,0:0:0:0:
257,74,55478,6,0,B|301:87|341:53|306:48|344:15|393:27,1,143.000004364014,4|0,3:1|0:0,0:0:0:0:
449,96,55906,1,2,3:2:0:0:
449,96,56049,2,0,P|434:138|423:174,1,71.5000021820069,8|0,0:0|0:0,0:0:0:0:
400,253,56335,1,2,3:2:0:0:
218,211,56621,6,0,P|209:176|199:142,1,71.5000021820069,10|0,0:0|0:0,0:0:0:0:
172,57,56906,1,0,3:2:0:0:
172,57,57049,2,0,P|146:82|121:107,1,71.5000021820069,8|0,0:0|0:0,0:0:0:0:
58,177,57335,1,0,3:2:0:0:
58,177,57478,2,0,P|92:186|127:195,1,71.5000021820069,10|0,0:0|0:0,0:0:0:0:
218,211,57763,6,0,P|157:242|149:311,1,143.000004364014,4|0,3:1|0:0,0:0:0:0:
230,368,58192,1,2,3:2:0:0:
230,368,58335,2,0,P|265:356|311:344,1,71.5000021820069,8|0,0:0|0:0,0:0:0:0:
385,381,58621,1,2,3:2:0:0:
497,233,58906,6,0,P|496:202|471:165,1,71.5000021820069,10|0,0:0|3:2,0:0:0:0:
400,112,59192,1,0,3:2:0:0:
456,34,59335,2,0,P|421:26|382:14,1,71.5000021820069,10|0,0:0|0:0,0:0:0:0:
306,65,59621,1,0,3:2:0:0:
226,112,59763,2,0,P|187:115|151:93,1,71.5000021820069,10|0,0:0|0:0,0:0:0:0:
89,32,60049,6,0,B|126:71|126:71|79:240,1,214.500006546021,4|0,3:1|3:2,0:0:0:0:
58,316,60621,1,8,0:0:0:0:
238,271,60906,1,0,3:2:0:0:
109,136,61192,1,8,0:0:0:0:
155,320,61478,1,0,3:2:0:0:
155,320,61621,1,8,0:0:0:0:
295,198,61906,1,0,3:2:0:0:
295,198,62049,2,0,P|336:190|396:237,1,107.25000327301,10|0,0:0|0:0,0:0:0:0:
421,257,62335,6,0,P|441:187|474:110,1,143.000004364014,4|0,3:1|0:0,0:0:0:0:
402,56,62763,2,0,P|366:52|329:77,1,71.5000021820069,2|8,3:2|0:0,0:0:0:0:
266,132,63049,1,2,0:0:0:0:
266,132,63192,2,0,P|283:166|298:210,1,71.5000021820069,2|0,3:2|0:0,0:0:0:0:
333,287,63478,5,8,3:2:0:0:
333,287,63621,1,8,3:2:0:0:
267,351,63763,2,0,P|234:354|188:328,1,71.5000021820069,0|0,3:2|3:2,0:0:0:0:
133,280,64049,1,10,3:2:0:0:
133,280,64192,1,0,3:2:0:0:
52,327,64335,2,0,P|41:291|28:254,1,71.5000021820069,2|0,3:2|3:2,0:0:0:0:
0,160,64621,6,0,B|45:145|45:145|64:101|64:101|118:84,1,143.000004364014,4|0,3:1|0:0,0:0:0:0:
157,16,65049,1,2,3:2:0:0:
157,16,65192,2,0,P|191:24|228:35,1,71.5000021820069,8|0,0:0|0:0,0:0:0:0:
316,57,65478,1,2,3:2:0:0:
179,182,65763,6,0,P|188:217|198:251,1,71.5000021820069,10|0,0:0|0:0,0:0:0:0:
225,336,66049,1,0,3:2:0:0:
225,336,66192,2,0,P|251:311|278:284,1,71.5000021820069,8|0,0:0|0:0,0:0:0:0:
339,216,66478,1,0,3:2:0:0:
339,216,66621,2,0,P|305:207|270:198,1,71.5000021820069,10|0,0:0|0:0,0:0:0:0:
366,308,66906,6,0,P|412:273|379:130,1,214.500006546021,4|0,3:1|3:2,0:0:0:0:
313,79,67478,1,8,0:0:0:0:
159,183,67763,2,0,B|131:169|100:185|114:193|82:209|48:188,1,107.25000327301,2|0,3:2|0:0,0:0:0:0:
21,162,68049,6,0,P|19:126|41:87,1,71.5000021820069,10|0,0:0|3:2,0:0:0:0:
98,26,68335,1,0,3:2:0:0:
186,56,68478,2,0,P|223:45|281:35,1,71.5000021820069,10|0,0:0|0:0,0:0:0:0:
346,21,68763,1,0,3:2:0:0:
346,21,68906,2,0,P|377:38|385:90,1,71.5000021820069,10|0,0:0|0:0,0:0:0:0:
445,144,69192,6,0,P|420:220|382:352,1,214.500006546021,4|0,3:1|3:2,0:0:0:0:
291,365,69763,1,8,0:0:0:0:
217,194,70049,1,0,3:2:0:0:
348,62,70335,1,8,0:0:0:0:
420,238,70621,1,0,3:2:0:0:
420,238,70763,1,8,0:0:0:0:
291,365,71049,1,0,3:2:0:0:
291,365,71192,2,0,P|244:329|184:344,1,107.25000327301,10|0,0:0|0:0,0:0:0:0:
156,352,71478,6,0,B|143:310|143:310|106:289|106:289|90:234,1,143.000004364014,4|8,3:1|3:2,0:0:0:0:
22,170,71906,2,0,L|41:93,1,71.5000021820069,10|8,3:2|3:2,0:0:0:0:
56,8,72192,1,10,3:2:0:0:
138,51,72335,2,0,L|291:24,1,143.000004364014,10|8,3:2|3:2,0:0:0:0:
357,75,72763,1,8,3:2:0:0:
419,5,72906,2,0,P|442:34|448:83,1,71.5000021820069,10|8,3:2|3:2,0:0:0:0:
411,150,73192,1,8,3:2:0:0:
411,150,73763,6,0,P|424:188|434:226,2,65,4|2|2,3:1|0:0|0:0,0:0:0:0:
357,75,74192,2,0,B|309:63|268:100|300:106|260:144|215:128,1,162.5,2|0,3:2|0:0,0:0:0:0:
175,106,74621,1,2,3:2:0:0:
17,15,74906,6,0,P|45:120|73:255,1,227.5,10|0,0:0|0:0,0:0:0:0:
45,275,75478,2,0,P|63:301|99:313,1,65,2|0,0:0|0:0,0:0:0:0:
169,261,75763,1,2,0:0:0:0:
169,261,75906,1,2,0:0:0:0:
253,295,76049,6,0,P|272:329|269:366,2,65,4|2|2,3:1|0:0|0:0,0:0:0:0:
304,219,76478,2,0,P|376:204|444:272,1,162.5,2|0,3:2|0:0,0:0:0:0:
455,300,76906,1,2,3:2:0:0:
504,124,77192,6,0,B|488:83|441:74|441:74|398:114|340:114|292:72,1,227.5,10|0,0:0|0:0,0:0:0:0:
274,65,77763,1,10,0:0:0:0:
274,65,77906,1,0,3:2:0:0:
274,65,78335,6,0,P|207:47|146:99,1,130,4|2,3:1|0:0,0:0:0:0:
93,140,78763,2,0,P|150:116|184:167,1,130,2|2,3:2|0:0,0:0:0:0:
121,230,79192,1,2,3:2:0:0:
230,375,79478,6,0,P|216:337|199:301,1,65,10|0,0:0|0:0,0:0:0:0:
247,233,79763,2,0,B|318:214|372:270|326:290|389:328|453:299,1,227.5,2|0,0:0|0:0,0:0:0:0:
483,328,80335,2,0,P|477:352|460:386,2,43.3333333333333,2|0|0,3:2|3:2|3:2,0:0:0:0:
508,252,80621,6,0,P|500:216|486:174,1,65,10|0,0:0|0:0,0:0:0:0:
448,108,80906,2,0,P|455:72|470:30,1,65,10|0,0:0|0:0,0:0:0:0:
357,119,81192,1,0,3:2:0:0:
279,71,81335,2,0,P|242:68|185:146,1,130,10|0,0:0|3:2,0:0:0:0:
220,214,81763,6,0,P|206:250|198:280,1,65,14|0,3:2|0:0,0:0:0:0:
115,313,82049,2,0,P|105:281|94:251,1,65,2|2,3:2|0:0,0:0:0:0:
38,185,82335,1,10,0:0:0:0:
38,185,82478,1,0,3:2:0:0:
82,106,82621,1,8,3:3:0:0:
82,106,82906,6,0,P|60:76|16:69,2,65,4|2|2,3:1|0:0|0:0,0:0:0:0:
169,135,83335,2,0,P|227:115|306:99,1,130,2|2,3:2|0:0,0:0:0:0:
373,145,83763,1,2,3:2:0:0:
457,103,83906,1,2,0:0:0:0:
457,103,83978,1,2,0:0:0:0:
457,103,84049,6,0,P|418:225|513:253,1,227.5,10|0,0:0|0:0,0:0:0:0:
507,299,84621,2,0,P|488:333|473:365,1,65,2|0,0:0|0:0,0:0:0:0:
391,380,84906,1,2,0:0:0:0:
391,380,85049,1,2,0:0:0:0:
308,342,85192,6,0,P|276:344|244:368,2,65,4|2|2,3:1|0:0|0:0,0:0:0:0:
333,254,85621,2,0,P|251:258|169:316,1,162.5,2|0,3:2|0:0,0:0:0:0:
151,331,86049,1,2,3:2:0:0:
13,212,86335,6,0,B|24:174|24:174|60:151|60:151|77:105,1,130,10|2,0:0|0:0,0:0:0:0:
111,26,86763,1,2,0:0:0:0:
111,26,86835,1,2,0:0:0:0:
111,26,86906,1,10,0:0:0:0:
197,55,87049,2,0,P|267:13|346:36,1,162.5,0|0,3:2|0:0,0:0:0:0:
378,59,87478,6,0,B|347:101|347:101|365:185,1,130,4|2,3:1|0:0,0:0:0:0:
414,252,87906,2,0,B|372:221|372:221|288:239,1,130,2|2,3:2|0:0,0:0:0:0:
206,257,88335,1,2,3:2:0:0:
337,382,88621,6,0,P|346:343|357:305,1,65,10|0,0:0|0:0,0:0:0:0:
414,252,88906,2,0,P|392:178|370:108,1,130,2|4,0:0|0:0,0:0:0:0:
507,0,89478,2,0,P|472:18|431:17,1,65,2|0,0:0|0:0,0:0:0:0:
358,39,89763,6,0,B|316:8|316:8|232:26,1,130,4|2,3:1|0:0,0:0:0:0:
150,40,90192,2,0,B|181:82|181:82|163:166,1,130,2|0,3:2|0:0,0:0:0:0:
149,248,90621,1,2,3:2:0:0:
8,363,90906,6,0,P|54:328|129:364,1,130,14|2,3:2|3:2,0:0:0:0:
216,370,91335,1,2,0:0:0:0:
216,370,91406,1,2,0:0:0:0:
216,370,91478,2,0,P|247:360|286:353,1,65,10|0,0:0|3:2,0:0:0:0:
368,337,91763,1,8,3:3:0:0:
453,367,91906,1,8,3:3:0:0:
512,298,92049,6,0,P|501:247|449:219,1,110.50000210762,2|0,3:3|0:0,0:0:0:0:
384,162,92478,2,0,P|330:180|268:197,1,110.50000210762,8|0,0:0|0:0,0:0:0:0:
224,264,92906,2,0,P|194:253|155:243,1,55.2500010538101,2|0,3:2|0:0,0:0:0:0:
84,263,93192,2,0,P|123:223|108:154,1,110.50000210762,2|2,0:0|3:2,0:0:0:0:
78,92,93621,1,2,0:0:0:0:
141,31,93763,2,0,B|175:59|175:59|250:44,1,110.50000210762,10|2,0:0|0:0,0:0:0:0:
414,10,94335,6,0,P|396:61|378:130,1,110.50000210762,0|0,3:2|0:0,0:0:0:0:
411,198,94763,2,0,P|371:165|302:179,1,110.50000210762,8|2,0:0|0:0,0:0:0:0:
264,243,95192,2,0,P|278:269|289:299,1,55.2500010538101,2|2,3:2|0:0,0:0:0:0:
232,363,95478,2,0,B|201:367|175:340|194:337|170:313|132:318,1,110.50000210762,2|2,0:0|3:2,0:0:0:0:
51,339,95906,2,0,P|87:296|76:229,1,110.50000210762,2|0,0:0|0:0,0:0:0:0:
31,172,96335,2,0,P|39:146|51:116,1,55.2500010538101,2|0,0:0|0:0,0:0:0:0:
34,32,96621,6,0,B|69:24|69:24|105:48|105:48|159:35,1,110.50000210762,0|0,3:2|0:0,0:0:0:0:
203,98,97049,2,0,P|244:109|326:137,1,110.50000210762,8|0,0:0|0:0,0:0:0:0:
378,63,97478,2,0,P|395:85|404:125,1,55.2500010538101,2|2,3:2|0:0,0:0:0:0:
370,197,97763,2,0,P|333:245|356:304,1,110.50000210762,2|0,0:0|3:2,0:0:0:0:
401,356,98192,1,2,0:0:0:0:
480,318,98335,2,0,P|474:286|461:247,1,55.2500010538101,8|0,0:0|0:0,0:0:0:0:
452,176,98621,2,0,P|458:144|471:105,1,55.2500010538101,2|0,0:0|0:0,0:0:0:0:
489,37,98906,5,0,3:2:0:0:
323,100,99192,2,0,P|300:94|257:87,1,55.2500010538101,2|10,0:0|0:0,0:0:0:0:
208,23,99478,2,0,P|157:11|96:56,1,110.50000210762,2|2,0:0|3:2,0:0:0:0:
6,182,100049,2,0,B|37:178|63:205|47:210|68:232|100:227,1,110.50000210762,2|0,0:0|3:2,0:0:0:0:
180,186,100478,1,2,3:2:0:0:
180,186,100621,1,8,0:0:0:0:
313,276,100906,1,8,3:3:0:0:
427,238,101192,5,2,3:3:0:0:
427,238,101478,2,0,P|438:265|448:300,1,55.2500010538101,2|8,0:0|0:0,0:0:0:0:
378,348,101763,2,0,P|327:328|255:308,1,110.50000210762,2|0,0:0|3:2,0:0:0:0:
189,330,102192,1,2,0:0:0:0:
189,330,102335,2,0,P|226:289|198:221,1,110.50000210762,2|0,0:0|3:2,0:0:0:0:
140,204,102763,1,2,0:0:0:0:
140,204,102906,2,0,P|113:214|83:223,1,55.2500010538101,10|0,0:0|0:0,0:0:0:0:
19,164,103192,2,0,P|23:143|39:92,1,55.2500010538101,2|0,0:0|0:0,0:0:0:0:
59,25,103478,5,0,3:2:0:0:
217,101,103763,2,0,P|243:92|276:84,1,55.2500010538101,2|10,0:0|0:0,0:0:0:0:
336,26,104049,2,0,P|323:82|371:134,1,110.50000210762,2|2,0:0|3:2,0:0:0:0:
498,220,104621,2,0,B|461:218|440:241|458:245|432:273|403:266,1,110.50000210762,2|0,0:0|3:2,0:0:0:0:
335,321,105049,1,2,0:0:0:0:
335,321,105192,2,0,P|309:304|270:308,1,55.2500010538101,8|0,0:0|0:0,0:0:0:0:
206,260,105478,2,0,P|181:269|136:280,1,55.2500010538101,2|0,0:0|0:0,0:0:0:0:
91,346,105763,6,0,P|77:297|49:225,1,110.50000210762,0|2,3:2|0:0,0:0:0:0:
9,172,106192,1,8,0:0:0:0:
9,172,106335,2,0,P|12:144|33:115,1,55.2500010538101,2|0,0:0|0:0,0:0:0:0:
109,91,106621,2,0,P|136:103|170:113,1,55.2500010538101,2|0,3:2|0:0,0:0:0:0:
231,164,106906,6,0,B|267:156|267:156|285:125|285:125|336:114,1,110.50000210762,2|2,0:0|3:2,0:0:0:0:
382,51,107335,1,2,0:0:0:0:
303,9,107478,2,0,L|185:34,1,110.50000210762,8|0,0:0|0:0,0:0:0:0:
18,22,108049,6,0,P|66:52|55:117,1,110.50000210762,2|2,3:2|0:0,0:0:0:0:
42,187,108478,2,0,P|27:236|12:295,1,110.50000210762,2|0,0:0|0:0,0:0:0:0:
56,370,108906,1,2,3:2:0:0:
207,277,109192,5,10,0:0:0:0:
207,277,109335,1,8,0:0:0:0:
289,308,109478,2,0,P|314:312|348:291,1,55.2500010538101,2|2,3:2|3:2,0:0:0:0:
385,223,109763,1,8,3:2:0:0:
348,142,109906,1,8,3:2:0:0:
395,66,110049,6,0,P|429:67|467:97,1,68.2499979171754,10|0,3:3|0:0,0:0:0:0:
493,120,110335,6,0,P|475:199|461:281,1,143.000004364014,4|0,3:1|0:0,0:0:0:0:
390,315,110763,1,2,3:2:0:0:
390,315,110906,2,0,P|357:290|311:294,1,71.5000021820069,8|0,0:0|0:0,0:0:0:0:
248,337,111192,1,2,3:2:0:0:
127,195,111478,6,0,P|137:229|145:263,1,71.5000021820069,10|0,0:0|0:0,0:0:0:0:
238,239,111763,1,0,3:2:0:0:
238,239,111906,2,0,P|229:203|220:169,1,71.5000021820069,8|0,0:0|0:0,0:0:0:0:
313,146,112192,1,0,3:2:0:0:
313,146,112335,2,0,P|322:179|331:214,1,71.5000021820069,10|0,0:0|0:0,0:0:0:0:
416,254,112621,6,0,P|433:187|460:99,1,143.000004364014,4|0,3:1|0:0,0:0:0:0:
409,40,113049,1,2,3:2:0:0:
409,40,113192,2,0,P|374:38|328:64,1,71.5000021820069,8|0,0:0|0:0,0:0:0:0:
287,129,113478,1,2,3:2:0:0:
143,11,113763,6,0,P|158:43|169:79,1,71.5000021820069,10|0,0:0|3:2,0:0:0:0:
191,168,114049,1,0,3:2:0:0:
114,221,114192,2,0,P|80:205|40:210,1,71.5000021820069,10|0,0:0|0:0,0:0:0:0:
0,289,114478,1,0,3:2:0:0:
68,349,114621,2,0,P|100:334|135:337,1,71.5000021820069,10|0,0:0|0:0,0:0:0:0:
217,270,114906,6,0,B|282:285|282:285|320:359|320:359|386:375,1,214.500006546021,4|0,3:1|3:2,0:0:0:0:
467,333,115478,1,8,0:0:0:0:
353,186,115763,1,0,3:2:0:0:
506,81,116049,1,8,0:0:0:0:
425,250,116335,1,0,3:2:0:0:
425,250,116478,1,8,0:0:0:0:
258,179,116763,1,0,3:2:0:0:
258,179,116906,2,0,P|217:171|157:218,1,107.25000327301,10|0,0:0|0:0,0:0:0:0:
126,232,117192,6,0,P|105:163|73:85,1,143.000004364014,4|0,3:1|0:0,0:0:0:0:
134,22,117621,2,0,P|171:28|206:39,1,71.5000021820069,2|10,3:2|0:0,0:0:0:0:
288,87,117906,1,2,0:0:0:0:
288,87,118049,2,0,B|316:67|316:67|358:75,1,71.5000021820069,2|0,3:2|0:0,0:0:0:0:
442,41,118335,5,8,3:2:0:0:
442,41,118478,1,8,3:2:0:0:
474,127,118621,2,0,P|485:160|495:200,1,71.5000021820069,0|0,3:2|3:2,0:0:0:0:
435,269,118906,1,10,3:2:0:0:
435,269,119049,1,0,3:2:0:0:
352,210,119192,2,0,P|341:246|328:283,1,71.5000021820069,2|0,3:2|3:2,0:0:0:0:
251,328,119478,6,0,B|211:328|183:294|211:292|181:255|133:257,1,143.000004364014,4|0,3:1|0:0,0:0:0:0:
94,179,119906,1,2,3:2:0:0:
94,179,120049,2,0,P|128:171|165:160,1,71.5000021820069,8|0,0:0|0:0,0:0:0:0:
205,77,120335,1,2,3:2:0:0:
299,237,120621,6,0,P|309:202|317:168,1,71.5000021820069,10|0,0:0|0:0,0:0:0:0:
411,194,120906,1,0,3:2:0:0:
411,194,121049,2,0,P|402:229|393:263,1,71.5000021820069,8|0,0:0|0:0,0:0:0:0:
487,291,121335,1,0,3:2:0:0:
487,291,121478,2,0,P|496:257|505:222,1,71.5000021820069,10|0,0:0|0:0,0:0:0:0:
481,132,121763,6,0,B|433:98|433:98|273:133,1,214.500006546021,4|0,3:1|3:2,0:0:0:0:
190,154,122335,1,8,0:0:0:0:
117,324,122621,2,0,B|145:310|176:326|162:334|194:350|228:329,1,107.25000327301,2|0,3:2|0:0,0:0:0:0:
251,299,122906,6,0,P|253:263|231:224,1,71.5000021820069,10|0,0:0|3:2,0:0:0:0:
190,154,123192,1,0,3:2:0:0:
111,203,123335,2,0,P|101:166|88:128,1,71.5000021820069,10|0,0:0|0:0,0:0:0:0:
140,57,123621,1,0,3:2:0:0:
140,57,123763,2,0,P|174:63|214:29,1,71.5000021820069,10|0,0:0|0:0,0:0:0:0:
296,26,124049,6,0,P|394:2|478:98,1,214.500006546021,4|0,3:1|3:2,0:0:0:0:
502,160,124621,1,8,0:0:0:0:
366,287,124906,1,0,3:2:0:0:
371,100,125192,1,8,0:0:0:0:
468,264,125478,1,0,3:2:0:0:
468,264,125621,1,8,0:0:0:0:
314,366,125906,1,0,3:2:0:0:
314,366,126049,2,0,P|267:330|207:345,1,107.25000327301,10|0,0:0|0:0,0:0:0:0:
179,355,126335,6,0,B|206:306|206:306|180:220,1,143.000004364014,4|0,3:1|0:0,0:0:0:0:
150,134,126763,2,0,L|169:57,1,71.5000021820069,2|8,3:2|0:0,0:0:0:0:
88,13,127049,1,2,0:0:0:0:
32,87,127192,2,0,L|56:185,1,71.5000021820069,2|8,3:2|0:0,0:0:0:0:
73,251,127478,5,0,3:2:0:0:
73,251,127621,1,0,3:2:0:0:
20,326,127763,2,0,P|57:334|95:345,1,71.5000021820069,2|0,3:2|3:2,0:0:0:0:
179,368,128049,1,0,3:2:0:0:
250,298,128192,2,0,P|287:290|325:279,1,71.5000021820069,2|0,3:2|3:2,0:0:0:0:
417,322,128478,1,0,3:2:0:0:
386,199,128621,1,14,3:2:0:0:
256,192,128692,12,10,132621,0:0:0:0:
84,92,133192,6,0,B|116:126|116:126|85:215,1,130,4|2,3:1|0:0,0:0:0:0:
162,257,133621,2,0,P|103:239|71:290,1,130,2|2,3:2|0:0,0:0:0:0:
144,345,134049,1,2,3:2:0:0:
310,270,134335,6,0,P|272:256|236:239,1,65,10|0,0:0|0:0,0:0:0:0:
212,162,134621,2,0,B|283:181|336:135|290:122|354:67|418:96,1,227.5,2|0,0:0|0:0,0:0:0:0:
447,63,135192,2,0,P|441:39|424:5,2,43.3333333333333,2|0|0,3:2|3:2|3:2,0:0:0:0:
504,116,135478,6,0,P|493:151|482:194,1,65,10|0,0:0|0:0,0:0:0:0:
426,248,135763,2,0,P|438:282|448:326,1,65,10|0,0:0|0:0,0:0:0:0:
373,367,136049,1,0,3:2:0:0:
285,342,136192,2,0,B|243:330|243:330|207:356|207:356|162:344,1,130,10|0,0:0|3:2,0:0:0:0:
75,346,136621,6,0,P|89:310|97:280,1,65,14|0,3:2|0:0,0:0:0:0:
148,209,136906,2,0,P|138:177|127:147,1,65,2|0,3:2|0:0,0:0:0:0:
60,92,137192,1,10,0:0:0:0:
60,92,137335,1,0,3:2:0:0:
121,24,137478,2,0,P|156:23|196:49,1,65,8|8,3:3|3:3,0:0:0:0:
254,91,137763,6,0,P|266:57|281:20,2,65,4|2|2,3:1|0:0|0:0,0:0:0:0:
178,142,138192,2,0,P|239:132|276:191,1,130,2|2,3:2|0:0,0:0:0:0:
204,237,138621,1,2,3:2:0:0:
151,312,138763,1,2,0:0:0:0:
151,312,138835,1,2,0:0:0:0:
151,312,138906,6,0,B|175:273|239:284|239:284|290:349|366:318,1,227.5,10|0,0:0|0:0,0:0:0:0:
396,335,139478,2,0,P|409:301|428:263,1,65,2|0,0:0|0:0,0:0:0:0:
503,231,139763,1,2,0:0:0:0:
503,231,139906,1,2,0:0:0:0:
474,144,140049,6,0,P|465:113|450:77,2,65,4|2|2,3:1|0:0|0:0,0:0:0:0:
393,187,140478,2,0,B|349:192|308:152|347:152|312:113|259:112,1,162.5,2|0,3:2|0:0,0:0:0:0:
219,135,140906,1,2,3:2:0:0:
81,15,141192,6,0,B|112:48|112:48|71:149,1,130,10|2,0:0|0:0,0:0:0:0:
57,219,141621,1,2,0:0:0:0:
57,219,141692,1,2,0:0:0:0:
57,219,141763,1,10,0:0:0:0:
21,303,141906,2,0,P|83:333|170:284,1,162.5,0|0,3:2|0:0,0:0:0:0:
190,258,142335,6,0,B|235:273|235:273|272:255|272:255|327:272,1,130,4|2,3:1|0:0,0:0:0:0:
387,317,142763,2,0,P|355:260|406:219,1,130,2|2,3:2|0:0,0:0:0:0:
466,276,143192,1,2,3:2:0:0:
503,98,143478,6,0,P|464:89|426:78,1,65,10|0,0:0|0:0,0:0:0:0:
372,20,143763,2,0,P|306:38|225:57,1,130,2|4,0:0|0:0,0:0:0:0:
343,207,144335,2,0,P|331:241|324:272,1,65,2|0,0:0|0:0,0:0:0:0:
359,353,144621,6,0,P|313:310|233:340,1,130,4|2,3:1|0:0,0:0:0:0:
176,372,145049,2,0,B|169:350|142:337|142:337|107:375|48:357,1,130,2|0,3:2|0:0,0:0:0:0:
15,288,145478,1,2,3:2:0:0:
151,167,145763,6,0,P|107:118|132:42,1,130,14|2,3:2|3:2,0:0:0:0:
204,22,146192,1,2,0:0:0:0:
204,22,146263,1,2,0:0:0:0:
204,22,146335,2,0,B|273:-18|357:37|292:53|374:106|446:67,1,260,2|2,0:0|0:0,0:0:0:0:
64,224,148049,6,0,L|76:295,1,58.4999982147217,4|0,3:1|0:0,0:0:0:0:
156,207,148335,2,0,L|168:278,1,58.4999982147217,0|0,3:2|0:0,0:0:0:0:
139,351,148621,1,0,3:2:0:0:
139,351,148763,1,0,3:2:0:0:
292,263,149049,1,0,3:2:0:0:
292,263,149192,6,0,B|330:275|330:275|349:313|349:313|388:324,1,116.999996429443,10|0,3:2|3:2,0:0:0:0:
466,349,149621,1,0,3:2:0:0:
509,179,149906,1,0,3:2:0:0:
509,179,150049,6,0,L|323:136,1,175.499994644165,2|0,3:2|3:2,0:0:0:0:
251,119,150621,1,2,3:2:0:0:
394,17,150906,1,2,3:2:0:0:
394,17,151049,1,0,3:2:0:0:
417,195,151335,1,0,3:2:0:0:
417,195,151478,6,0,B|382:236|382:236|408:316,1,116.999996429443,10|0,3:2|3:2,0:0:0:0:
435,376,151906,1,2,3:2:0:0:
282,299,152192,1,0,3:2:0:0:
282,299,152335,2,0,L|220:317,1,58.4999982147217,2|0,3:2|0:0,0:0:0:0:
129,348,152621,6,0,P|139:316|124:267,1,58.4999982147217,2|0,3:2|0:0,0:0:0:0:
37,334,152906,2,0,P|34:305|44:277,1,58.4999982147217,0|0,3:2|0:0,0:0:0:0:
103,212,153192,1,0,3:2:0:0:
103,212,153335,1,0,3:2:0:0:
16,59,153621,1,0,3:2:0:0:
16,59,153763,6,0,B|51:81|51:81|141:64,1,116.999996429443,10|0,3:2|3:2,0:0:0:0:
212,51,154192,1,0,3:2:0:0:
388,20,154478,1,0,3:2:0:0:
388,20,154621,2,0,P|338:60|359:170,1,175.499994644165,2|0,3:2|3:2,0:0:0:0:
416,103,155192,1,0,3:2:0:0:
499,263,155478,1,2,3:2:0:0:
499,263,155621,1,0,3:2:0:0:
350,354,155906,1,0,3:2:0:0:
350,354,156049,6,0,L|279:340,1,58.4999982147217,10|0,3:2|3:2,0:0:0:0:
206,323,156335,2,0,L|135:309,1,58.4999982147217,0|0,3:2|3:2,0:0:0:0:
95,217,156621,2,0,L|166:203,1,58.4999982147217,10|8,3:2|3:2,0:0:0:0:
239,186,156906,2,0,L|310:172,1,58.4999982147217,0|0,3:2|3:2,0:0:0:0:
381,126,157192,6,0,L|393:197,1,58.4999982147217,4|0,3:1|0:0,0:0:0:0:
473,109,157478,2,0,L|485:180,1,58.4999982147217,0|0,3:2|0:0,0:0:0:0:
456,253,157763,1,0,3:2:0:0:
456,253,157906,1,0,3:2:0:0:
293,314,158192,1,0,3:2:0:0:
293,314,158335,6,0,B|312:274|312:274|294:185,1,116.999996429443,10|0,3:2|3:2,0:0:0:0:
282,116,158763,1,0,3:2:0:0:
439,34,159049,1,0,3:2:0:0:
439,34,159192,6,0,B|396:57|346:38|378:23|322:-5|270:22,1,175.499994644165,2|0,3:2|3:2,0:0:0:0:
198,66,159763,1,2,3:2:0:0:
32,22,160049,1,2,3:2:0:0:
32,22,160192,2,0,L|47:100,1,58.4999982147217,0|2,3:2|0:0,0:0:0:0:
95,156,160478,1,0,3:2:0:0:
95,156,160621,6,0,B|77:198|77:198|89:229|89:229|71:267,1,116.999996429443,10|0,3:2|3:2,0:0:0:0:
44,346,161049,1,2,3:2:0:0:
203,267,161335,1,0,3:2:0:0:
203,267,161478,2,0,P|230:265|269:286,1,58.4999982147217,2|0,3:2|0:0,0:0:0:0:
353,248,161763,6,0,P|343:280|358:329,1,58.4999982147217,2|0,3:2|0:0,0:0:0:0:
445,262,162049,2,0,P|447:290|437:318,1,58.4999982147217,0|0,3:2|0:0,0:0:0:0:
379,384,162335,1,0,3:2:0:0:
379,384,162478,1,0,3:2:0:0:
230,299,162763,1,0,3:2:0:0:
230,299,162906,6,0,P|214:243|190:183,1,116.999996429443,10|0,3:2|3:2,0:0:0:0:
157,107,163335,1,0,3:2:0:0:
305,10,163621,1,0,3:2:0:0:
305,10,163763,6,0,B|363:26|363:26|394:78|394:78|447:95,1,175.499994644165,2|0,3:2|3:2,0:0:0:0:
500,164,164335,1,0,3:2:0:0:
378,290,164621,1,2,3:2:0:0:
378,290,164763,1,0,3:2:0:0:
220,224,165049,1,0,3:2:0:0:
220,224,165192,6,0,B|177:248|177:248|99:227,1,116.999996429443,10|0,3:2|3:2,0:0:0:0:
27,204,165621,1,0,3:2:0:0:
100,46,165906,1,0,3:2:0:0:
100,46,166049,2,0,L|163:64,1,58.4999982147217,0|0,3:2|0:0,0:0:0:0:
238,90,166335,6,0,L|291:76,2,45.4999986114502,2|0|0,0:0|0:0|0:0,0:0:0:0:
235,176,166763,2,0,L|328:151,1,90.9999972229005,2|2,0:0|0:0,0:0:0:0:
468,276,167478,6,0,L|415:262,2,45.4999986114502,2|0|0,0:0|0:0|0:0,0:0:0:0:
471,362,167906,2,0,L|378:337,1,90.9999972229005,2|2,0:0|0:0,0:0:0:0:
125,373,168621,6,0,L|102:285,1,65,10|0,3:2|3:2,0:0:0:0:
158,227,168906,1,10,3:2:0:0:
158,227,169049,1,8,3:2:0:0:
105,144,169192,2,0,L|125:70,1,65,10|8,3:2|3:2,0:0:0:0:
207,32,169478,1,2,3:2:0:0:
286,88,169621,1,0,3:2:0:0:
385,56,169763,1,4,3:1:0:0:
54,53,174335,6,0,P|108:97|83:182,1,149.500002851486,4|0,3:1|0:0,0:0:0:0:
33,253,174763,1,2,3:2:0:0:
33,253,174906,2,0,P|73:264|106:277,1,74.7500014257431,8|0,0:0|0:0,0:0:0:0:
168,349,175192,1,2,3:2:0:0:
253,174,175478,6,0,P|263:208|273:248,1,74.7500014257431,10|0,0:0|0:0,0:0:0:0:
372,266,175763,1,0,3:2:0:0:
372,266,175906,2,0,P|363:230|353:190,1,74.7500014257431,8|0,0:0|0:0,0:0:0:0:
432,133,176192,1,0,3:2:0:0:
432,133,176335,2,0,P|441:166|451:207,1,74.7500014257431,10|0,0:0|0:0,0:0:0:0:
494,298,176621,6,0,P|444:250|364:273,1,149.500002851486,4|0,3:1|0:0,0:0:0:0:
296,328,177049,1,2,3:2:0:0:
296,328,177192,2,0,P|263:317|213:303,1,74.7500014257431,8|0,0:0|0:0,0:0:0:0:
141,358,177478,1,2,3:2:0:0:
22,204,177763,6,0,P|57:183|103:190,1,74.7500014257431,10|0,0:0|3:2,0:0:0:0:
181,219,178049,1,0,3:2:0:0:
237,139,178192,2,0,P|204:120|160:125,1,74.7500014257431,10|0,0:0|0:0,0:0:0:0:
89,184,178478,1,0,3:2:0:0:
49,96,178621,2,0,P|57:58|74:5,1,74.7500014257431,10|0,0:0|0:0,0:0:0:0:
163,5,178906,6,0,B|213:42|213:42|381:17,1,224.250004277229,4|0,3:1|3:2,0:0:0:0:
469,0,179478,1,8,0:0:0:0:
505,190,179763,1,0,3:2:0:0:
313,225,180049,1,8,0:0:0:0:
438,380,180335,1,0,3:2:0:0:
438,380,180478,1,8,0:0:0:0:
409,192,180763,1,0,3:2:0:0:
409,192,180906,2,0,L|389:82,1,112.125002138615,10|0,0:0|0:0,0:0:0:0:
346,57,181192,6,0,B|325:89|293:90|293:90|256:53|204:62,1,149.500002851486,4|0,3:1|0:0,0:0:0:0:
123,31,181621,2,0,P|134:66|140:103,1,74.7500014257431,2|8,3:2|0:0,0:0:0:0:
87,187,181906,1,2,0:0:0:0:
87,187,182049,2,0,P|124:186|157:212,1,74.7500014257431,2|0,3:2|0:0,0:0:0:0:
96,287,182335,5,8,3:2:0:0:
96,287,182478,1,8,3:2:0:0:
167,352,182621,2,0,P|200:341|242:330,1,74.7500014257431,0|0,3:2|3:2,0:0:0:0:
337,306,182906,1,10,3:2:0:0:
337,306,183049,1,0,3:2:0:0:
266,238,183192,2,0,P|277:202|291:162,1,74.7500014257431,2|0,3:2|3:2,0:0:0:0:
218,87,183478,6,0,B|258:87|291:50|261:49|291:12|340:15,1,149.500002851486,4|0,3:1|0:0,0:0:0:0:
440,38,183906,1,2,3:2:0:0:
440,38,184049,2,0,P|418:72|419:109,1,74.7500014257431,8|0,0:0|0:0,0:0:0:0:
493,168,184335,1,2,3:2:0:0:
384,329,184621,6,0,P|374:295|364:255,1,74.7500014257431,10|0,0:0|0:0,0:0:0:0:
265,237,184906,1,0,3:2:0:0:
265,237,185049,2,0,P|274:273|284:313,1,74.7500014257431,8|0,0:0|0:0,0:0:0:0:
205,370,185335,1,0,3:2:0:0:
205,370,185478,2,0,P|196:337|186:296,1,74.7500014257431,10|0,0:0|0:0,0:0:0:0:
101,212,185763,6,0,P|178:199|144:85,1,224.250004277229,4|0,3:1|3:2,0:0:0:0:
56,119,186335,1,8,0:0:0:0:
216,10,186621,2,0,P|277:19|337:32,1,112.125002138615,2|0,3:2|0:0,0:0:0:0:
374,36,186906,6,0,P|380:71|360:110,1,74.7500014257431,10|0,0:0|3:2,0:0:0:0:
275,147,187192,1,0,3:2:0:0:
303,240,187335,2,0,P|314:273|325:313,1,74.7500014257431,10|0,0:0|0:0,0:0:0:0:
418,356,187621,1,0,3:2:0:0:
418,356,187763,2,0,P|452:362|493:328,1,74.7500014257431,10|0,0:0|0:0,0:0:0:0:
508,232,188049,6,0,B|443:217|443:217|374:262|374:262|293:237,1,224.250004277229,4|0,3:1|3:2,0:0:0:0:
208,212,188621,1,8,0:0:0:0:
336,358,188906,1,0,3:2:0:0:
359,164,189192,1,8,0:0:0:0:
240,319,189478,1,0,3:2:0:0:
240,319,189621,1,8,0:0:0:0:
79,217,189906,1,0,3:2:0:0:
79,217,190049,2,0,P|126:181|187:202,1,112.125002138615,10|0,0:0|0:0,0:0:0:0:
221,206,190335,6,0,B|195:188|191:154|191:154|225:124|229:50,1,149.500002851486,4|0,3:1|0:0,0:0:0:0:
306,20,190763,2,0,P|344:17|379:39,1,74.7500014257431,2|8,3:2|0:0,0:0:0:0:
432,114,191049,1,2,0:0:0:0:
356,175,191192,2,0,P|368:218|380:273,1,74.7500014257431,2|0,3:2|0:0,0:0:0:0:
400,346,191478,5,8,3:2:0:0:
400,346,191621,1,8,3:2:0:0:
307,373,191763,2,0,P|270:365|228:353,1,74.7500014257431,10|8,3:2|3:2,0:0:0:0:
171,278,192049,1,8,3:2:0:0:
85,325,192192,2,0,P|77:288|65:250,1,74.7500014257431,10|8,3:2|3:2,0:0:0:0:
4,158,192478,1,8,3:2:0:0:
137,187,192621,6,0,P|166:185|198:153,2,65,4|2|2,3:1|0:0|0:0,0:0:0:0:
186,75,193049,2,0,B|232:66|275:100|243:106|283:144|329:129,1,162.5,2|0,3:2|0:0,0:0:0:0:
367,104,193478,1,2,3:2:0:0:
512,1,193763,6,0,P|484:106|459:230,1,227.5,10|0,0:0|0:0,0:0:0:0:
445,266,194335,2,0,P|413:273|383:286,1,65,2|0,0:0|0:0,0:0:0:0:
320,351,194620,1,2,0:0:0:0:
320,351,194763,1,2,0:0:0:0:
241,291,194906,6,0,P|222:325|225:362,2,65,4|2|2,3:1|0:0|0:0,0:0:0:0:
177,224,195335,2,0,P|105:239|37:171,1,162.5,2|0,3:2|0:0,0:0:0:0:
21,144,195763,1,2,3:2:0:0:
150,15,196049,6,0,B|197:54|197:54|360:23,1,227.5,10|0,0:0|0:0,0:0:0:0:
407,14,196620,1,10,0:0:0:0:
407,14,196763,1,0,3:2:0:0:
407,14,197192,6,0,B|444:52|444:52|423:129,1,130,4|2,3:1|0:0,0:0:0:0:
360,191,197620,2,0,B|414:156|414:156|447:231,1,130,2|2,3:2|0:0,0:0:0:0:
377,283,198049,1,2,3:2:0:0:
211,359,198335,6,0,P|197:321|180:285,1,65,10|0,0:0|0:0,0:0:0:0:
111,247,198620,2,0,P|185:262|242:132,1,227.5,2|0,0:0|0:0,0:0:0:0:
230,102,199192,2,0,P|234:79|242:45,2,43.3333333333333,2|0|0,3:2|3:2|3:2,0:0:0:0:
150,111,199478,6,0,P|121:98|82:87,1,65,10|0,0:0|0:0,0:0:0:0:
26,154,199763,2,0,P|39:183|50:222,1,65,10|0,0:0|0:0,0:0:0:0:
21,302,200049,1,0,3:2:0:0:
120,268,200192,2,0,P|157:265|214:343,1,130,10|0,0:0|3:2,0:0:0:0:
294,371,200620,6,0,P|302:339|314:309,1,65,14|0,3:2|0:0,0:0:0:0:
370,236,200906,2,0,P|344:218|303:217,1,65,2|2,3:2|0:0,0:0:0:0:
226,240,201192,1,10,0:0:0:0:
226,240,201335,1,0,3:2:0:0:
154,184,201478,2,0,P|160:153|172:112,1,65,8|8,3:3|3:3,0:0:0:0:
216,31,201763,6,0,P|183:26|137:10,2,65,4|2|2,3:1|0:0|0:0,0:0:0:0:
289,86,202192,2,0,B|332:94|362:70|338:62|369:39|412:41,1,130,2|2,3:2|0:0,0:0:0:0:
488,76,202620,1,2,3:2:0:0:
422,137,202763,1,2,0:0:0:0:
422,137,202835,1,2,0:0:0:0:
422,137,202906,6,0,B|463:183|463:183|431:358,1,227.5,10|0,0:0|0:0,0:0:0:0:
393,368,203478,2,0,P|361:369|317:335,1,65,2|0,0:0|0:0,0:0:0:0:
296,275,203763,1,2,0:0:0:0:
296,275,203906,1,2,0:0:0:0:
362,212,204049,6,0,P|394:211|428:232,2,65,4|2|2,3:1|0:0|0:0,0:0:0:0:
287,158,204478,2,0,P|206:177|113:205,1,162.5,2|0,3:2|0:0,0:0:0:0:
88,217,204906,1,2,3:2:0:0:
189,368,205192,6,0,B|200:330|200:330|236:307|236:307|253:261,1,130,10|2,0:0|0:0,0:0:0:0:
287,182,205620,1,2,0:0:0:0:
287,182,205692,1,2,0:0:0:0:
287,182,205763,1,10,0:0:0:0:
371,216,205906,2,0,P|369:141|298:91,1,162.5,0|0,3:2|0:0,0:0:0:0:
276,54,206335,6,0,B|234:85|234:85|150:67,1,130,4|2,3:1|0:0,0:0:0:0:
83,16,206763,2,0,B|114:58|114:58|96:142,1,130,2|2,3:2|0:0,0:0:0:0:
77,223,207192,1,2,3:2:0:0:
213,343,207478,6,0,P|204:304|193:266,1,65,10|0,0:0|0:0,0:0:0:0:
169,193,207763,2,0,P|224:242|287:233,1,130,2|4,0:0|0:0,0:0:0:0:
425,132,208335,2,0,P|392:135|364:151,1,65,2|0,0:0|0:0,0:0:0:0:
421,222,208620,6,0,B|452:264|452:264|434:348,1,130,4|2,3:1|0:0,0:0:0:0:
351,377,209049,2,0,B|309:346|309:346|225:364,1,130,2|0,3:2|0:0,0:0:0:0:
143,382,209478,1,2,3:2:0:0:
23,245,209763,6,0,P|57:189|119:229,1,130,14|2,3:2|3:2,0:0:0:0:
171,286,210192,1,2,0:0:0:0:
171,286,210263,1,2,0:0:0:0:
171,286,210335,2,0,L|242:270,1,65,10|0,0:0|3:2,0:0:0:0:
324,256,210620,1,8,3:3:0:0:
270,182,210763,1,8,3:3:0:0:
340,119,210906,6,0,L|352:48,1,58.4999982147217,4|0,3:1|0:0,0:0:0:0:
432,136,211192,2,0,L|444:65,1,58.4999982147217,0|0,3:2|0:0,0:0:0:0:
415,0,211477,1,0,3:2:0:0:
415,0,211620,1,0,3:2:0:0:
257,73,211906,1,0,3:2:0:0:
257,73,212049,6,0,B|218:63|218:63|183:84|183:84|137:73,1,116.999996429443,10|0,3:2|3:2,0:0:0:0:
62,56,212477,1,0,3:2:0:0:
17,228,212763,1,0,3:2:0:0:
17,228,212906,6,0,B|60:205|110:224|78:239|134:267|186:240,1,175.499994644165,2|0,3:2|3:2,0:0:0:0:
253,189,213477,1,2,3:2:0:0:
416,265,213763,1,2,3:2:0:0:
416,265,213906,2,0,L|401:343,1,58.4999982147217,0|0,3:2|0:0,0:0:0:0:
340,382,214192,1,0,3:2:0:0:
340,382,214335,6,0,B|311:342|311:342|327:256,1,116.999996429443,10|0,3:2|3:2,0:0:0:0:
339,188,214763,1,2,3:2:0:0:
202,298,215049,1,0,3:2:0:0:
202,298,215192,2,0,P|175:300|136:279,1,58.4999982147217,2|0,3:2|0:0,0:0:0:0:
106,210,215478,6,0,P|116:178|105:131,1,58.4999982147217,2|0,3:2|0:0,0:0:0:0:
14,196,215763,2,0,P|12:168|22:140,1,58.4999982147217,0|0,3:2|0:0,0:0:0:0:
80,74,216049,1,0,3:2:0:0:
80,74,216192,1,0,3:2:0:0:
213,195,216477,1,0,3:2:0:0:
213,195,216620,6,0,P|263:175|329:155,1,116.999996429443,10|0,3:2|3:2,0:0:0:0:
406,126,217049,1,0,3:2:0:0:
240,84,217335,1,0,3:2:0:0:
240,84,217477,6,0,B|182:68|182:68|151:16|151:16|98:-1,1,175.499994644165,2|0,3:2|3:2,0:0:0:0:
28,52,218049,1,0,3:2:0:0:
146,189,218335,1,2,3:2:0:0:
146,189,218477,1,0,3:2:0:0:
30,321,218763,1,0,3:2:0:0:
30,321,218906,6,0,L|110:339,1,58.4999982147217,10|0,3:2|3:2,0:0:0:0:
169,296,219192,1,2,3:2:0:0:
169,296,219335,1,0,3:2:0:0:
246,338,219478,2,0,L|326:320,1,58.4999982147217,10|0,3:2|3:2,0:0:0:0:
388,362,219763,1,2,3:2:0:0:
359,248,219906,1,0,3:2:0:0:
