osu file format v14

[General]
AudioFilename: audio.mp3
AudioLeadIn: 0
PreviewTime: 161048
Countdown: 0
SampleSet: None
StackLeniency: 0.3
Mode: 0
LetterboxInBreaks: 0
WidescreenStoryboard: 1

[Editor]
Bookmarks: 69368,84728,146168,161528
DistanceSpacing: 0.5
BeatDivisor: 4
GridSize: 32
TimelineZoom: 2.4

[Metadata]
Title:Wolves
TitleUnicode:Wolves
Artist:Selena Gomez, Marshmello
ArtistUnicode:Selena Gomez, Marshmello
Creator:Sing
Version:Insane
Source:
Tags:
BeatmapID:2362789
BeatmapSetID:858349

[Difficulty]
HPDrainRate:6
CircleSize:4
OverallDifficulty:8
ApproachRate:9
SliderMultiplier:2.49999990463257
SliderTickRate:1

[Events]
//Background and Video events
0,0,"all for u.jpg",0,0
//Break Periods
//Storyboard Layer 0 (Background)
//Storyboard Layer 1 (Fail)
//Storyboard Layer 2 (Pass)
//Storyboard Layer 3 (Foreground)
//Storyboard Layer 4 (Overlay)
//Storyboard Sound Samples

[TimingPoints]
248,480,4,2,1,40,1,0
8888,-333.333333333333,4,2,1,40,0,0
23288,-200,4,2,1,40,0,0
38648,-133.333333333333,4,2,1,40,0,0
45848,-200,4,2,1,40,0,0
46328,-133.333333333333,4,2,1,40,0,0
54008,-111.111111111111,4,2,1,40,0,0
61688,-200,4,2,1,40,0,0
63608,-133.333333333333,4,2,1,40,0,0
68888,-100,4,2,1,40,0,0
69368,-100,4,2,1,60,0,1
70568,-66.6666666666667,4,2,1,60,0,1
71288,-100,4,2,1,60,0,1
72488,-66.6666666666667,4,2,1,60,0,1
74648,-333.333333333333,4,2,1,60,0,1
75128,-66.6666666666667,4,2,1,60,0,1
78968,-100,4,2,1,60,0,1
80168,-66.6666666666667,4,2,1,60,0,1
82328,-333.333333333333,4,2,1,60,0,1
82808,-66.6666666666667,4,2,1,60,0,1
84728,-333.333333333333,4,2,1,40,0,0
100088,-200,4,2,1,40,0,0
114968,-100,4,2,1,40,0,0
130808,-83.3333333333333,4,2,1,40,0,0
138488,-100,4,2,1,40,0,0
140408,-66.6666666666667,4,2,1,40,0,0
144248,-500,4,2,1,40,0,0
145688,-66.6666666666667,4,2,1,40,0,0
146168,-50,4,2,1,60,0,1
151448,-250,4,2,1,60,0,1
151688,-50,4,2,1,60,0,1
159128,-250,4,2,1,60,0,1
159368,-50,4,2,1,60,0,1
161528,-133.333333333333,4,2,1,40,0,0
191288,-500,4,2,1,40,0,0

[Colours]
Combo1 : 55,135,255
Combo2 : 96,255,239
Combo3 : 255,87,205
Combo4 : 159,18,254

[HitObjects]
0,154,8888,6,0,L|4:198,1,37.4999974250794
77,158,9368,2,0,L|161:135,1,74.9999948501589
136,307,10328,6,0,L|132:344,1,37.4999974250794
207,348,10808,2,0,L|211:304,1,37.4999974250794
284,344,11288,2,0,L|368:367,1,74.9999948501589
494,70,12728,6,0,L|490:114,1,37.4999974250794
417,74,13208,2,0,L|333:51,1,74.9999948501589
361,260,14408,5,0,0:0:0:0:
361,260,14648,2,0,L|358:223,1,37.4999974250794
283,226,15127,2,0,L|287:264,1,37.4999974250794
210,310,15608,5,0,0:0:0:0:
197,139,16568,6,0,L|182:93,1,37.4999974250794
267,91,17048,2,0,L|257:12,1,74.9999948501589
136,307,18248,5,0,0:0:0:0:
136,307,18488,2,0,L|151:261,1,37.4999974250794
66,259,18968,2,0,L|76:180,1,74.9999948501589
410,229,20168,5,0,0:0:0:0:
410,229,20408,2,0,L|395:275,1,37.4999974250794
480,277,20888,2,0,L|470:356,1,74.9999948501589
349,61,22088,5,0,0:0:0:0:
349,61,22328,2,0,L|364:107,1,37.4999974250794
279,109,22808,2,0,L|284:148,1,37.4999974250794
20,348,23288,6,0,L|128:333,2,93.7499964237213
186,263,24248,2,0,L|93:250,2,93.7499964237213
258,346,25208,6,0,L|273:238,2,93.7499964237213
335,145,26168,2,0,L|347:237,2,93.7499964237213
479,297,27128,6,0,B|373:283|422:341|295:316,1,187.499992847443
297,316,28088,1,0,0:0:0:0:
62,148,28808,5,0,0:0:0:0:
62,148,29048,2,0,B|168:134|119:192|246:167,1,187.499992847443
317,130,30008,2,0,L|325:203,1,62.4999976158142
455,64,30488,5,0,0:0:0:0:
455,64,30608,1,0,0:0:0:0:
455,64,30728,1,0,0:0:0:0:
455,64,30848,1,0,0:0:0:0:
455,64,30968,2,0,L|350:45,2,93.7499964237213
224,146,31928,2,0,L|329:127,2,93.7499964237213
134,6,32888,6,0,L|153:111,2,93.7499964237213
47,170,33848,2,0,L|66:65,2,93.7499964237213
147,183,34808,5,0,0:0:0:0:
147,183,38168,6,0,L|156:256,1,62.4999976158142
184,361,38648,5,0,0:0:0:0:
184,361,38768,2,0,P|133:330|29:334,2,140.625
255,292,39608,2,0,L|269:388,1,93.75
344,350,40088,2,0,L|358:254,1,93.75
275,113,40568,5,0,0:0:0:0:
275,113,40688,2,0,P|326:82|430:86,2,140.625
199,78,41528,1,0,0:0:0:0:
215,220,41768,5,0,0:0:0:0:
87,131,42008,1,0,0:0:0:0:
118,285,42248,1,0,0:0:0:0:
132,201,42488,5,0,0:0:0:0:
132,201,42968,1,0,0:0:0:0:
132,201,43448,1,0,0:0:0:0:
390,264,43688,5,0,0:0:0:0:
262,353,43928,1,0,0:0:0:0:
293,199,44168,1,0,0:0:0:0:
307,283,44408,5,0,0:0:0:0:
307,283,44888,1,0,0:0:0:0:
307,283,45368,1,0,0:0:0:0:
307,283,45848,6,0,L|239:277,1,62.4999976158142
54,342,46328,6,0,P|66:281|42:193,1,140.625
153,281,46808,2,0,P|140:220|164:132,1,140.625
107,77,47288,2,0,L|202:52,1,93.75
168,154,47768,2,0,L|319:138,1,140.625
373,199,48248,6,0,P|403:147|401:97,1,93.75
406,273,48728,2,0,P|468:240|507:154,1,140.625
480,108,49208,1,0,0:0:0:0:
287,225,49448,5,0,0:0:0:0:
291,353,49688,1,0,0:0:0:0:
202,199,49928,1,0,0:0:0:0:
213,381,50168,5,0,0:0:0:0:
213,381,50648,1,0,0:0:0:0:
213,381,51128,1,0,0:0:0:0:
63,146,51368,5,0,0:0:0:0:
59,274,51608,1,0,0:0:0:0:
148,120,51848,1,0,0:0:0:0:
137,302,52088,5,0,0:0:0:0:
137,302,52568,1,0,0:0:0:0:
137,302,53048,1,0,0:0:0:0:
63,372,53288,5,0,0:0:0:0:
63,372,53528,2,0,L|44:274,1,93.75
63,146,54008,6,0,P|139:133|236:208,1,168.749988412857
247,247,54488,1,0,0:0:0:0:
401,195,54728,1,0,0:0:0:0:
401,195,54848,1,0,0:0:0:0:
401,195,54968,1,0,0:0:0:0:
265,113,55208,1,0,0:0:0:0:
347,113,55448,2,0,L|339:-6,1,112.499992275238
483,230,55928,6,0,P|407:217|310:292,1,168.749988412857
299,331,56408,1,0,0:0:0:0:
145,279,56648,1,0,0:0:0:0:
145,279,56768,1,0,0:0:0:0:
145,279,56888,1,0,0:0:0:0:
281,197,57128,1,0,0:0:0:0:
159,188,57368,5,0,0:0:0:0:
209,79,57608,1,0,0:0:0:0:
103,123,57848,5,0,0:0:0:0:
103,123,58328,5,0,0:0:0:0:
96,40,58568,1,0,0:0:0:0:
28,90,58808,1,0,0:0:0:0:
241,215,59048,5,0,0:0:0:0:
159,188,59288,1,0,0:0:0:0:
209,297,59528,1,0,0:0:0:0:
103,253,59768,5,0,0:0:0:0:
129,338,60008,1,0,0:0:0:0:
129,338,60128,1,0,0:0:0:0:
129,338,60248,1,0,0:0:0:0:
45,311,60488,1,0,0:0:0:0:
209,297,60728,5,0,0:0:0:0:
271,228,60968,1,0,0:0:0:0:
271,228,61088,1,0,0:0:0:0:
271,228,61208,2,0,L|401:244,1,112.499992275238
483,35,61688,6,0,L|475:110,1,62.4999976158142
401,41,62168,2,0,L|393:116,1,62.4999976158142
117,89,62648,6,0,L|125:164,1,62.4999976158142
224,104,63128,2,0,L|232:179,1,62.4999976158142
481,243,63608,6,0,L|376:234,1,93.75
386,381,64088,2,0,L|281:372,1,93.75
216,239,64568,6,0,L|111:248,1,93.75
117,89,65048,2,0,L|12:98,1,93.75
4,269,65528,5,0,0:0:0:0:
0,314,65648,1,0,0:0:0:0:
22,355,65768,1,0,0:0:0:0:
61,379,65888,1,0,0:0:0:0:
107,379,66008,1,0,0:0:0:0:
147,356,66128,1,0,0:0:0:0:
169,315,66248,1,0,0:0:0:0:
166,269,66368,1,0,0:0:0:0:
140,230,66488,5,0,0:0:0:0:
125,186,66608,1,0,0:0:0:0:
135,141,66728,1,0,0:0:0:0:
166,107,66848,1,0,0:0:0:0:
210,95,66968,1,0,0:0:0:0:
255,107,67088,1,0,0:0:0:0:
286,140,67208,1,0,0:0:0:0:
297,185,67328,1,0,0:0:0:0:
282,229,67448,5,0,0:0:0:0:
453,83,68408,5,0,0:0:0:0:
453,83,68528,1,0,0:0:0:0:
453,83,68648,1,0,0:0:0:0:
187,64,68888,2,0,L|-45:48,1,187.499992847443
7,43,69368,5,0,0:0:0:0:
31,165,69608,1,0,0:0:0:0:
56,287,69848,1,0,0:0:0:0:
152,141,70088,5,0,0:0:0:0:
148,165,70208,1,0,0:0:0:0:
144,189,70328,1,0,0:0:0:0:
144,189,70568,6,0,L|262:182,1,93.7500000000001
288,118,70808,2,0,L|406:111,1,93.7500000000001
360,249,71048,2,0,L|478:242,1,93.7500000000001
456,154,71288,6,0,L|468:98,2,41.6666650772095
322,0,71528,2,0,L|314:40,2,41.6666650772095
209,97,71768,1,0,0:0:0:0:
52,50,72008,5,0,0:0:0:0:
52,50,72128,1,0,0:0:0:0:
52,50,72248,1,0,0:0:0:0:
237,183,72488,6,0,L|225:297,1,93.7500000000001
146,258,72728,2,0,L|155:164,1,93.7500000000001
73,145,72968,2,0,L|64:239,1,93.7500000000001
241,384,73208,5,0,0:0:0:0:
363,360,73448,1,0,0:0:0:0:
485,335,73688,1,0,0:0:0:0:
313,291,73928,5,0,0:0:0:0:
334,279,74048,1,0,0:0:0:0:
356,268,74168,1,0,0:0:0:0:
322,0,74408,6,0,L|345:119,1,93.7500000000001
363,166,74648,1,0,0:0:0:0:
158,78,74888,5,0,0:0:0:0:
158,78,75008,1,0,0:0:0:0:
158,78,75128,2,0,L|79:94,2,62.5
0,185,75368,2,0,L|61:172,2,62.5
136,202,75608,1,0,0:0:0:0:
87,346,75848,5,0,0:0:0:0:
87,346,75968,1,0,0:0:0:0:
87,346,76088,1,0,0:0:0:0:
210,150,76328,6,0,P|216:201|195:270,1,93.7500000000001
266,297,76568,2,0,P|301:259|324:190,1,93.7500000000001
399,215,76808,2,0,P|405:266|384:335,1,93.7500000000001
505,341,77048,5,0,0:0:0:0:
481,219,77288,1,0,0:0:0:0:
456,97,77528,1,0,0:0:0:0:
360,243,77768,5,0,0:0:0:0:
364,219,77888,1,0,0:0:0:0:
368,195,78008,1,0,0:0:0:0:
368,195,78248,6,0,L|250:202,1,93.7500000000001
224,266,78488,2,0,L|106:273,1,93.7500000000001
152,135,78728,2,0,L|34:142,1,93.7500000000001
56,230,78968,6,0,L|44:286,2,41.6666650772095
190,384,79208,2,0,L|198:344,2,41.6666650772095
303,287,79448,1,0,0:0:0:0:
460,334,79688,5,0,0:0:0:0:
460,334,79808,1,0,0:0:0:0:
460,334,79928,1,0,0:0:0:0:
275,201,80168,6,0,L|287:87,1,93.7500000000001
366,126,80408,2,0,L|356:219,1,93.7500000000001
438,238,80648,2,0,L|448:145,1,93.7500000000001
271,0,80888,5,0,0:0:0:0:
149,24,81128,1,0,0:0:0:0:
27,49,81368,1,0,0:0:0:0:
199,93,81608,5,0,0:0:0:0:
178,105,81728,1,0,0:0:0:0:
156,116,81848,1,0,0:0:0:0:
190,384,82088,6,0,L|167:265,1,93.7500000000001
149,218,82328,1,0,0:0:0:0:
354,306,82568,5,0,0:0:0:0:
354,306,82688,1,0,0:0:0:0:
354,306,82808,2,0,L|433:290,2,62.5
512,199,83048,2,0,L|450:211,2,62.5
376,182,83288,1,0,0:0:0:0:
425,38,83528,5,0,0:0:0:0:
425,38,83648,1,0,0:0:0:0:
425,38,83768,1,0,0:0:0:0:
302,234,84008,6,0,P|295:182|316:113,1,93.7500000000001
246,87,84248,2,0,P|210:124|187:193,1,93.7500000000001
113,169,84488,2,0,P|106:117|127:48,1,93.7500000000001
