osu file format v14

[General]
AudioFilename: audio.mp3
AudioLeadIn: 0
PreviewTime: 56052
Countdown: 0
SampleSet: Soft
StackLeniency: 0.7
Mode: 0
LetterboxInBreaks: 0
EpilepsyWarning: 1
WidescreenStoryboard: 1

[Editor]
DistanceSpacing: 1.5
BeatDivisor: 8
GridSize: 4
TimelineZoom: 2.2

[Metadata]
Title:Wolves (Said The Sky Remix)
TitleUnicode:Wolves (Said The Sky Remix)
Artist:Selena Gomez X Marshmello
ArtistUnicode:Selena Gomez X Marshmello
Creator:GhostFY
Version:Insane
Source:
Tags:
BeatmapID:2718480
BeatmapSetID:985245

[Difficulty]
HPDrainRate:6
CircleSize:4.2
OverallDifficulty:6
ApproachRate:9
SliderMultiplier:1.2
SliderTickRate:1

[Events]
//Background and Video events
0,0,"bg.jpg",0,0
//Break Periods
//Storyboard Layer 0 (Background)
//Storyboard Layer 1 (Fail)
//Storyboard Layer 2 (Pass)
//Storyboard Layer 3 (Foreground)
//Storyboard Layer 4 (Overlay)
//Storyboard Sound Samples

[TimingPoints]
1920,444.444444444444,4,2,0,60,1,0
30364,-100,4,2,2,60,0,0
60586,-66.6666666666667,4,2,2,80,0,1
72586,-33.3333333333333,4,2,2,80,0,0
73031,-66.6666666666667,4,2,2,80,0,1
85475,-66.6666666666667,4,2,2,80,0,0
85697,-66.6666666666667,4,2,2,5,0,0

[Colours]
Combo1 : 216,177,223
Combo2 : 255,255,128
Combo3 : 192,192,192
Combo4 : 255,128,64

[HitObjects]
100,61,1920,6,0,P|136:96|218:104,1,120,2|0,0:0|0:0,0:0:0:0:
288,161,2586,2,0,B|314:148|350:161|350:161|388:174|423:157,1,120,2|0,0:0|0:0,0:0:0:0:
451,97,3253,1,0,0:0:0:0:
369,242,3475,1,0,0:0:0:0:
288,161,3697,6,0,B|267:98|267:98|285:34,1,120,2|0,0:0|0:0,0:0:0:0:
362,101,4364,1,2,0:0:0:0:
183,134,4586,2,0,P|142:123|113:95,1,60,0|0,0:0|0:0,0:0:0:0:
82,41,5031,1,0,0:0:0:0:
213,214,5253,6,0,B|202:258|202:258|174:286|174:286|164:329,1,120,2|0,0:3|0:0,0:0:0:0:
125,213,5919,1,0,0:0:0:0:
375,264,6142,1,2,0:0:0:0:
307,218,6364,2,0,P|291:253|296:291,1,60,0|0,0:0|0:0,0:0:0:0:
443,317,6808,2,0,P|457:290|458:261,1,60,0|2,0:0|0:3,0:0:0:0:
362,135,7253,6,0,B|376:164|399:179|399:179|427:185|460:166,1,120,2|0,0:0|0:0,0:0:0:0:
432,76,7919,1,2,0:0:0:0:
244,19,8142,2,0,L|257:77,1,60,0|0,0:0|0:0,0:0:0:0:
341,58,8586,2,0,L|329:0,1,60,0|0,0:0|0:0,0:0:0:0:
172,98,9031,6,0,P|195:141|274:165,1,120,2|0,0:0|0:0,0:0:0:0:
353,156,9697,1,2,0:0:0:0:
406,24,9919,2,0,L|420:93,1,60,0|0,0:0|0:0,0:0:0:0:
406,247,10364,2,0,P|366:251|327:273,1,60,0|0,0:0|0:0,0:0:0:0:
211,339,10808,6,0,B|247:339|268:315|268:315|292:346|342:344,1,120,2|0,0:0|0:0,0:0:0:0:
200,253,11475,1,2,0:0:0:0:
185,166,11697,1,0,0:0:0:0:
271,199,11919,1,0,0:0:0:0:
120,305,12142,2,0,P|108:265|113:228,1,60,0|2,0:0|0:3,0:0:0:0:
158,92,12586,6,0,B|96:118|96:118|64:91|28:85,1,120,2|0,0:0|0:0,0:0:0:0:
108,24,13253,1,2,0:0:0:0:
271,94,13475,2,0,L|339:96,1,60,0|0,0:0|0:0,0:0:0:0:
448,160,13919,2,0,L|380:162,1,60,0|0,0:0|0:0,0:0:0:0:
216,264,14364,2,0,B|152:268|172:304|104:312,1,120,2|0,0:0|0:0,0:0:0:0:
225,280,15030,5,2,0:0:0:0:
311,310,15253,2,0,P|346:313|384:300,1,60,0|0,0:0|0:0,0:0:0:0:
264,200,15697,2,0,P|230:193|188:210,1,60,0|0,0:0|0:0,0:0:0:0:
162,79,16142,6,0,L|126:27,1,60,0|0,1:0|0:0,0:0:0:0:
248,88,16475,2,0,L|236:20,1,60,0|0,0:0|0:0,0:0:0:0:
306,148,16808,2,0,L|322:120,1,30,0|0,0:0|0:0,0:0:0:0:
388,252,17031,2,0,L|320:224,1,60,0|0,0:0|0:0,0:0:0:0:
280,296,17364,2,0,L|248:232,1,60,0|0,0:0|0:0,0:0:0:0:
176,280,17697,2,0,L|168:224,1,30,0|0,1:0|0:0,0:0:0:0:
112,168,17919,6,0,P|160:152|196:156,1,60,0|0,1:0|0:0,0:0:0:0:
248,168,18253,2,0,P|280:168|312:160,1,60,0|0,0:0|0:0,0:0:0:0:
360,88,18586,2,0,L|360:52,1,30,0|0,0:0|0:0,0:0:0:0:
432,152,18808,2,0,L|436:212,1,60,0|0,0:0|0:0,0:0:0:0:
368,264,19142,2,0,L|368:328,1,60,0|0,0:0|0:0,0:0:0:0:
268,340,19475,2,0,L|272:292,1,30,2|0,0:3|0:0,0:0:0:0:
268,340,19697,6,0,P|200:328|140:336,1,120,0|2,1:0|0:0,0:0:0:0:
64,348,20364,1,0,0:0:0:0:
164,192,20586,2,0,P|176:236|176:272,1,60,0|0,0:0|0:0,0:0:0:0:
68,168,21031,1,2,0:0:0:0:
136,96,21253,1,0,1:0:0:0:
240,128,21475,6,0,P|276:120|316:104,1,60,0|0,1:0|0:0,0:0:0:0:
380,72,21919,1,2,0:0:0:0:
168,84,22142,2,0,P|132:92|92:108,1,60,0|0,1:0|0:0,0:0:0:0:
28,140,22586,1,0,0:0:0:0:
176,240,22808,2,0,P|172:192|164:168,1,60,2|0,0:0|0:0,0:0:0:0:
116,308,23253,6,0,P|160:324|192:324,1,60,0|0,1:0|0:0,0:0:0:0:
256,320,23586,2,0,P|296:312|336:288,1,60,0|0,0:0|0:0,0:0:0:0:
378,252,23919,2,0,L|401:225,1,30,0|0,0:0|0:0,0:0:0:0:
420,104,24142,2,0,L|372:156,1,60,0|0,0:0|0:0,0:0:0:0:
312,92,24475,2,0,L|256:116,1,60,0|0,0:0|0:0,0:0:0:0:
200,56,24808,2,0,L|160:60,1,30,0|0,1:0|0:0,0:0:0:0:
104,128,25031,6,0,P|104:172|112:200,1,60,0|0,1:0|0:0,0:0:0:0:
72,256,25364,2,0,P|100:276|132:288,1,60,0|0,0:0|0:0,0:0:0:0:
160,356,25697,2,0,L|196:356,1,30,0|0,0:0|0:0,0:0:0:0:
264,308,25919,2,0,L|328:308,1,60,0|0,0:0|0:0,0:0:0:0:
312,224,26253,2,0,L|376:224,1,60,0|0,0:0|0:0,0:0:0:0:
368,144,26586,2,0,L|405:144,1,30,2|0,0:3|0:0,0:0:0:0:
316,72,26808,6,0,P|280:108|276:152,1,90,0|0,1:0|0:0,0:0:0:0:
280,160,27253,1,2,0:0:0:0:
256,192,27475,12,0,29920,0:0:0:0:
68,204,30142,5,0,0:0:0:0:
188,160,30364,6,0,P|136:156|68:192,1,120,0|0,3:0|0:0,0:0:0:0:
259,279,31142,1,0,0:0:0:0:
313,224,31253,2,0,P|329:172|325:140,1,60,0|0,0:0|0:0,0:0:0:0:
164,36,31697,1,2,0:0:0:0:
244,76,31919,1,0,0:0:0:0:
324,36,32142,5,0,0:0:0:0:
336,32,32253,2,0,P|388:36|428:60,1,90,0|0,0:0|0:0,0:0:0:0:
460,207,32919,1,0,0:0:0:0:
456,224,33031,2,0,L|436:300,1,60,0|0,0:0|0:0,0:0:0:0:
296,288,33475,2,0,P|324:268|360:264,1,60,2|0,0:0|0:0,0:0:0:0:
204,200,33919,6,0,P|196:292|188:324,1,120,0|0,0:0|0:0,0:0:0:0:
66,224,34586,2,0,P|74:132|76:112,1,90,2|0,0:0|0:0,0:0:0:0:
76,112,35031,1,0,0:0:0:0:
320,120,35253,2,0,P|368:112|392:100,1,60,2|0,0:0|0:0,0:0:0:0:
224,68,35697,6,0,P|216:132|248:196,1,120,0|0,0:0|0:0,0:0:0:0:
390,221,36364,2,0,P|398:157|366:93,1,120,2|0,0:0|0:0,0:0:0:0:
324,276,37031,2,0,P|352:300|380:304,1,60,2|0,0:0|0:0,0:0:0:0:
276,156,37475,6,0,L|216:200,1,60,0|0,3:0|0:0,0:0:0:0:
84,244,37808,1,0,0:0:0:0:
80,240,37919,2,0,L|136:196,1,60,0|2,0:0|0:0,0:0:0:0:
204,256,38253,1,0,0:0:0:0:
204,256,38364,2,0,L|148:300,1,60,0|0,0:0|0:0,0:0:0:0:
300,72,38808,2,0,P|352:92|376:144,1,90,2|0,0:0|0:0,0:0:0:0:
376,144,39253,5,0,0:0:0:0:
393,311,39475,1,0,0:0:0:0:
232,240,39697,2,0,P|264:232|308:240,1,60,0|2,0:0|0:0,0:0:0:0:
228,320,40031,1,0,0:0:0:0:
216,320,40142,2,0,P|176:304|152:268,1,60,0|0,0:0|0:0,0:0:0:0:
312,152,40586,2,0,P|304:192|296:220,1,60,2|0,0:0|0:0,0:0:0:0:
90,65,41031,6,0,B|146:41|146:41|210:57,1,120,0|0,0:0|0:0,0:0:0:0:
420,96,41697,2,0,B|364:120|364:120|312:108,1,90,2|0,0:0|0:0,0:0:0:0:
312,108,42142,1,0,0:0:0:0:
478,190,42364,2,0,L|490:262,1,60,2|0,0:0|0:0,0:0:0:0:
340,224,42808,6,0,P|348:276|332:348,1,120,0|0,0:0|0:0,0:0:0:0:
153,327,43475,2,0,P|145:275|161:203,1,120,2|0,0:0|0:0,0:0:0:0:
169,195,44031,1,0,0:0:0:0:
181,179,44142,1,2,0:0:0:0:
319,111,44364,1,0,0:0:0:0:
476,180,44586,6,0,P|444:188|404:180,1,60,0|0,3:0|0:0,0:0:0:0:
320,232,44919,1,0,0:0:0:0:
320,240,45031,2,0,L|324:312,1,60,0|2,0:0|0:0,0:0:0:0:
236,160,45364,1,0,0:0:0:0:
236,164,45476,2,0,L|232:236,1,60,0|0,0:0|0:0,0:0:0:0:
160,328,45919,2,0,L|164:280,1,30,2|0,0:0|0:0,0:0:0:0:
104,176,46142,2,0,L|106:205,1,30,0|0,0:0|0:0,0:0:0:0:
40,80,46364,6,0,P|112:76|128:72,1,60,0|0,0:0|0:0,0:0:0:0:
208,32,46697,1,0,0:0:0:0:
212,32,46808,2,0,P|248:44|272:72,1,60,0|2,0:0|0:0,0:0:0:0:
368,84,47142,1,0,0:0:0:0:
372,84,47253,2,0,P|392:124|392:156,1,60,0|0,0:0|0:0,0:0:0:0:
168,200,47697,2,0,L|100:160,1,60,2|0,0:0|0:0,0:0:0:0:
236,256,48142,6,0,P|228:296|212:328,1,60,0|0,3:0|0:0,0:0:0:0:
60,116,48586,1,0,0:0:0:0:
156,100,48808,2,0,L|224:88,1,60,2|0,0:0|0:0,0:0:0:0:
324,208,49253,2,0,L|252:192,1,60,0|2,0:0|0:0,0:0:0:0:
152,272,49697,1,0,0:0:0:0:
360,296,49919,6,0,P|400:272|412:248,1,60,0|0,0:0|0:0,0:0:0:0:
408,160,50364,1,0,0:0:0:0:
236,64,50586,2,0,L|320:68,1,60,2|0,0:0|0:0,0:0:0:0:
200,172,51031,2,0,L|128:168,1,60,0|2,0:0|0:0,0:0:0:0:
64,88,51475,1,0,0:0:0:0:
304,188,51697,6,0,P|300:264|288:332,1,120,0|0,3:0|0:0,0:0:0:0:
352,48,52364,1,2,0:0:0:0:
355,43,52475,1,0,0:0:0:0:
424,84,52586,2,0,P|428:144|436:168,1,60,0|0,3:0|0:0,0:0:0:0:
281,80,53031,1,2,0:0:0:0:
177,117,53253,1,0,0:0:0:0:
74,43,53475,6,0,P|70:103|114:163,1,120,0|0,3:0|0:0,0:0:0:0:
284,144,54142,1,2,0:0:0:0:
288,136,54253,1,0,0:0:0:0:
236,77,54364,2,0,P|188:84|165:100,1,60,0|0,3:0|0:0,0:0:0:0:
268,344,54808,2,0,L|340:316,1,60,2|2,0:0|0:0,0:0:0:0:
180,200,55253,6,0,P|172:244|180:280,1,60,0|0,3:0|0:0,0:0:0:0:
205,310,55586,1,0,0:0:0:0:
205,310,55697,1,0,3:0:0:0:
320,204,55919,1,2,0:0:0:0:
248,68,56142,2,0,L|172:72,1,60,0|0,3:0|0:0,0:0:0:0:
147,79,56475,1,0,0:0:0:0:
147,79,56586,1,0,3:0:0:0:
81,315,56808,1,2,0:0:0:0:
256,192,57031,12,0,58142,0:0:0:0:
348,184,58364,5,0,0:0:0:0:
156,244,58586,1,2,3:2:0:0:
180,176,58808,2,0,P|221:159|220:275,1,225,0|0,3:0|0:0,0:0:0:0:
156,248,59697,1,8,0:0:0:0:
71,20,60142,5,0,3:0:0:0:
72,24,60586,2,0,P|124:48|176:40,1,90.0000034332277,4|0,3:2|0:0,0:0:0:0:
220,32,60919,1,0,0:0:0:0:
256,88,61031,2,0,L|248:144,1,45.0000017166138,2|0,0:0|0:0,0:0:0:0:
308,256,61253,2,0,L|314:211,1,45.0000017166138,2|0,0:0|0:0,0:0:0:0:
468,72,61475,6,0,P|432:76|380:92,1,90.0000034332277,8|0,0:0|3:0,0:0:0:0:
404,224,61808,1,0,0:0:0:0:
444,276,61919,2,0,P|444:304|436:332,1,45.0000017166138,2|0,0:0|0:0,0:0:0:0:
364,356,62142,5,0,0:0:0:0:
352,352,62197,1,0,0:0:0:0:
340,348,62253,1,0,0:0:0:0:
328,344,62308,1,0,0:0:0:0:
316,340,62364,6,0,P|280:352|224:348,1,90.0000034332277,0|0,3:0|0:0,0:0:0:0:
172,320,62697,1,0,0:0:0:0:
200,260,62808,2,0,P|224:248|248:240,1,45.0000017166138,2|0,0:0|0:0,0:0:0:0:
60,128,63031,2,0,P|80:152|96:164,1,45.0000017166138,2|0,0:0|0:0,0:0:0:0:
208,52,63253,6,0,P|264:56|296:56,1,67.5000025749207,8|0,0:0|0:0,0:0:0:0:
296,72,63475,6,0,P|324:68|344:56,1,45.0000017166138,2|0,0:0|0:0,0:0:0:0:
424,172,63697,2,0,P|406:149|386:138,1,45.0000017166138,0|0,3:0|0:0,0:0:0:0:
456,16,63919,2,0,P|445:42|445:65,1,45.0000017166138,2|0,0:0|0:0,0:0:0:0:
452,264,64142,6,0,P|388:264|352:272,1,90.0000034332277,0|0,3:0|0:0,0:0:0:0:
308,308,64475,1,0,0:0:0:0:
244,332,64586,2,0,L|192:328,1,45.0000017166138,2|0,0:0|0:0,0:0:0:0:
64,264,64808,2,0,L|116:260,1,45.0000017166138,0|0,3:0|0:0,0:0:0:0:
188,120,65031,6,0,P|180:152|184:176,1,45.0000017166138,8|0,0:0|0:0,0:0:0:0:
260,172,65253,2,0,P|268:140|264:116,1,45.0000017166138,0|0,3:0|0:0,0:0:0:0:
416,344,65475,6,0,P|424:296|444:256,1,90.0000034332277,0|2,0:0|0:0,0:0:0:0:
432,48,65919,6,0,L|340:52,1,90.0000034332277,0|0,3:0|0:0,0:0:0:0:
276,68,66253,1,0,0:0:0:0:
216,36,66364,2,0,P|176:36|152:40,1,45.0000017166138,2|0,0:0|0:0,0:0:0:0:
32,152,66586,2,0,P|72:152|96:156,1,45.0000017166138,2|0,0:0|0:0,0:0:0:0:
260,264,66808,6,0,B|220:272|220:272|216:280|216:280|176:288,1,90.0000034332277,8|2,0:0|0:0,0:0:0:0:
120,324,67142,1,0,0:0:0:0:
68,284,67253,2,0,L|68:232,1,45.0000017166138,0|0,3:0|0:0,0:0:0:0:
344,296,67475,2,0,L|344:341,1,45.0000017166138,0|0,0:0|0:0,0:0:0:0:
216,184,67697,6,0,P|216:132|224:76,1,90.0000034332277,0|0,3:0|0:0,0:0:0:0:
276,56,68031,1,0,0:0:0:0:
336,84,68142,2,0,P|368:112|392:128,1,45.0000017166138,2|0,0:0|0:0,0:0:0:0:
288,256,68364,2,0,P|256:284|232:300,1,45.0000017166138,2|0,0:0|0:0,0:0:0:0:
28,132,68586,6,0,P|112:132|140:108,1,90.0000034332277,8|0,0:0|3:0,0:0:0:0:
164,84,68919,1,0,0:0:0:0:
140,20,69031,2,0,L|84:16,1,45.0000017166138,2|0,0:0|0:0,0:0:0:0:
224,148,69253,5,0,0:0:0:0:
236,144,69308,1,0,0:0:0:0:
248,140,69364,1,0,0:0:0:0:
260,136,69420,1,0,0:0:0:0:
272,132,69475,6,0,P|320:124|376:128,1,90.0000034332277,0|0,3:0|0:0,0:0:0:0:
408,172,69808,1,0,0:0:0:0:
412,240,69919,2,0,P|408:272|400:296,1,45.0000017166138,2|0,0:0|0:0,0:0:0:0:
232,304,70142,2,0,P|236:336|244:360,1,45.0000017166138,2|0,0:0|0:0,0:0:0:0:
92,176,70364,6,0,L|100:260,1,67.5000025749207,8|0,0:0|0:0,0:0:0:0:
100,268,70642,2,0,P|132:260|148:260,1,45.0000017166138,0|0,0:0|0:0,0:0:0:0:
240,168,70808,2,0,P|208:160|192:160,1,45.0000017166138,0|0,3:0|0:0,0:0:0:0:
0,108,71031,2,0,P|32:100|48:100,1,45.0000017166138,2|0,0:0|0:0,0:0:0:0:
228,24,71253,6,0,P|280:32|328:32,1,90.0000034332277,0|0,3:0|0:0,0:0:0:0:
380,56,71586,1,0,0:0:0:0:
412,116,71697,2,0,L|400:168,1,45.0000017166138,2|0,0:0|0:0,0:0:0:0:
448,344,71919,2,0,L|437:300,1,45.0000017166138,0|0,3:0|0:0,0:0:0:0:
360,244,72142,6,0,P|308:252|264:252,1,90.0000034332277,8|0,0:0|3:0,0:0:0:0:
270,252,72586,6,0,P|224:272|152:336,1,135.000005149841,4|0,0:3|0:0,0:0:0:0:
20,152,72808,6,0,B|80:160|80:160|84:168|84:168|156:176,1,135.000005149841,8|0,0:3|0:0,0:0:0:0:
304,320,73031,6,0,P|348:316|388:296,1,90.0000034332277,4|0,3:2|0:0,0:0:0:0:
424,240,73364,1,0,0:0:0:0:
392,180,73475,2,0,P|360:172|332:172,1,45.0000017166138,2|0,0:0|0:0,0:0:0:0:
136,352,73697,2,0,L|130:243,1,90.0000034332277,2|8,0:0|0:0,0:0:0:0:
128,195,74031,1,0,0:0:0:0:
184,156,74142,2,0,P|219:151|242:140,1,45.0000017166138,2|0,0:0|0:0,0:0:0:0:
68,68,74364,6,0,P|116:52|168:72,1,90.0000034332277,0|0,3:0|0:0,0:0:0:0:
280,264,74808,6,0,B|320:260|320:260|328:264|328:264|372:260,1,90.0000034332277,0|0,3:0|0:0,0:0:0:0:
432,284,75142,1,0,0:0:0:0:
484,240,75253,2,0,P|488:204|480:176,1,45.0000017166138,2|0,0:0|0:0,0:0:0:0:
312,60,75475,2,0,P|308:100|344:148,1,90.0000034332277,2|8,0:0|0:0,0:0:0:0:
399,155,75808,1,0,0:0:0:0:
456,120,75919,2,0,L|502:120,1,45.0000017166138,0|0,3:0|0:0,0:0:0:0:
252,191,76142,6,0,P|189:187|146:189,1,90.0000034332277,2|0,0:0|0:0,0:0:0:0:
145,193,76419,1,0,0:0:0:0:
124,210,76475,1,0,0:0:0:0:
116,234,76531,1,0,0:0:0:0:
125,258,76586,6,0,B|188:244|184:300|251:289,1,135.000005149841,0|0,3:0|0:0,0:0:0:0:
333,220,77031,2,0,P|373:216|392:218,1,45.0000017166138,2|0,0:0|0:0,0:0:0:0:
410,29,77253,2,0,P|417:77|389:119,1,90.0000034332277,2|8,0:0|0:0,0:0:0:0:
335,138,77586,1,0,0:0:0:0:
277,102,77697,6,0,L|264:42,1,45.0000017166138,2|0,0:0|0:0,0:0:0:0:
207,162,77919,2,0,L|194:222,1,45.0000017166138,0|0,3:0|0:0,0:0:0:0:
108,71,78142,2,0,L|95:11,1,45.0000017166138,2|0,0:0|0:0,0:0:0:0:
27,224,78364,6,0,L|62:324,1,90.0000034332277,0|0,3:0|0:0,0:0:0:0:
111,348,78697,1,0,0:0:0:0:
170,317,78808,2,0,P|214:310|230:309,1,45.0000017166138,2|0,0:0|0:0,0:0:0:0:
343,202,79031,2,0,P|299:195|283:194,1,45.0000017166138,0|0,3:0|0:0,0:0:0:0:
406,317,79253,6,0,P|407:344|416:365,1,45.0000017166138,8|0,0:0|0:0,0:0:0:0:
494,345,79475,2,0,P|493:322|486:301,1,45.0000017166138,0|0,3:0|0:0,0:0:0:0:
164,232,79697,6,0,P|223:239|259:260,1,90.0000034332277,2|2,0:0|0:0,0:0:0:0:
452,24,80142,6,0,B|408:32|408:32|404:36|404:36|360:44,1,90.0000034332277,0|0,3:0|0:0,0:0:0:0:
312,88,80475,1,0,0:0:0:0:
320,156,80586,2,0,P|336:184|352:200,1,45.0000017166138,2|0,0:0|0:0,0:0:0:0:
456,340,80808,2,0,P|396:340|352:344,1,90.0000034332277,2|8,0:0|0:0,0:0:0:0:
300,352,81142,1,0,0:0:0:0:
244,312,81253,2,0,L|248:264,1,45.0000017166138,2|0,0:0|0:0,0:0:0:0:
64,104,81475,6,0,P|68:152|88:192,1,90.0000034332277,0|0,3:0|0:0,0:0:0:0:
228,40,81919,6,0,P|272:48|328:52,1,90.0000034332277,0|0,3:0|0:0,0:0:0:0:
380,76,82253,1,0,0:0:0:0:
400,144,82364,2,0,P|396:176|388:192,1,45.0000017166138,2|0,0:0|0:0,0:0:0:0:
116,200,82586,2,0,P|112:248|120:292,1,90.0000034332277,2|8,0:0|0:0,0:0:0:0:
168,336,82919,1,0,0:0:0:0:
236,328,83031,2,0,L|288:320,1,45.0000017166138,0|0,3:0|0:0,0:0:0:0:
472,164,83253,6,0,B|428:160|428:192|384:192,1,90.0000034332277,2|0,0:0|0:0,0:0:0:0:
368,176,83531,1,0,0:0:0:0:
348,160,83586,1,0,0:0:0:0:
328,144,83642,1,0,0:0:0:0:
312,128,83697,6,0,L|212:124,1,90.0000034332277,0|0,3:0|0:0,0:0:0:0:
168,164,84031,1,0,0:0:0:0:
164,228,84142,2,0,P|172:264|184:284,1,45.0000017166138,2|0,0:0|0:0,0:0:0:0:
392,348,84364,2,0,P|408:308|400:260,1,90.0000034332277,2|8,0:0|0:0,0:0:0:0:
364,208,84697,1,0,0:0:0:0:
296,220,84808,2,0,P|272:227|232:228,1,45.0000017166138,2|0,0:0|0:0,0:0:0:0:
136,344,85031,6,0,P|96:320|44:312,2,90.0000034332277,0|2|0,3:0|0:0|3:0,0:0:0:0:
256,192,85697,12,0,87253,0:0:0:0:
