osu file format v14

[General]
AudioFilename: Selena Gomez - Evething Is Not What It Seems.mp3
AudioLeadIn: 0
PreviewTime: 32615
Countdown: 0
SampleSet: Normal
StackLeniency: 0.7
Mode: 1
LetterboxInBreaks: 0
WidescreenStoryboard: 0

[Editor]
DistanceSpacing: 1
BeatDivisor: 4
GridSize: 4
TimelineZoom: 2

[Metadata]
Title:Everything Is Not What It Seems
TitleUnicode:Everything Is Not What It Seems
Artist:Selena Gomez
ArtistUnicode:Selena Gomez
Creator:ThoomyyxD
Version:Muzukashii
Source:Wizards of Waverly Place
Tags:DakeDekaane Taiko Disney Channel
BeatmapID:247031
BeatmapSetID:91180

[Difficulty]
HPDrainRate:5
CircleSize:5
OverallDifficulty:5
ApproachRate:5
SliderMultiplier:1.4
SliderTickRate:1

[Events]
//Background and Video events
0,0,"BG.jpg",0,60
//Break Periods
//Storyboard Layer 0 (Background)
//Storyboard Layer 1 (Fail)
//Storyboard Layer 2 (Pass)
//Storyboard Layer 3 (Foreground)
//Storyboard Sound Samples

[TimingPoints]
1895,480,4,1,0,80,1,0
32615,-100,4,1,0,90,0,1
47975,-100,4,1,0,90,0,0

[HitObjects]
256,188,1895,5,0,0:0:0:0:
256,188,2135,1,0,0:0:0:0:
256,188,2375,1,0,0:0:0:0:
256,188,2615,1,0,0:0:0:0:
256,188,3095,1,8,0:0:0:0:
256,188,3335,1,0,0:0:0:0:
256,188,3815,1,0,0:0:0:0:
256,188,4055,1,0,0:0:0:0:
256,188,4295,1,0,0:0:0:0:
256,188,4535,1,0,0:0:0:0:
256,188,5015,1,8,0:0:0:0:
256,188,5255,1,8,0:0:0:0:
256,188,5735,1,0,0:0:0:0:
256,188,5975,1,0,0:0:0:0:
256,188,6215,1,0,0:0:0:0:
256,188,6455,1,0,0:0:0:0:
256,188,6935,1,8,0:0:0:0:
256,188,7175,1,0,0:0:0:0:
256,192,7655,12,0,9095,0:0:0:0:
256,188,9575,5,4,0:0:0:0:
256,188,10055,1,8,0:0:0:0:
256,188,10295,1,0,0:0:0:0:
256,188,10535,1,0,0:0:0:0:
256,188,10775,1,0,0:0:0:0:
256,188,11015,1,8,0:0:0:0:
256,188,11495,1,0,0:0:0:0:
256,188,11975,1,8,0:0:0:0:
256,188,12215,1,0,0:0:0:0:
256,188,12335,1,0,0:0:0:0:
256,188,12455,1,0,0:0:0:0:
256,188,12695,1,0,0:0:0:0:
256,188,12935,1,8,0:0:0:0:
256,188,13175,1,0,0:0:0:0:
256,188,13415,1,0,0:0:0:0:
256,188,13895,1,8,0:0:0:0:
256,188,14135,1,0,0:0:0:0:
256,188,14375,1,0,0:0:0:0:
256,188,14615,1,0,0:0:0:0:
256,188,14855,1,8,0:0:0:0:
256,192,15335,12,0,16775,0:0:0:0:
256,188,17255,5,4,0:0:0:0:
256,188,17495,1,0,0:0:0:0:
256,188,17735,1,8,0:0:0:0:
244,268,17975,1,0,0:0:0:0:
192,236,18455,1,0,0:0:0:0:
256,188,18695,1,8,0:0:0:0:
256,188,18935,1,8,0:0:0:0:
256,188,19055,1,8,0:0:0:0:
256,188,19175,1,8,0:0:0:0:
256,188,19415,1,0,0:0:0:0:
256,188,19655,1,8,0:0:0:0:
256,188,20135,1,0,0:0:0:0:
256,188,20375,1,0,0:0:0:0:
256,188,20615,1,8,0:0:0:0:
256,188,20855,1,0,0:0:0:0:
256,188,21095,1,0,0:0:0:0:
256,188,21575,1,8,0:0:0:0:
256,188,21815,1,0,0:0:0:0:
256,188,22055,1,0,0:0:0:0:
256,188,22295,5,0,0:0:0:0:
256,188,22535,1,8,0:0:0:0:
256,188,23015,1,0,0:0:0:0:
256,188,23495,1,8,0:0:0:0:
256,188,23735,1,0,0:0:0:0:
256,188,24215,1,8,0:0:0:0:
256,188,24455,1,8,0:0:0:0:
256,188,24935,1,0,0:0:0:0:
256,188,25175,1,8,0:0:0:0:
256,188,25295,1,8,0:0:0:0:
256,188,25415,1,8,0:0:0:0:
256,188,25655,1,0,0:0:0:0:
256,188,25895,1,0,0:0:0:0:
256,188,26135,1,0,0:0:0:0:
256,188,26375,1,8,0:0:0:0:
256,188,26855,1,0,0:0:0:0:
256,188,27095,1,0,0:0:0:0:
256,188,27335,1,8,0:0:0:0:
256,188,27575,1,0,0:0:0:0:
256,188,28055,1,0,0:0:0:0:
256,188,28295,1,8,0:0:0:0:
256,188,28535,1,8,0:0:0:0:
256,188,28775,1,0,0:0:0:0:
256,188,29255,1,8,0:0:0:0:
256,188,29495,1,0,0:0:0:0:
256,188,29975,1,0,0:0:0:0:
256,188,30215,1,8,0:0:0:0:
256,188,30455,1,0,0:0:0:0:
256,188,30935,1,0,0:0:0:0:
256,188,31175,1,8,0:0:0:0:
256,188,31415,1,0,0:0:0:0:
256,188,31655,1,8,0:0:0:0:
256,188,32615,1,4,0:0:0:0:
256,188,32855,1,0,0:0:0:0:
256,188,33095,1,8,0:0:0:0:
256,188,33335,1,0,0:0:0:0:
256,188,33815,1,0,0:0:0:0:
256,188,34055,1,8,0:0:0:0:
256,188,34295,1,0,0:0:0:0:
256,188,34415,1,0,0:0:0:0:
256,188,34535,1,0,0:0:0:0:
256,188,34775,1,0,0:0:0:0:
256,188,35015,1,8,0:0:0:0:
256,188,35495,1,0,0:0:0:0:
256,188,35735,1,0,0:0:0:0:
256,188,35975,1,8,0:0:0:0:
256,188,36215,1,0,0:0:0:0:
256,188,36335,1,0,0:0:0:0:
256,188,36455,1,0,0:0:0:0:
256,188,36935,1,8,0:0:0:0:
256,188,37175,1,0,0:0:0:0:
256,188,37415,1,0,0:0:0:0:
256,188,37895,1,8,0:0:0:0:
256,188,38135,1,0,0:0:0:0:
256,188,38255,1,0,0:0:0:0:
256,188,38375,1,0,0:0:0:0:
256,188,38615,1,0,0:0:0:0:
256,188,38855,1,8,0:0:0:0:
256,188,39095,1,0,0:0:0:0:
256,188,39575,1,8,0:0:0:0:
256,188,39815,1,8,0:0:0:0:
256,188,40295,1,4,0:0:0:0:
256,188,40535,1,8,0:0:0:0:
256,188,40655,1,8,0:0:0:0:
256,188,40775,1,8,0:0:0:0:
256,188,41015,1,0,0:0:0:0:
256,188,41255,1,0,0:0:0:0:
256,188,41735,1,8,0:0:0:0:
256,188,41975,1,0,0:0:0:0:
256,188,42095,1,0,0:0:0:0:
256,188,42215,1,0,0:0:0:0:
256,188,42455,1,0,0:0:0:0:
256,188,42695,1,8,0:0:0:0:
256,188,42935,1,0,0:0:0:0:
256,188,43415,1,0,0:0:0:0:
256,188,43655,1,8,0:0:0:0:
256,188,43895,1,8,0:0:0:0:
256,188,44135,1,0,0:0:0:0:
256,188,44375,1,0,0:0:0:0:
256,188,44615,1,8,0:0:0:0:
256,188,44855,1,0,0:0:0:0:
256,188,45335,1,0,0:0:0:0:
256,188,45575,1,8,0:0:0:0:
256,188,45815,1,0,0:0:0:0:
256,188,46055,1,0,0:0:0:0:
256,188,46295,1,0,0:0:0:0:
256,188,46535,1,8,0:0:0:0:
256,188,47015,1,8,0:0:0:0:
256,188,47495,1,0,0:0:0:0:
256,188,47735,1,0,0:0:0:0:
256,188,47975,1,8,0:0:0:0:
256,188,48455,1,8,0:0:0:0:
256,188,48695,1,0,0:0:0:0:
256,188,49175,1,0,0:0:0:0:
256,188,49415,1,8,0:0:0:0:
256,188,49895,1,0,0:0:0:0:
256,188,50375,1,12,0:0:0:0:
