osu file format v14

[General]
AudioFilename: e of s.mp3
AudioLeadIn: 0
PreviewTime: 60022
Countdown: 0
SampleSet: Normal
StackLeniency: 0.7
Mode: 3
LetterboxInBreaks: 0
SpecialStyle: 0
WidescreenStoryboard: 0

[Editor]
Bookmarks: 121335
DistanceSpacing: 1.4
BeatDivisor: 4
GridSize: 8
TimelineZoom: 2.1

[Metadata]
Title:2V-ALK
TitleUnicode:2V-ALK
Artist:Selections
ArtistUnicode:Selections
Creator:SK_la
Version:mizuki - e of s//SC
Source:
Tags:10K
BeatmapID:1440635
BeatmapSetID:681350

[Difficulty]
HPDrainRate:8
CircleSize:10
OverallDifficulty:7
ApproachRate:5
SliderMultiplier:1.4
SliderTickRate:1

[Events]
//Background and Video events
0,0,"e of s.jpg",0,0
//Break Periods
//Storyboard Layer 0 (Background)
//Storyboard Layer 1 (Fail)
//Storyboard Layer 2 (Pass)
//Storyboard Layer 3 (Foreground)
//Storyboard Layer 4 (Overlay)
//Storyboard Sound Samples

[TimingPoints]
210,375,4,1,0,50,1,0
59647,-71.4285714285714,4,1,0,50,0,0
59835,-133.333333333333,4,1,0,50,0,0
60022,-83.3333333333333,4,1,0,50,0,0
60210,-125,4,1,0,50,0,0
60960,-125,4,1,0,50,0,0
61710,-166.666666666667,4,1,0,50,0,0
62460,-250,4,1,0,50,0,0
62835,-500,4,1,0,50,0,0
63022,-66.6666666666667,4,1,0,50,0,0
63210,-100,4,1,0,50,0,1
87210,-100,4,1,0,50,0,0
111210,-105.263157894737,4,1,0,50,0,0
117210,-111.111111111111,4,1,0,50,0,0
121335,-125,4,1,0,50,0,0
122366,-66.6666666666667,4,1,0,50,0,0
122460,-100,4,1,0,50,0,0
122553,-200,4,1,0,50,0,0
122647,-100,4,1,0,50,0,0
122835,-500,4,1,0,50,0,0
122928,-250,4,1,0,50,0,0
123022,-66.6666666666667,4,1,0,50,0,0
123116,-71.4285714285714,4,1,0,50,0,0
123210,375,4,1,0,50,1,0
123210,-83.3333333333333,4,1,0,50,0,1
123397,-100,4,1,0,50,0,1
147210,-100,4,1,0,50,0,0
173272,-90.9090909090909,4,1,0,50,0,0
173741,-83.3333333333333,4,1,0,50,0,0
174022,-133.333333333333,4,1,0,50,0,0
174116,-100,4,1,0,50,0,0
174210,-80,4,1,0,50,0,1
174303,-100,4,1,0,50,0,1
198210,-100,4,1,0,50,0,0

[HitObjects]
281,192,210,5,0,0:0:0:0:
179,192,210,1,0,0:0:0:0:
76,192,397,1,0,0:0:0:0:
128,192,397,1,0,0:0:0:0:
384,192,397,128,0,1147:0:0:0:0:
76,192,772,1,0,0:0:0:0:
128,192,772,1,0,0:0:0:0:
281,192,772,1,0,0:0:0:0:
76,192,1147,1,0,0:0:0:0:
128,192,1147,1,0,0:0:0:0:
332,192,1335,1,0,0:0:0:0:
179,192,1335,1,0,0:0:0:0:
76,192,1335,1,0,0:0:0:0:
435,192,1522,128,0,2085:0:0:0:0:
128,192,1522,1,0,0:0:0:0:
25,192,1522,1,0,0:0:0:0:
230,192,1710,1,0,0:0:0:0:
332,192,1897,1,0,0:0:0:0:
486,192,2085,128,0,2835:0:0:0:0:
230,192,2085,1,0,0:0:0:0:
281,192,3022,1,0,0:0:0:0:
76,192,3022,1,0,0:0:0:0:
486,192,3210,128,0,3960:0:0:0:0:
230,192,3210,1,0,0:0:0:0:
384,192,3397,1,0,0:0:0:0:
179,192,3397,1,0,0:0:0:0:
128,192,3397,1,0,0:0:0:0:
384,192,3772,1,0,0:0:0:0:
128,192,3772,1,0,0:0:0:0:
179,192,3772,1,0,0:0:0:0:
384,192,4147,1,0,0:0:0:0:
128,192,4147,1,0,0:0:0:0:
179,192,4147,1,0,0:0:0:0:
332,192,4335,1,0,0:0:0:0:
76,192,4335,1,0,0:0:0:0:
179,192,4335,1,0,0:0:0:0:
435,192,4522,128,0,5085:0:0:0:0:
230,192,4522,1,0,0:0:0:0:
128,192,4522,1,0,0:0:0:0:
332,192,5085,128,0,6022:0:0:0:0:
25,192,5085,1,0,0:0:0:0:
128,192,5085,1,0,0:0:0:0:
76,192,5835,1,0,0:0:0:0:
281,192,6022,1,0,0:0:0:0:
230,192,6022,1,0,0:0:0:0:
25,192,6210,1,0,0:0:0:0:
384,192,6210,1,0,0:0:0:0:
435,192,6397,1,0,0:0:0:0:
384,192,6397,1,0,0:0:0:0:
128,192,6397,128,0,7147:0:0:0:0:
435,192,6772,1,0,0:0:0:0:
384,192,6772,1,0,0:0:0:0:
25,192,6772,1,0,0:0:0:0:
435,192,7147,1,0,0:0:0:0:
384,192,7147,1,0,0:0:0:0:
76,192,7335,1,0,0:0:0:0:
332,192,7335,1,0,0:0:0:0:
435,192,7335,1,0,0:0:0:0:
179,192,7522,128,0,8085:0:0:0:0:
384,192,7522,1,0,0:0:0:0:
486,192,7522,1,0,0:0:0:0:
281,192,7710,1,0,0:0:0:0:
76,192,7897,1,0,0:0:0:0:
230,192,8085,128,0,8835:0:0:0:0:
281,192,8085,1,0,0:0:0:0:
230,192,9022,1,0,0:0:0:0:
435,192,9022,1,0,0:0:0:0:
25,192,9210,128,0,9960:0:0:0:0:
281,192,9210,1,0,0:0:0:0:
128,192,9397,1,0,0:0:0:0:
332,192,9397,1,0,0:0:0:0:
384,192,9397,1,0,0:0:0:0:
128,192,9772,1,0,0:0:0:0:
384,192,9772,1,0,0:0:0:0:
332,192,9772,1,0,0:0:0:0:
128,192,10147,1,0,0:0:0:0:
384,192,10147,1,0,0:0:0:0:
332,192,10147,1,0,0:0:0:0:
76,192,10335,1,0,0:0:0:0:
281,192,10335,1,0,0:0:0:0:
179,192,10522,128,0,11085:0:0:0:0:
384,192,10522,1,0,0:0:0:0:
486,192,10522,1,0,0:0:0:0:
332,192,10710,1,0,0:0:0:0:
230,192,10710,1,0,0:0:0:0:
486,192,10897,1,0,0:0:0:0:
435,192,10897,1,0,0:0:0:0:
76,192,11085,128,0,12022:0:0:0:0:
128,192,11085,1,0,0:0:0:0:
179,192,11835,1,0,0:0:0:0:
384,192,12022,1,0,0:0:0:0:
332,192,12210,1,0,0:0:0:0:
179,192,12210,1,0,0:0:0:0:
76,192,12397,1,0,0:0:0:0:
332,192,12397,1,0,0:0:0:0:
25,192,12585,1,0,0:0:0:0:
128,192,12772,1,0,0:0:0:0:
332,192,12772,1,0,0:0:0:0:
435,192,12772,1,0,0:0:0:0:
230,192,12960,1,0,0:0:0:0:
332,192,13147,1,0,0:0:0:0:
179,192,13147,1,0,0:0:0:0:
76,192,13335,1,0,0:0:0:0:
230,192,13522,1,0,0:0:0:0:
384,192,13522,1,0,0:0:0:0:
25,192,13710,1,0,0:0:0:0:
281,192,13710,1,0,0:0:0:0:
179,192,13897,1,0,0:0:0:0:
486,192,14085,1,0,0:0:0:0:
128,192,14085,1,0,0:0:0:0:
332,192,14085,1,0,0:0:0:0:
435,192,14085,1,0,0:0:0:0:
76,192,14460,1,0,0:0:0:0:
384,192,14460,1,0,0:0:0:0:
179,192,14647,1,0,0:0:0:0:
281,192,14647,1,0,0:0:0:0:
25,192,15022,1,0,0:0:0:0:
384,192,15022,1,0,0:0:0:0:
128,192,15210,1,0,0:0:0:0:
332,192,15210,1,0,0:0:0:0:
179,192,15397,1,0,0:0:0:0:
435,192,15397,1,0,0:0:0:0:
25,192,15585,1,0,0:0:0:0:
332,192,15585,1,0,0:0:0:0:
76,192,15772,1,0,0:0:0:0:
486,192,15772,1,0,0:0:0:0:
230,192,15960,1,0,0:0:0:0:
332,192,15960,1,0,0:0:0:0:
25,192,16147,1,0,0:0:0:0:
281,192,16147,1,0,0:0:0:0:
128,192,16335,1,0,0:0:0:0:
435,192,16522,1,0,0:0:0:0:
179,192,16522,1,0,0:0:0:0:
384,192,16710,1,0,0:0:0:0:
25,192,16710,1,0,0:0:0:0:
486,192,16897,1,0,0:0:0:0:
76,192,16897,1,0,0:0:0:0:
281,192,17085,1,0,0:0:0:0:
179,192,17085,1,0,0:0:0:0:
486,192,17460,1,0,0:0:0:0:
76,192,17460,1,0,0:0:0:0:
281,192,17647,1,0,0:0:0:0:
179,192,17647,1,0,0:0:0:0:
486,192,18022,1,0,0:0:0:0:
76,192,18022,1,0,0:0:0:0:
281,192,18210,1,0,0:0:0:0:
230,192,18210,1,0,0:0:0:0:
435,192,18210,1,0,0:0:0:0:
25,192,18397,1,0,0:0:0:0:
384,192,18397,1,0,0:0:0:0:
230,192,18585,1,0,0:0:0:0:
332,192,18585,1,0,0:0:0:0:
25,192,18772,1,0,0:0:0:0:
435,192,18772,1,0,0:0:0:0:
230,192,18960,1,0,0:0:0:0:
128,192,18960,1,0,0:0:0:0:
486,192,18960,1,0,0:0:0:0:
76,192,19147,1,0,0:0:0:0:
384,192,19335,1,0,0:0:0:0:
230,192,19522,1,0,0:0:0:0:
486,192,19522,1,0,0:0:0:0:
25,192,19710,1,0,0:0:0:0:
281,192,19710,1,0,0:0:0:0:
230,192,19897,1,0,0:0:0:0:
332,192,19897,1,0,0:0:0:0:
25,192,20085,1,0,0:0:0:0:
76,192,20085,1,0,0:0:0:0:
486,192,20085,1,0,0:0:0:0:
435,192,20460,1,0,0:0:0:0:
76,192,20460,1,0,0:0:0:0:
486,192,20647,1,0,0:0:0:0:
179,192,20647,1,0,0:0:0:0:
281,192,21022,1,0,0:0:0:0:
128,192,21022,1,0,0:0:0:0:
384,192,21210,1,0,0:0:0:0:
76,192,21210,1,0,0:0:0:0:
486,192,21397,1,0,0:0:0:0:
179,192,21397,1,0,0:0:0:0:
332,192,21585,1,0,0:0:0:0:
76,192,21585,1,0,0:0:0:0:
384,192,21772,1,0,0:0:0:0:
179,192,21772,1,0,0:0:0:0:
486,192,21960,1,0,0:0:0:0:
25,192,21960,1,0,0:0:0:0:
179,192,22147,1,0,0:0:0:0:
332,192,22335,1,0,0:0:0:0:
230,192,22335,128,0,23460:0:0:0:0:
486,192,22522,1,0,0:0:0:0:
25,192,22522,1,0,0:0:0:0:
281,192,22710,1,0,0:0:0:0:
128,192,22710,1,0,0:0:0:0:
384,192,22897,1,0,0:0:0:0:
76,192,22897,1,0,0:0:0:0:
486,192,23085,5,0,0:0:0:0:
128,192,23085,1,0,0:0:0:0:
332,192,23085,128,0,23835:0:0:0:0:
128,192,23460,1,0,0:0:0:0:
230,192,23647,1,0,0:0:0:0:
486,192,23835,128,0,24116:0:0:0:0:
230,192,24210,5,0,0:0:0:0:
384,192,24210,1,0,0:0:0:0:
25,192,24210,1,0,0:0:0:0:
179,192,24397,128,0,25522:0:0:0:0:
332,192,24397,1,0,0:0:0:0:
25,192,24397,1,0,0:0:0:0:
486,192,24585,1,0,0:0:0:0:
76,192,24772,128,0,25147:0:0:0:0:
384,192,24960,1,0,0:0:0:0:
281,192,24960,128,0,25335:0:0:0:0:
25,192,25335,1,0,0:0:0:0:
486,192,25522,1,0,0:0:0:0:
76,192,25522,1,0,0:0:0:0:
25,192,25710,1,0,0:0:0:0:
384,192,25710,128,0,25991:0:0:0:0:
179,192,25897,1,0,0:0:0:0:
332,192,25991,128,0,26460:0:0:0:0:
230,192,26085,1,0,0:0:0:0:
25,192,26460,1,0,0:0:0:0:
435,192,26460,1,0,0:0:0:0:
128,192,26647,128,0,27022:0:0:0:0:
25,192,26835,1,0,0:0:0:0:
486,192,26835,1,0,0:0:0:0:
230,192,26835,128,0,27022:0:0:0:0:
332,192,27022,1,0,0:0:0:0:
486,192,27210,1,0,0:0:0:0:
76,192,27210,1,0,0:0:0:0:
281,192,27210,128,0,27585:0:0:0:0:
435,192,27397,128,0,28522:0:0:0:0:
76,192,27397,1,0,0:0:0:0:
25,192,27772,1,0,0:0:0:0:
384,192,27960,128,0,28335:0:0:0:0:
230,192,28147,128,0,28522:0:0:0:0:
25,192,28147,1,0,0:0:0:0:
76,192,28335,128,0,28710:0:0:0:0:
384,192,28522,1,0,0:0:0:0:
76,192,29085,1,0,0:0:0:0:
25,192,29085,1,0,0:0:0:0:
230,192,29085,1,0,0:0:0:0:
435,192,29085,1,0,0:0:0:0:
230,192,29272,1,0,0:0:0:0:
281,192,29272,1,0,0:0:0:0:
486,192,29272,1,0,0:0:0:0:
128,192,29460,1,0,0:0:0:0:
435,192,29647,1,0,0:0:0:0:
332,192,29647,128,0,30022:0:0:0:0:
76,192,29835,128,0,30022:0:0:0:0:
25,192,29835,1,0,0:0:0:0:
179,192,30022,1,0,0:0:0:0:
384,192,30210,1,0,0:0:0:0:
486,192,30210,1,0,0:0:0:0:
435,192,30397,1,0,0:0:0:0:
128,192,30397,1,0,0:0:0:0:
230,192,30397,1,0,0:0:0:0:
384,192,30397,128,0,31522:0:0:0:0:
332,192,30772,128,0,30960:0:0:0:0:
179,192,30772,128,0,30960:0:0:0:0:
281,192,30960,128,0,31147:0:0:0:0:
128,192,30960,128,0,31147:0:0:0:0:
179,192,31335,128,0,31522:0:0:0:0:
25,192,31335,128,0,31522:0:0:0:0:
230,192,31522,128,0,31710:0:0:0:0:
76,192,31522,128,0,31710:0:0:0:0:
384,192,31710,1,0,0:0:0:0:
128,192,32085,1,0,0:0:0:0:
179,192,32085,1,0,0:0:0:0:
281,192,32272,128,0,32460:0:0:0:0:
435,192,32272,128,0,32460:0:0:0:0:
25,192,32366,1,0,0:0:0:0:
332,192,32460,128,0,32647:0:0:0:0:
486,192,32460,128,0,32647:0:0:0:0:
128,192,32460,1,0,0:0:0:0:
179,192,32647,1,0,0:0:0:0:
76,192,32647,1,0,0:0:0:0:
332,192,33022,1,0,0:0:0:0:
384,192,33022,1,0,0:0:0:0:
230,192,33210,1,0,0:0:0:0:
25,192,33210,1,0,0:0:0:0:
486,192,33210,128,0,33397:0:0:0:0:
128,192,33397,128,0,34522:0:0:0:0:
25,192,33397,128,0,33772:0:0:0:0:
486,192,33585,128,0,33960:0:0:0:0:
230,192,33960,1,0,0:0:0:0:
76,192,33960,1,0,0:0:0:0:
25,192,34147,1,0,0:0:0:0:
435,192,34335,1,0,0:0:0:0:
384,192,34522,1,0,0:0:0:0:
25,192,34710,1,0,0:0:0:0:
25,192,34897,1,0,0:0:0:0:
281,192,35085,1,0,0:0:0:0:
230,192,35085,1,0,0:0:0:0:
486,192,35085,1,0,0:0:0:0:
486,192,35272,1,0,0:0:0:0:
230,192,35272,128,0,35647:0:0:0:0:
281,192,35272,128,0,35460:0:0:0:0:
128,192,35272,1,0,0:0:0:0:
76,192,35272,1,0,0:0:0:0:
25,192,35647,1,0,0:0:0:0:
179,192,35647,1,0,0:0:0:0:
435,192,35647,1,0,0:0:0:0:
281,192,35647,128,0,35835:0:0:0:0:
128,192,35835,1,0,0:0:0:0:
384,192,35835,1,0,0:0:0:0:
486,192,35835,1,0,0:0:0:0:
230,192,35835,128,0,36210:0:0:0:0:
435,192,36022,1,0,0:0:0:0:
281,192,36022,128,0,36210:0:0:0:0:
179,192,36022,1,0,0:0:0:0:
76,192,36022,1,0,0:0:0:0:
486,192,36210,1,0,0:0:0:0:
128,192,36210,1,0,0:0:0:0:
25,192,36210,1,0,0:0:0:0:
332,192,36210,1,0,0:0:0:0:
179,192,36397,1,0,0:0:0:0:
281,192,36397,128,0,37897:0:0:0:0:
435,192,36585,1,0,0:0:0:0:
179,192,36585,1,0,0:0:0:0:
76,192,36585,1,0,0:0:0:0:
230,192,36772,1,0,0:0:0:0:
332,192,36772,1,0,0:0:0:0:
76,192,36960,1,0,0:0:0:0:
128,192,36960,1,0,0:0:0:0:
384,192,36960,1,0,0:0:0:0:
486,192,36960,1,0,0:0:0:0:
435,192,37522,1,0,0:0:0:0:
384,192,37522,1,0,0:0:0:0:
179,192,37897,1,0,0:0:0:0:
128,192,37897,1,0,0:0:0:0:
230,192,38085,128,0,39022:0:0:0:0:
332,192,38085,1,0,0:0:0:0:
179,192,38460,1,0,0:0:0:0:
281,192,38647,1,0,0:0:0:0:
76,192,38835,1,0,0:0:0:0:
384,192,38835,1,0,0:0:0:0:
179,192,39022,1,0,0:0:0:0:
384,192,39022,1,0,0:0:0:0:
435,192,39210,128,0,40335:0:0:0:0:
230,192,39210,1,0,0:0:0:0:
128,192,39210,1,0,0:0:0:0:
281,192,39397,1,0,0:0:0:0:
384,192,39397,1,0,0:0:0:0:
179,192,39585,1,0,0:0:0:0:
76,192,39585,1,0,0:0:0:0:
230,192,39772,1,0,0:0:0:0:
332,192,39772,1,0,0:0:0:0:
384,192,39960,1,0,0:0:0:0:
486,192,39960,1,0,0:0:0:0:
128,192,39960,1,0,0:0:0:0:
76,192,39960,1,0,0:0:0:0:
179,192,40335,1,0,0:0:0:0:
332,192,40522,1,0,0:0:0:0:
76,192,40710,1,0,0:0:0:0:
230,192,40897,1,0,0:0:0:0:
435,192,41085,1,0,0:0:0:0:
128,192,41085,1,0,0:0:0:0:
384,192,41085,1,0,0:0:0:0:
128,192,41272,1,0,0:0:0:0:
25,192,41460,1,0,0:0:0:0:
179,192,41647,128,0,42116:0:0:0:0:
435,192,41647,1,0,0:0:0:0:
332,192,41835,1,0,0:0:0:0:
281,192,41835,1,0,0:0:0:0:
486,192,42210,1,0,0:0:0:0:
76,192,42210,1,0,0:0:0:0:
384,192,42210,1,0,0:0:0:0:
179,192,42210,1,0,0:0:0:0:
332,192,42397,128,0,43335:0:0:0:0:
230,192,42397,1,0,0:0:0:0:
25,192,42585,1,0,0:0:0:0:
179,192,42585,1,0,0:0:0:0:
128,192,42772,1,0,0:0:0:0:
281,192,42772,1,0,0:0:0:0:
230,192,42960,1,0,0:0:0:0:
384,192,42960,1,0,0:0:0:0:
486,192,43335,1,0,0:0:0:0:
230,192,43335,1,0,0:0:0:0:
332,192,43522,1,0,0:0:0:0:
76,192,43710,1,0,0:0:0:0:
179,192,43897,1,0,0:0:0:0:
435,192,44085,1,0,0:0:0:0:
230,192,44085,1,0,0:0:0:0:
76,192,44460,1,0,0:0:0:0:
384,192,44460,1,0,0:0:0:0:
281,192,44460,1,0,0:0:0:0:
128,192,44647,128,0,45116:0:0:0:0:
332,192,44647,1,0,0:0:0:0:
230,192,44647,1,0,0:0:0:0:
486,192,45022,1,0,0:0:0:0:
435,192,45022,1,0,0:0:0:0:
128,192,45210,1,0,0:0:0:0:
281,192,45210,1,0,0:0:0:0:
384,192,45210,1,0,0:0:0:0:
179,192,45397,1,0,0:0:0:0:
76,192,45397,1,0,0:0:0:0:
128,192,45585,1,0,0:0:0:0:
281,192,45585,1,0,0:0:0:0:
230,192,45772,1,0,0:0:0:0:
384,192,45772,1,0,0:0:0:0:
486,192,45960,1,0,0:0:0:0:
332,192,45960,1,0,0:0:0:0:
76,192,46147,1,0,0:0:0:0:
25,192,46147,1,0,0:0:0:0:
179,192,46335,1,0,0:0:0:0:
332,192,46522,1,0,0:0:0:0:
76,192,46710,1,0,0:0:0:0:
486,192,46710,1,0,0:0:0:0:
230,192,47085,1,0,0:0:0:0:
332,192,47085,1,0,0:0:0:0:
128,192,47460,1,0,0:0:0:0:
435,192,47460,1,0,0:0:0:0:
76,192,47647,1,0,0:0:0:0:
332,192,47647,1,0,0:0:0:0:
281,192,47835,1,0,0:0:0:0:
230,192,47835,1,0,0:0:0:0:
435,192,48022,1,0,0:0:0:0:
179,192,48022,1,0,0:0:0:0:
384,192,48210,128,0,48960:0:0:0:0:
25,192,48210,128,0,48960:0:0:0:0:
128,192,48960,1,0,0:0:0:0:
486,192,49147,1,0,0:0:0:0:
128,192,49335,128,0,50272:0:0:0:0:
384,192,49335,128,0,50272:0:0:0:0:
281,192,49522,1,0,0:0:0:0:
332,192,49897,1,0,0:0:0:0:
76,192,50085,1,0,0:0:0:0:
179,192,50272,1,0,0:0:0:0:
435,192,50835,1,0,0:0:0:0:
281,192,50835,1,0,0:0:0:0:
76,192,51022,128,0,52335:0:0:0:0:
281,192,51210,1,0,0:0:0:0:
332,192,51397,128,0,52335:0:0:0:0:
230,192,51397,1,0,0:0:0:0:
384,192,51960,1,0,0:0:0:0:
486,192,52147,1,0,0:0:0:0:
230,192,52335,1,0,0:0:0:0:
332,192,52522,1,0,0:0:0:0:
179,192,52897,1,0,0:0:0:0:
128,192,53085,1,0,0:0:0:0:
76,192,53085,1,0,0:0:0:0:
332,192,53272,1,0,0:0:0:0:
384,192,53272,1,0,0:0:0:0:
281,192,53647,1,0,0:0:0:0:
384,192,53835,1,0,0:0:0:0:
25,192,53835,1,0,0:0:0:0:
332,192,54210,1,0,0:0:0:0:
281,192,54210,1,0,0:0:0:0:
486,192,54210,128,0,55147:0:0:0:0:
25,192,54210,1,0,0:0:0:0:
332,192,54397,1,0,0:0:0:0:
281,192,54397,1,0,0:0:0:0:
76,192,54397,128,0,55335:0:0:0:0:
179,192,55147,128,0,55710:0:0:0:0:
435,192,55335,128,0,56272:0:0:0:0:
25,192,55522,128,0,56272:0:0:0:0:
332,192,55522,1,0,0:0:0:0:
128,192,55710,1,0,0:0:0:0:
179,192,55897,5,0,0:0:0:0:
76,192,56085,1,0,0:0:0:0:
332,192,56085,1,0,0:0:0:0:
281,192,56085,1,0,0:0:0:0:
230,192,56272,1,0,0:0:0:0:
384,192,56460,1,0,0:0:0:0:
76,192,56460,1,0,0:0:0:0:
25,192,56647,1,0,0:0:0:0:
128,192,56647,1,0,0:0:0:0:
486,192,57022,1,0,0:0:0:0:
486,192,57210,1,0,0:0:0:0:
384,192,57210,1,0,0:0:0:0:
435,192,57397,1,0,0:0:0:0:
179,192,57397,1,0,0:0:0:0:
230,192,57585,128,0,58147:0:0:0:0:
435,192,57772,128,0,58335:0:0:0:0:
25,192,57960,1,0,0:0:0:0:
128,192,58147,1,0,0:0:0:0:
25,192,58335,1,0,0:0:0:0:
76,192,58522,1,0,0:0:0:0:
281,192,59085,5,0,0:0:0:0:
332,192,59085,1,0,0:0:0:0:
281,192,59272,1,0,0:0:0:0:
332,192,59272,1,0,0:0:0:0:
486,192,59647,1,0,0:0:0:0:
384,192,59647,1,0,0:0:0:0:
332,192,59647,1,0,0:0:0:0:
179,192,59835,1,0,0:0:0:0:
281,192,59835,1,0,0:0:0:0:
25,192,60022,5,0,0:0:0:0:
230,192,60022,1,0,0:0:0:0:
128,192,60022,1,0,0:0:0:0:
76,192,60210,128,0,63022:0:0:0:0:
179,192,60210,128,0,62460:0:0:0:0:
230,192,63210,128,0,64335:0:0:0:0:
76,192,63210,128,0,63397:0:0:0:0:
25,192,63397,128,0,63585:0:0:0:0:
76,192,63585,128,0,63772:0:0:0:0:
179,192,63772,128,0,63960:0:0:0:0:
128,192,63960,128,0,64147:0:0:0:0:
332,192,63960,128,0,64147:0:0:0:0:
25,192,63960,1,0,0:0:0:0:
435,192,63960,1,0,0:0:0:0:
76,192,64147,128,0,64335:0:0:0:0:
281,192,64147,128,0,64335:0:0:0:0:
486,192,64335,1,0,0:0:0:0:
384,192,64335,1,0,0:0:0:0:
435,192,64522,1,0,0:0:0:0:
486,192,64522,1,0,0:0:0:0:
179,192,64522,1,0,0:0:0:0:
128,192,64710,128,0,64897:0:0:0:0:
281,192,64710,128,0,64897:0:0:0:0:
76,192,64897,128,0,65085:0:0:0:0:
230,192,64897,128,0,65085:0:0:0:0:
332,192,64897,128,0,65085:0:0:0:0:
435,192,65085,1,0,0:0:0:0:
486,192,65085,1,0,0:0:0:0:
179,192,65085,128,0,65460:0:0:0:0:
384,192,65272,128,0,66210:0:0:0:0:
25,192,65460,1,0,0:0:0:0:
230,192,65460,1,0,0:0:0:0:
128,192,65460,1,0,0:0:0:0:
281,192,65460,128,0,66210:0:0:0:0:
435,192,65647,128,0,66210:0:0:0:0:
76,192,65647,1,0,0:0:0:0:
230,192,65835,1,0,0:0:0:0:
230,192,66210,1,0,0:0:0:0:
128,192,66210,1,0,0:0:0:0:
332,192,66210,1,0,0:0:0:0:
435,192,66397,1,0,0:0:0:0:
230,192,66585,1,0,0:0:0:0:
76,192,66585,1,0,0:0:0:0:
384,192,66585,1,0,0:0:0:0:
435,192,66772,1,0,0:0:0:0:
179,192,66772,1,0,0:0:0:0:
128,192,66960,1,0,0:0:0:0:
25,192,66960,1,0,0:0:0:0:
332,192,66960,1,0,0:0:0:0:
230,192,66960,1,0,0:0:0:0:
281,192,67147,1,0,0:0:0:0:
384,192,67335,1,0,0:0:0:0:
435,192,67335,1,0,0:0:0:0:
230,192,67335,1,0,0:0:0:0:
128,192,67335,1,0,0:0:0:0:
332,192,67522,1,0,0:0:0:0:
281,192,67522,1,0,0:0:0:0:
179,192,67522,1,0,0:0:0:0:
76,192,67522,1,0,0:0:0:0:
384,192,67710,128,0,67897:0:0:0:0:
230,192,67710,1,0,0:0:0:0:
25,192,67710,1,0,0:0:0:0:
435,192,67897,128,0,68085:0:0:0:0:
486,192,68085,128,0,68647:0:0:0:0:
25,192,68085,1,0,0:0:0:0:
128,192,68085,1,0,0:0:0:0:
230,192,68272,1,0,0:0:0:0:
281,192,68272,1,0,0:0:0:0:
435,192,68460,128,0,68835:0:0:0:0:
230,192,68460,1,0,0:0:0:0:
128,192,68460,1,0,0:0:0:0:
25,192,68460,1,0,0:0:0:0:
332,192,68647,128,0,69022:0:0:0:0:
76,192,68647,1,0,0:0:0:0:
25,192,68835,1,0,0:0:0:0:
281,192,68835,1,0,0:0:0:0:
128,192,69022,1,0,0:0:0:0:
128,192,69210,128,0,70522:0:0:0:0:
76,192,69210,1,0,0:0:0:0:
230,192,69210,1,0,0:0:0:0:
332,192,69397,128,0,70522:0:0:0:0:
230,192,69585,128,0,70522:0:0:0:0:
76,192,69585,1,0,0:0:0:0:
435,192,69772,128,0,70522:0:0:0:0:
384,192,69960,128,0,70147:0:0:0:0:
179,192,69960,1,0,0:0:0:0:
76,192,69960,1,0,0:0:0:0:
25,192,69960,1,0,0:0:0:0:
486,192,70147,128,0,70335:0:0:0:0:
384,192,70335,128,0,70522:0:0:0:0:
76,192,70335,1,0,0:0:0:0:
179,192,70335,1,0,0:0:0:0:
486,192,70522,128,0,70710:0:0:0:0:
179,192,70522,1,0,0:0:0:0:
76,192,70710,128,0,71835:0:0:0:0:
230,192,70710,1,0,0:0:0:0:
179,192,70897,128,0,71835:0:0:0:0:
281,192,71085,128,0,71835:0:0:0:0:
230,192,71085,1,0,0:0:0:0:
384,192,71085,1,0,0:0:0:0:
435,192,71085,1,0,0:0:0:0:
128,192,71460,1,0,0:0:0:0:
230,192,71460,1,0,0:0:0:0:
332,192,71460,1,0,0:0:0:0:
435,192,71460,1,0,0:0:0:0:
230,192,71835,1,0,0:0:0:0:
332,192,71835,128,0,72022:0:0:0:0:
435,192,72022,128,0,72116:0:0:0:0:
486,192,72116,128,0,72397:0:0:0:0:
25,192,72210,128,0,72960:0:0:0:0:
384,192,72210,1,0,0:0:0:0:
128,192,72210,128,0,72960:0:0:0:0:
435,192,72397,128,0,72585:0:0:0:0:
384,192,72585,1,0,0:0:0:0:
230,192,72585,128,0,72960:0:0:0:0:
332,192,72585,128,0,72960:0:0:0:0:
435,192,72772,128,0,73147:0:0:0:0:
384,192,72960,1,0,0:0:0:0:
281,192,72960,1,0,0:0:0:0:
179,192,72960,1,0,0:0:0:0:
76,192,72960,1,0,0:0:0:0:
128,192,73147,128,0,73335:0:0:0:0:
384,192,73335,1,0,0:0:0:0:
281,192,73335,128,0,73522:0:0:0:0:
25,192,73335,1,0,0:0:0:0:
435,192,73522,128,0,73710:0:0:0:0:
76,192,73522,1,0,0:0:0:0:
332,192,73710,1,0,0:0:0:0:
230,192,73710,1,0,0:0:0:0:
128,192,73710,1,0,0:0:0:0:
281,192,74085,1,0,0:0:0:0:
25,192,74085,1,0,0:0:0:0:
179,192,74272,1,0,0:0:0:0:
384,192,74272,1,0,0:0:0:0:
332,192,74460,1,0,0:0:0:0:
230,192,74460,1,0,0:0:0:0:
435,192,74460,1,0,0:0:0:0:
486,192,74460,1,0,0:0:0:0:
76,192,74460,1,0,0:0:0:0:
384,192,74647,1,0,0:0:0:0:
179,192,74647,1,0,0:0:0:0:
332,192,74835,1,0,0:0:0:0:
128,192,74835,1,0,0:0:0:0:
281,192,75022,1,0,0:0:0:0:
76,192,75022,1,0,0:0:0:0:
230,192,75210,1,0,0:0:0:0:
179,192,75210,1,0,0:0:0:0:
25,192,75210,1,0,0:0:0:0:
435,192,75210,1,0,0:0:0:0:
486,192,75210,1,0,0:0:0:0:
76,192,75397,1,0,0:0:0:0:
128,192,75397,1,0,0:0:0:0:
332,192,75397,1,0,0:0:0:0:
281,192,75397,1,0,0:0:0:0:
230,192,75585,1,0,0:0:0:0:
486,192,75772,1,0,0:0:0:0:
384,192,75772,1,0,0:0:0:0:
384,192,75960,1,0,0:0:0:0:
76,192,75960,1,0,0:0:0:0:
25,192,75960,1,0,0:0:0:0:
179,192,75960,1,0,0:0:0:0:
128,192,75960,1,0,0:0:0:0:
281,192,76147,1,0,0:0:0:0:
435,192,76147,1,0,0:0:0:0:
332,192,76335,1,0,0:0:0:0:
128,192,76335,1,0,0:0:0:0:
332,192,76522,1,0,0:0:0:0:
435,192,76522,1,0,0:0:0:0:
179,192,76522,1,0,0:0:0:0:
281,192,76710,1,0,0:0:0:0:
76,192,76710,1,0,0:0:0:0:
486,192,76897,1,0,0:0:0:0:
179,192,76897,1,0,0:0:0:0:
76,192,77085,1,0,0:0:0:0:
384,192,77085,1,0,0:0:0:0:
230,192,77085,1,0,0:0:0:0:
25,192,77085,1,0,0:0:0:0:
128,192,77272,1,0,0:0:0:0:
486,192,77460,1,0,0:0:0:0:
435,192,77460,1,0,0:0:0:0:
332,192,77460,1,0,0:0:0:0:
281,192,77460,1,0,0:0:0:0:
179,192,77460,1,0,0:0:0:0:
128,192,77647,1,0,0:0:0:0:
230,192,77647,1,0,0:0:0:0:
76,192,77835,1,0,0:0:0:0:
384,192,77835,1,0,0:0:0:0:
76,192,78022,1,0,0:0:0:0:
25,192,78210,1,0,0:0:0:0:
128,192,78210,1,0,0:0:0:0:
384,192,78210,1,0,0:0:0:0:
332,192,78210,1,0,0:0:0:0:
179,192,78397,1,0,0:0:0:0:
281,192,78585,1,0,0:0:0:0:
435,192,78585,1,0,0:0:0:0:
486,192,78772,1,0,0:0:0:0:
332,192,78772,1,0,0:0:0:0:
76,192,78960,1,0,0:0:0:0:
230,192,78960,1,0,0:0:0:0:
179,192,78960,1,0,0:0:0:0:
435,192,78960,1,0,0:0:0:0:
25,192,78960,1,0,0:0:0:0:
486,192,79147,1,0,0:0:0:0:
128,192,79147,1,0,0:0:0:0:
281,192,79335,1,0,0:0:0:0:
76,192,79335,1,0,0:0:0:0:
384,192,79335,1,0,0:0:0:0:
128,192,79522,1,0,0:0:0:0:
384,192,79522,1,0,0:0:0:0:
281,192,79522,1,0,0:0:0:0:
179,192,79710,1,0,0:0:0:0:
25,192,79710,1,0,0:0:0:0:
332,192,79897,1,0,0:0:0:0:
230,192,80085,1,0,0:0:0:0:
76,192,80085,1,0,0:0:0:0:
384,192,80085,1,0,0:0:0:0:
486,192,80085,1,0,0:0:0:0:
486,192,80272,1,0,0:0:0:0:
384,192,80272,1,0,0:0:0:0:
281,192,80460,1,0,0:0:0:0:
230,192,80460,1,0,0:0:0:0:
128,192,80460,1,0,0:0:0:0:
76,192,80460,1,0,0:0:0:0:
179,192,80647,1,0,0:0:0:0:
332,192,80647,1,0,0:0:0:0:
435,192,80835,1,0,0:0:0:0:
281,192,80835,1,0,0:0:0:0:
230,192,81022,1,0,0:0:0:0:
332,192,81210,1,0,0:0:0:0:
128,192,81210,1,0,0:0:0:0:
76,192,81210,1,0,0:0:0:0:
384,192,81210,1,0,0:0:0:0:
76,192,81397,1,0,0:0:0:0:
281,192,81397,1,0,0:0:0:0:
25,192,81397,128,0,81585:0:0:0:0:
486,192,81585,1,0,0:0:0:0:
76,192,81585,128,0,81772:0:0:0:0:
281,192,81772,1,0,0:0:0:0:
128,192,81772,128,0,81960:0:0:0:0:
486,192,81960,1,0,0:0:0:0:
384,192,81960,1,0,0:0:0:0:
332,192,81960,1,0,0:0:0:0:
230,192,81960,128,0,82147:0:0:0:0:
76,192,82147,1,0,0:0:0:0:
486,192,82335,1,0,0:0:0:0:
435,192,82335,1,0,0:0:0:0:
179,192,82335,1,0,0:0:0:0:
281,192,82335,1,0,0:0:0:0:
435,192,82522,1,0,0:0:0:0:
384,192,82522,1,0,0:0:0:0:
128,192,82522,1,0,0:0:0:0:
230,192,82710,1,0,0:0:0:0:
76,192,82710,1,0,0:0:0:0:
281,192,82710,128,0,82897:0:0:0:0:
25,192,82897,1,0,0:0:0:0:
332,192,82897,128,0,83085:0:0:0:0:
179,192,83085,1,0,0:0:0:0:
486,192,83085,1,0,0:0:0:0:
435,192,83085,128,0,83272:0:0:0:0:
384,192,83272,128,0,83460:0:0:0:0:
332,192,83460,1,0,0:0:0:0:
179,192,83460,1,0,0:0:0:0:
230,192,83460,1,0,0:0:0:0:
76,192,83460,1,0,0:0:0:0:
435,192,83647,1,0,0:0:0:0:
384,192,83647,1,0,0:0:0:0:
281,192,83835,1,0,0:0:0:0:
128,192,83835,1,0,0:0:0:0:
435,192,84210,1,0,0:0:0:0:
332,192,84210,1,0,0:0:0:0:
76,192,84210,1,0,0:0:0:0:
384,192,84210,128,0,84585:0:0:0:0:
230,192,84210,128,0,84585:0:0:0:0:
281,192,84585,1,0,0:0:0:0:
179,192,84585,1,0,0:0:0:0:
128,192,84772,1,0,0:0:0:0:
25,192,84772,1,0,0:0:0:0:
230,192,84960,1,0,0:0:0:0:
281,192,84960,1,0,0:0:0:0:
384,192,84960,1,0,0:0:0:0:
332,192,84960,128,0,85335:0:0:0:0:
486,192,85147,128,0,85335:0:0:0:0:
435,192,85335,1,0,0:0:0:0:
179,192,85335,1,0,0:0:0:0:
76,192,85335,1,0,0:0:0:0:
486,192,85522,1,0,0:0:0:0:
76,192,85522,1,0,0:0:0:0:
179,192,85522,1,0,0:0:0:0:
230,192,85710,1,0,0:0:0:0:
384,192,85710,128,0,85897:0:0:0:0:
281,192,85897,1,0,0:0:0:0:
435,192,85897,128,0,86085:0:0:0:0:
128,192,86085,1,0,0:0:0:0:
25,192,86085,1,0,0:0:0:0:
384,192,86085,1,0,0:0:0:0:
25,192,86272,1,0,0:0:0:0:
128,192,86272,1,0,0:0:0:0:
486,192,86272,1,0,0:0:0:0:
128,192,86460,1,0,0:0:0:0:
281,192,86460,1,0,0:0:0:0:
332,192,86460,1,0,0:0:0:0:
179,192,86460,128,0,86647:0:0:0:0:
486,192,86647,1,0,0:0:0:0:
76,192,86647,128,0,86835:0:0:0:0:
435,192,86835,1,0,0:0:0:0:
179,192,86835,128,0,87022:0:0:0:0:
332,192,87022,1,0,0:0:0:0:
25,192,87022,128,0,87210:0:0:0:0:
435,192,87210,1,0,0:0:0:0:
384,192,87210,1,0,0:0:0:0:
332,192,87210,1,0,0:0:0:0:
230,192,87397,1,0,0:0:0:0:
128,192,87397,1,0,0:0:0:0:
179,192,87397,1,0,0:0:0:0:
384,192,87585,1,0,0:0:0:0:
76,192,87585,1,0,0:0:0:0:
76,192,87960,1,0,0:0:0:0:
128,192,87960,1,0,0:0:0:0:
281,192,87960,1,0,0:0:0:0:
332,192,87960,1,0,0:0:0:0:
384,192,88147,1,0,0:0:0:0:
230,192,88147,1,0,0:0:0:0:
25,192,88335,128,0,88428:0:0:0:0:
25,192,88522,1,0,0:0:0:0:
25,192,88710,128,0,88803:0:0:0:0:
25,192,88897,1,0,0:0:0:0:
486,192,89085,1,0,0:0:0:0:
435,192,89085,1,0,0:0:0:0:
384,192,89085,1,0,0:0:0:0:
25,192,89085,128,0,89178:0:0:0:0:
25,192,89272,128,0,89366:0:0:0:0:
179,192,89460,1,0,0:0:0:0:
230,192,89460,1,0,0:0:0:0:
384,192,89460,1,0,0:0:0:0:
435,192,89460,1,0,0:0:0:0:
25,192,89460,128,0,89553:0:0:0:0:
128,192,89647,1,0,0:0:0:0:
281,192,89647,1,0,0:0:0:0:
25,192,89835,128,0,89928:0:0:0:0:
230,192,89835,1,0,0:0:0:0:
179,192,89835,1,0,0:0:0:0:
128,192,89835,1,0,0:0:0:0:
230,192,90022,1,0,0:0:0:0:
25,192,90022,1,0,0:0:0:0:
25,192,90210,1,0,0:0:0:0:
179,192,90210,1,0,0:0:0:0:
128,192,90210,1,0,0:0:0:0:
230,192,90210,1,0,0:0:0:0:
384,192,90397,1,0,0:0:0:0:
332,192,90397,1,0,0:0:0:0:
281,192,90397,1,0,0:0:0:0:
76,192,90397,1,0,0:0:0:0:
76,192,90585,128,0,90678:0:0:0:0:
76,192,90772,1,0,0:0:0:0:
76,192,90960,128,0,91053:0:0:0:0:
486,192,90960,1,0,0:0:0:0:
435,192,90960,1,0,0:0:0:0:
332,192,90960,1,0,0:0:0:0:
281,192,90960,1,0,0:0:0:0:
76,192,91147,128,0,91241:0:0:0:0:
76,192,91335,128,0,91428:0:0:0:0:
76,192,91522,1,0,0:0:0:0:
128,192,91710,128,0,91803:0:0:0:0:
128,192,91897,1,0,0:0:0:0:
128,192,92085,128,0,92178:0:0:0:0:
384,192,92085,1,0,0:0:0:0:
435,192,92085,1,0,0:0:0:0:
486,192,92085,1,0,0:0:0:0:
128,192,92272,1,0,0:0:0:0:
281,192,92272,1,0,0:0:0:0:
230,192,92272,1,0,0:0:0:0:
332,192,92272,1,0,0:0:0:0:
76,192,92366,1,0,0:0:0:0:
128,192,92460,1,0,0:0:0:0:
486,192,92460,1,0,0:0:0:0:
384,192,92460,1,0,0:0:0:0:
179,192,92460,128,0,92553:0:0:0:0:
435,192,92647,1,0,0:0:0:0:
281,192,92647,1,0,0:0:0:0:
179,192,92647,1,0,0:0:0:0:
332,192,92835,1,0,0:0:0:0:
76,192,92835,1,0,0:0:0:0:
128,192,92835,1,0,0:0:0:0:
230,192,92835,128,0,92928:0:0:0:0:
384,192,93022,1,0,0:0:0:0:
230,192,93022,1,0,0:0:0:0:
76,192,93210,1,0,0:0:0:0:
25,192,93210,1,0,0:0:0:0:
128,192,93210,1,0,0:0:0:0:
332,192,93210,128,0,93960:0:0:0:0:
179,192,93397,1,0,0:0:0:0:
230,192,93397,1,0,0:0:0:0:
281,192,93397,1,0,0:0:0:0:
486,192,93585,128,0,94335:0:0:0:0:
76,192,93585,1,0,0:0:0:0:
179,192,93772,1,0,0:0:0:0:
435,192,93960,128,0,94710:0:0:0:0:
179,192,93960,1,0,0:0:0:0:
230,192,93960,1,0,0:0:0:0:
128,192,93960,1,0,0:0:0:0:
76,192,93960,1,0,0:0:0:0:
281,192,94147,1,0,0:0:0:0:
128,192,94147,1,0,0:0:0:0:
384,192,94335,128,0,95085:0:0:0:0:
281,192,94335,1,0,0:0:0:0:
230,192,94335,1,0,0:0:0:0:
76,192,94335,1,0,0:0:0:0:
25,192,94335,1,0,0:0:0:0:
179,192,94522,1,0,0:0:0:0:
281,192,94710,128,0,95460:0:0:0:0:
128,192,94710,1,0,0:0:0:0:
76,192,94710,1,0,0:0:0:0:
230,192,94897,1,0,0:0:0:0:
76,192,95085,128,0,95835:0:0:0:0:
25,192,95085,1,0,0:0:0:0:
179,192,95085,1,0,0:0:0:0:
128,192,95085,1,0,0:0:0:0:
128,192,95460,128,0,96210:0:0:0:0:
332,192,95460,1,0,0:0:0:0:
384,192,95460,1,0,0:0:0:0:
435,192,95460,1,0,0:0:0:0:
486,192,95460,1,0,0:0:0:0:
230,192,95835,128,0,96397:0:0:0:0:
435,192,96022,1,0,0:0:0:0:
384,192,96022,1,0,0:0:0:0:
332,192,96022,1,0,0:0:0:0:
25,192,96210,128,0,96960:0:0:0:0:
332,192,96210,1,0,0:0:0:0:
486,192,96210,1,0,0:0:0:0:
179,192,96397,128,0,97522:0:0:0:0:
281,192,96397,1,0,0:0:0:0:
435,192,96397,1,0,0:0:0:0:
332,192,96585,128,0,97897:0:0:0:0:
486,192,96585,1,0,0:0:0:0:
435,192,96960,1,0,0:0:0:0:
384,192,96960,1,0,0:0:0:0:
128,192,96960,1,0,0:0:0:0:
76,192,96960,1,0,0:0:0:0:
281,192,97147,1,0,0:0:0:0:
25,192,97147,1,0,0:0:0:0:
76,192,97335,1,0,0:0:0:0:
230,192,97335,1,0,0:0:0:0:
486,192,97335,1,0,0:0:0:0:
128,192,97522,1,0,0:0:0:0:
179,192,97710,1,0,0:0:0:0:
435,192,97710,1,0,0:0:0:0:
332,192,98085,1,0,0:0:0:0:
384,192,98085,1,0,0:0:0:0:
179,192,98085,1,0,0:0:0:0:
128,192,98085,1,0,0:0:0:0:
76,192,98085,1,0,0:0:0:0:
25,192,98178,128,0,98460:0:0:0:0:
486,192,98460,128,0,98835:0:0:0:0:
281,192,98460,128,0,98741:0:0:0:0:
332,192,98460,1,0,0:0:0:0:
230,192,98460,1,0,0:0:0:0:
435,192,98647,128,0,98928:0:0:0:0:
179,192,98647,128,0,98835:0:0:0:0:
128,192,98647,1,0,0:0:0:0:
332,192,98835,128,0,99022:0:0:0:0:
25,192,98835,1,0,0:0:0:0:
76,192,98835,128,0,99022:0:0:0:0:
179,192,99022,1,0,0:0:0:0:
230,192,99022,1,0,0:0:0:0:
332,192,99210,1,0,0:0:0:0:
384,192,99210,1,0,0:0:0:0:
76,192,99210,1,0,0:0:0:0:
128,192,99397,1,0,0:0:0:0:
435,192,99397,1,0,0:0:0:0:
230,192,99397,1,0,0:0:0:0:
435,192,99585,128,0,99678:0:0:0:0:
25,192,99585,1,0,0:0:0:0:
435,192,99772,1,0,0:0:0:0:
76,192,99772,1,0,0:0:0:0:
179,192,99960,1,0,0:0:0:0:
435,192,99960,128,0,100053:0:0:0:0:
128,192,99960,1,0,0:0:0:0:
435,192,100147,1,0,0:0:0:0:
230,192,100147,1,0,0:0:0:0:
332,192,100147,1,0,0:0:0:0:
486,192,100335,128,0,100428:0:0:0:0:
486,192,100522,1,0,0:0:0:0:
179,192,100522,1,0,0:0:0:0:
384,192,100710,128,0,100803:0:0:0:0:
179,192,100710,1,0,0:0:0:0:
384,192,100897,1,0,0:0:0:0:
230,192,100897,1,0,0:0:0:0:
128,192,101085,1,0,0:0:0:0:
486,192,101085,128,0,101366:0:0:0:0:
25,192,101085,1,0,0:0:0:0:
76,192,101085,1,0,0:0:0:0:
435,192,101178,1,0,0:0:0:0:
384,192,101272,1,0,0:0:0:0:
281,192,101460,1,0,0:0:0:0:
179,192,101460,1,0,0:0:0:0:
384,192,101460,128,0,101553:0:0:0:0:
128,192,101647,1,0,0:0:0:0:
179,192,101835,1,0,0:0:0:0:
486,192,101835,128,0,101928:0:0:0:0:
230,192,101835,1,0,0:0:0:0:
332,192,101835,1,0,0:0:0:0:
486,192,102022,1,0,0:0:0:0:
281,192,102210,1,0,0:0:0:0:
332,192,102210,1,0,0:0:0:0:
230,192,102210,1,0,0:0:0:0:
76,192,102397,1,0,0:0:0:0:
128,192,102397,1,0,0:0:0:0:
179,192,102397,1,0,0:0:0:0:
486,192,102585,128,0,102678:0:0:0:0:
230,192,102585,1,0,0:0:0:0:
486,192,102772,1,0,0:0:0:0:
179,192,102960,1,0,0:0:0:0:
230,192,102960,1,0,0:0:0:0:
76,192,102960,1,0,0:0:0:0:
25,192,102960,1,0,0:0:0:0:
486,192,102960,128,0,103241:0:0:0:0:
435,192,103053,1,0,0:0:0:0:
332,192,103147,1,0,0:0:0:0:
281,192,103241,1,0,0:0:0:0:
486,192,103335,128,0,103428:0:0:0:0:
486,192,103522,1,0,0:0:0:0:
76,192,103522,1,0,0:0:0:0:
384,192,103710,128,0,103803:0:0:0:0:
76,192,103710,1,0,0:0:0:0:
384,192,103897,1,0,0:0:0:0:
179,192,103897,1,0,0:0:0:0:
76,192,104085,1,0,0:0:0:0:
25,192,104085,1,0,0:0:0:0:
384,192,104085,128,0,104460:0:0:0:0:
332,192,104178,1,0,0:0:0:0:
281,192,104272,1,0,0:0:0:0:
128,192,104272,1,0,0:0:0:0:
332,192,104460,128,0,104553:0:0:0:0:
25,192,104460,1,0,0:0:0:0:
76,192,104460,1,0,0:0:0:0:
332,192,104647,1,0,0:0:0:0:
179,192,104647,1,0,0:0:0:0:
128,192,104647,1,0,0:0:0:0:
384,192,104835,1,0,0:0:0:0:
281,192,104835,128,0,104928:0:0:0:0:
435,192,104835,1,0,0:0:0:0:
76,192,104835,1,0,0:0:0:0:
281,192,105022,1,0,0:0:0:0:
230,192,105022,1,0,0:0:0:0:
384,192,105210,1,0,0:0:0:0:
435,192,105210,1,0,0:0:0:0:
128,192,105210,128,0,105585:0:0:0:0:
281,192,105397,1,0,0:0:0:0:
332,192,105397,1,0,0:0:0:0:
230,192,105397,128,0,105772:0:0:0:0:
435,192,105585,128,0,105678:0:0:0:0:
25,192,105585,128,0,105960:0:0:0:0:
435,192,105772,1,0,0:0:0:0:
128,192,105772,128,0,106147:0:0:0:0:
384,192,105960,128,0,106053:0:0:0:0:
435,192,105960,1,0,0:0:0:0:
486,192,105960,1,0,0:0:0:0:
230,192,105960,128,0,106522:0:0:0:0:
384,192,106147,1,0,0:0:0:0:
332,192,106335,1,0,0:0:0:0:
128,192,106335,128,0,106710:0:0:0:0:
435,192,106522,1,0,0:0:0:0:
179,192,106522,128,0,106897:0:0:0:0:
384,192,106710,1,0,0:0:0:0:
76,192,106710,128,0,107085:0:0:0:0:
435,192,106897,1,0,0:0:0:0:
128,192,106897,128,0,107272:0:0:0:0:
332,192,107085,1,0,0:0:0:0:
384,192,107085,1,0,0:0:0:0:
179,192,107085,128,0,107460:0:0:0:0:
435,192,107085,1,0,0:0:0:0:
76,192,107460,1,0,0:0:0:0:
25,192,107460,1,0,0:0:0:0:
281,192,107460,1,0,0:0:0:0:
384,192,107647,1,0,0:0:0:0:
435,192,107647,1,0,0:0:0:0:
179,192,107647,1,0,0:0:0:0:
76,192,107835,1,0,0:0:0:0:
281,192,107835,1,0,0:0:0:0:
128,192,108022,1,0,0:0:0:0:
332,192,108022,1,0,0:0:0:0:
384,192,108022,1,0,0:0:0:0:
179,192,108022,1,0,0:0:0:0:
230,192,108210,1,0,0:0:0:0:
76,192,108210,1,0,0:0:0:0:
25,192,108210,1,0,0:0:0:0:
281,192,108210,128,0,108960:0:0:0:0:
435,192,108397,1,0,0:0:0:0:
128,192,108585,128,0,108678:0:0:0:0:
128,192,108772,1,0,0:0:0:0:
179,192,108960,1,0,0:0:0:0:
128,192,108960,1,0,0:0:0:0:
332,192,108960,1,0,0:0:0:0:
435,192,108960,128,0,109710:0:0:0:0:
230,192,109147,1,0,0:0:0:0:
25,192,109147,1,0,0:0:0:0:
230,192,109335,128,0,109428:0:0:0:0:
230,192,109522,1,0,0:0:0:0:
128,192,109522,1,0,0:0:0:0:
384,192,109710,128,0,110460:0:0:0:0:
179,192,109710,128,0,109803:0:0:0:0:
179,192,109897,1,0,0:0:0:0:
281,192,110085,1,0,0:0:0:0:
230,192,110085,128,0,110178:0:0:0:0:
76,192,110085,1,0,0:0:0:0:
230,192,110272,128,0,110366:0:0:0:0:
281,192,110272,1,0,0:0:0:0:
332,192,110460,128,0,111210:0:0:0:0:
230,192,110460,1,0,0:0:0:0:
128,192,110460,1,0,0:0:0:0:
179,192,110647,1,0,0:0:0:0:
76,192,110647,1,0,0:0:0:0:
25,192,110835,1,0,0:0:0:0:
230,192,110835,1,0,0:0:0:0:
128,192,111022,1,0,0:0:0:0:
486,192,111210,128,0,112147:0:0:0:0:
128,192,111210,1,0,0:0:0:0:
179,192,111210,1,0,0:0:0:0:
76,192,111210,1,0,0:0:0:0:
76,192,111397,1,0,0:0:0:0:
76,192,111585,1,0,0:0:0:0:
76,192,111772,1,0,0:0:0:0:
179,192,111960,1,0,0:0:0:0:
230,192,111960,1,0,0:0:0:0:
281,192,111960,1,0,0:0:0:0:
179,192,112147,1,0,0:0:0:0:
179,192,112335,1,0,0:0:0:0:
179,192,112522,1,0,0:0:0:0:
281,192,112710,1,0,0:0:0:0:
332,192,112710,1,0,0:0:0:0:
384,192,112710,1,0,0:0:0:0:
281,192,112897,1,0,0:0:0:0:
281,192,113085,1,0,0:0:0:0:
281,192,113272,1,0,0:0:0:0:
384,192,113460,1,0,0:0:0:0:
435,192,113460,1,0,0:0:0:0:
486,192,113460,1,0,0:0:0:0:
384,192,113647,1,0,0:0:0:0:
384,192,113835,1,0,0:0:0:0:
384,192,114022,1,0,0:0:0:0:
128,192,114210,1,0,0:0:0:0:
230,192,114210,1,0,0:0:0:0:
179,192,114210,1,0,0:0:0:0:
486,192,114397,128,0,114960:0:0:0:0:
230,192,114397,1,0,0:0:0:0:
384,192,114585,128,0,115147:0:0:0:0:
230,192,114585,1,0,0:0:0:0:
281,192,114772,128,0,115335:0:0:0:0:
230,192,114772,1,0,0:0:0:0:
76,192,114960,1,0,0:0:0:0:
128,192,114960,1,0,0:0:0:0:
179,192,114960,1,0,0:0:0:0:
435,192,115147,128,0,115710:0:0:0:0:
128,192,115147,1,0,0:0:0:0:
332,192,115335,128,0,115897:0:0:0:0:
128,192,115335,1,0,0:0:0:0:
230,192,115522,128,0,116085:0:0:0:0:
128,192,115522,1,0,0:0:0:0:
128,192,115710,1,0,0:0:0:0:
76,192,115710,1,0,0:0:0:0:
25,192,115710,1,0,0:0:0:0:
384,192,115897,128,0,116460:0:0:0:0:
25,192,115897,1,0,0:0:0:0:
179,192,116085,128,0,116460:0:0:0:0:
25,192,116085,1,0,0:0:0:0:
281,192,116272,128,0,116460:0:0:0:0:
25,192,116272,1,0,0:0:0:0:
435,192,116460,1,0,0:0:0:0:
486,192,116460,1,0,0:0:0:0:
76,192,116460,1,0,0:0:0:0:
128,192,116460,1,0,0:0:0:0:
486,192,116647,1,0,0:0:0:0:
384,192,116647,1,0,0:0:0:0:
179,192,116647,1,0,0:0:0:0:
230,192,116647,1,0,0:0:0:0:
230,192,117210,1,0,0:0:0:0:
332,192,117210,1,0,0:0:0:0:
25,192,117210,1,0,0:0:0:0:
230,192,117397,1,0,0:0:0:0:
332,192,117397,1,0,0:0:0:0:
435,192,117397,1,0,0:0:0:0:
281,192,119085,1,0,0:0:0:0:
76,192,119085,1,0,0:0:0:0:
179,192,119460,1,0,0:0:0:0:
332,192,119460,1,0,0:0:0:0:
179,192,120022,1,0,0:0:0:0:
76,192,120022,1,0,0:0:0:0:
76,192,120210,1,0,0:0:0:0:
179,192,120210,1,0,0:0:0:0:
25,192,120960,128,0,122366:0:0:0:0:
486,192,121335,128,0,122835:0:0:0:0:
332,192,122272,1,0,0:0:0:0:
230,192,122272,1,0,0:0:0:0:
281,192,122272,1,0,0:0:0:0:
384,192,122272,1,0,0:0:0:0:
179,192,122366,1,0,0:0:0:0:
76,192,122366,1,0,0:0:0:0:
128,192,122647,1,0,0:0:0:0:
25,192,122647,1,0,0:0:0:0:
76,192,122647,1,0,0:0:0:0:
179,192,122647,1,0,0:0:0:0:
332,192,122835,1,0,0:0:0:0:
384,192,122835,1,0,0:0:0:0:
435,192,122835,1,0,0:0:0:0:
230,192,122835,1,0,0:0:0:0:
384,192,123210,128,0,123397:0:0:0:0:
281,192,123210,128,0,124335:0:0:0:0:
76,192,123210,128,0,123397:0:0:0:0:
486,192,123397,128,0,123585:0:0:0:0:
179,192,123397,128,0,123585:0:0:0:0:
128,192,123585,128,0,123772:0:0:0:0:
332,192,123585,128,0,123772:0:0:0:0:
230,192,123772,128,0,123960:0:0:0:0:
435,192,123772,128,0,123960:0:0:0:0:
384,192,123960,128,0,124147:0:0:0:0:
25,192,123960,128,0,124147:0:0:0:0:
76,192,124147,128,0,124335:0:0:0:0:
435,192,124147,128,0,124335:0:0:0:0:
230,192,124335,1,0,0:0:0:0:
179,192,124335,1,0,0:0:0:0:
332,192,124522,1,0,0:0:0:0:
76,192,124522,1,0,0:0:0:0:
128,192,124522,1,0,0:0:0:0:
128,192,124710,128,0,124897:0:0:0:0:
384,192,124710,128,0,124897:0:0:0:0:
179,192,124897,128,0,125085:0:0:0:0:
435,192,124897,128,0,125085:0:0:0:0:
230,192,125085,128,0,125272:0:0:0:0:
332,192,125085,128,0,125460:0:0:0:0:
25,192,125085,1,0,0:0:0:0:
128,192,125272,128,0,126210:0:0:0:0:
230,192,125460,128,0,126210:0:0:0:0:
486,192,125460,1,0,0:0:0:0:
384,192,125460,1,0,0:0:0:0:
486,192,125647,128,0,126210:0:0:0:0:
179,192,125647,1,0,0:0:0:0:
281,192,125835,1,0,0:0:0:0:
179,192,126022,1,0,0:0:0:0:
179,192,126210,1,0,0:0:0:0:
384,192,126210,1,0,0:0:0:0:
281,192,126210,1,0,0:0:0:0:
76,192,126397,1,0,0:0:0:0:
128,192,126585,1,0,0:0:0:0:
435,192,126585,1,0,0:0:0:0:
25,192,126585,1,0,0:0:0:0:
281,192,126585,1,0,0:0:0:0:
230,192,126772,1,0,0:0:0:0:
179,192,126960,1,0,0:0:0:0:
486,192,126960,1,0,0:0:0:0:
76,192,126960,1,0,0:0:0:0:
281,192,126960,1,0,0:0:0:0:
435,192,127147,1,0,0:0:0:0:
128,192,127335,1,0,0:0:0:0:
332,192,127335,1,0,0:0:0:0:
384,192,127335,1,0,0:0:0:0:
128,192,127522,1,0,0:0:0:0:
281,192,127522,1,0,0:0:0:0:
332,192,127522,1,0,0:0:0:0:
486,192,127710,1,0,0:0:0:0:
230,192,127710,128,0,128085:0:0:0:0:
384,192,127710,1,0,0:0:0:0:
76,192,127897,128,0,128085:0:0:0:0:
25,192,128085,128,0,128460:0:0:0:0:
332,192,128085,1,0,0:0:0:0:
435,192,128085,1,0,0:0:0:0:
76,192,128272,128,0,128647:0:0:0:0:
435,192,128272,1,0,0:0:0:0:
332,192,128272,1,0,0:0:0:0:
128,192,128460,128,0,128835:0:0:0:0:
486,192,128460,1,0,0:0:0:0:
281,192,128460,1,0,0:0:0:0:
384,192,128647,1,0,0:0:0:0:
179,192,128647,128,0,129022:0:0:0:0:
435,192,128835,1,0,0:0:0:0:
230,192,128835,1,0,0:0:0:0:
332,192,129022,128,0,129397:0:0:0:0:
281,192,129210,1,0,0:0:0:0:
384,192,129210,128,0,130335:0:0:0:0:
435,192,129210,1,0,0:0:0:0:
179,192,129397,128,0,130335:0:0:0:0:
435,192,129585,1,0,0:0:0:0:
281,192,129585,128,0,130335:0:0:0:0:
76,192,129772,128,0,130335:0:0:0:0:
486,192,129960,1,0,0:0:0:0:
435,192,129960,1,0,0:0:0:0:
128,192,129960,128,0,130147:0:0:0:0:
332,192,129960,1,0,0:0:0:0:
25,192,130147,128,0,130335:0:0:0:0:
230,192,130335,1,0,0:0:0:0:
435,192,130335,1,0,0:0:0:0:
128,192,130335,128,0,130522:0:0:0:0:
230,192,130522,1,0,0:0:0:0:
25,192,130522,128,0,130710:0:0:0:0:
281,192,130710,1,0,0:0:0:0:
435,192,130710,128,0,131835:0:0:0:0:
332,192,130897,128,0,131835:0:0:0:0:
179,192,130897,1,0,0:0:0:0:
128,192,131085,1,0,0:0:0:0:
76,192,131085,1,0,0:0:0:0:
230,192,131085,128,0,131835:0:0:0:0:
179,192,131460,1,0,0:0:0:0:
76,192,131460,1,0,0:0:0:0:
384,192,131460,1,0,0:0:0:0:
281,192,131460,1,0,0:0:0:0:
25,192,131835,128,0,132022:0:0:0:0:
128,192,132022,128,0,132116:0:0:0:0:
230,192,132116,128,0,132397:0:0:0:0:
384,192,132210,128,0,132960:0:0:0:0:
486,192,132210,128,0,132960:0:0:0:0:
25,192,132210,1,0,0:0:0:0:
76,192,132210,1,0,0:0:0:0:
179,192,132397,128,0,132585:0:0:0:0:
76,192,132585,128,0,132960:0:0:0:0:
281,192,132585,128,0,132960:0:0:0:0:
179,192,132772,128,0,133147:0:0:0:0:
332,192,132960,1,0,0:0:0:0:
435,192,132960,1,0,0:0:0:0:
128,192,132960,1,0,0:0:0:0:
230,192,132960,1,0,0:0:0:0:
332,192,133147,128,0,133335:0:0:0:0:
230,192,133335,1,0,0:0:0:0:
435,192,133335,128,0,133522:0:0:0:0:
486,192,133335,1,0,0:0:0:0:
179,192,133335,1,0,0:0:0:0:
76,192,133522,1,0,0:0:0:0:
25,192,133522,128,0,133710:0:0:0:0:
332,192,133522,1,0,0:0:0:0:
384,192,133522,1,0,0:0:0:0:
128,192,133710,128,0,133897:0:0:0:0:
435,192,133710,1,0,0:0:0:0:
281,192,133897,1,0,0:0:0:0:
230,192,133897,1,0,0:0:0:0:
332,192,133897,1,0,0:0:0:0:
486,192,133897,1,0,0:0:0:0:
128,192,134085,1,0,0:0:0:0:
76,192,134085,1,0,0:0:0:0:
384,192,134085,1,0,0:0:0:0:
435,192,134085,1,0,0:0:0:0:
486,192,134272,1,0,0:0:0:0:
25,192,134272,1,0,0:0:0:0:
230,192,134272,1,0,0:0:0:0:
435,192,134460,128,0,134553:0:0:0:0:
179,192,134460,128,0,134553:0:0:0:0:
332,192,134460,1,0,0:0:0:0:
76,192,134460,1,0,0:0:0:0:
25,192,134647,1,0,0:0:0:0:
281,192,134647,1,0,0:0:0:0:
76,192,134835,128,0,134928:0:0:0:0:
332,192,134835,128,0,134928:0:0:0:0:
435,192,135022,1,0,0:0:0:0:
179,192,135022,1,0,0:0:0:0:
281,192,135210,1,0,0:0:0:0:
332,192,135210,1,0,0:0:0:0:
486,192,135210,1,0,0:0:0:0:
76,192,135210,1,0,0:0:0:0:
25,192,135210,1,0,0:0:0:0:
435,192,135397,1,0,0:0:0:0:
384,192,135397,1,0,0:0:0:0:
179,192,135397,1,0,0:0:0:0:
230,192,135397,1,0,0:0:0:0:
128,192,135585,1,0,0:0:0:0:
384,192,135772,1,0,0:0:0:0:
281,192,135772,1,0,0:0:0:0:
128,192,135960,1,0,0:0:0:0:
435,192,135960,1,0,0:0:0:0:
486,192,135960,1,0,0:0:0:0:
332,192,135960,1,0,0:0:0:0:
76,192,135960,1,0,0:0:0:0:
230,192,136147,1,0,0:0:0:0:
384,192,136147,1,0,0:0:0:0:
179,192,136335,1,0,0:0:0:0:
25,192,136335,1,0,0:0:0:0:
179,192,136522,1,0,0:0:0:0:
76,192,136522,1,0,0:0:0:0:
332,192,136522,1,0,0:0:0:0:
230,192,136710,1,0,0:0:0:0:
435,192,136710,1,0,0:0:0:0:
76,192,136897,1,0,0:0:0:0:
384,192,136897,1,0,0:0:0:0:
435,192,137085,1,0,0:0:0:0:
179,192,137085,1,0,0:0:0:0:
281,192,137085,1,0,0:0:0:0:
486,192,137085,1,0,0:0:0:0:
25,192,137272,1,0,0:0:0:0:
76,192,137460,1,0,0:0:0:0:
128,192,137460,1,0,0:0:0:0:
230,192,137460,1,0,0:0:0:0:
435,192,137460,1,0,0:0:0:0:
384,192,137460,1,0,0:0:0:0:
332,192,137647,1,0,0:0:0:0:
179,192,137647,1,0,0:0:0:0:
435,192,137835,1,0,0:0:0:0:
281,192,137835,1,0,0:0:0:0:
435,192,138022,1,0,0:0:0:0:
76,192,138022,1,0,0:0:0:0:
486,192,138210,1,0,0:0:0:0:
384,192,138210,1,0,0:0:0:0:
128,192,138210,1,0,0:0:0:0:
179,192,138210,1,0,0:0:0:0:
332,192,138397,1,0,0:0:0:0:
230,192,138585,1,0,0:0:0:0:
76,192,138585,1,0,0:0:0:0:
25,192,138772,1,0,0:0:0:0:
179,192,138772,1,0,0:0:0:0:
435,192,138960,1,0,0:0:0:0:
281,192,138960,1,0,0:0:0:0:
332,192,138960,1,0,0:0:0:0:
76,192,138960,1,0,0:0:0:0:
486,192,138960,1,0,0:0:0:0:
25,192,139147,1,0,0:0:0:0:
384,192,139147,1,0,0:0:0:0:
435,192,139335,1,0,0:0:0:0:
76,192,139335,1,0,0:0:0:0:
179,192,139335,1,0,0:0:0:0:
384,192,139522,1,0,0:0:0:0:
128,192,139522,1,0,0:0:0:0:
230,192,139522,1,0,0:0:0:0:
332,192,139710,1,0,0:0:0:0:
486,192,139710,1,0,0:0:0:0:
179,192,139897,1,0,0:0:0:0:
281,192,140085,1,0,0:0:0:0:
435,192,140085,1,0,0:0:0:0:
128,192,140085,1,0,0:0:0:0:
25,192,140085,1,0,0:0:0:0:
179,192,140272,1,0,0:0:0:0:
76,192,140272,1,0,0:0:0:0:
230,192,140460,1,0,0:0:0:0:
281,192,140460,1,0,0:0:0:0:
384,192,140460,1,0,0:0:0:0:
435,192,140460,1,0,0:0:0:0:
332,192,140647,1,0,0:0:0:0:
128,192,140647,1,0,0:0:0:0:
25,192,140835,1,0,0:0:0:0:
179,192,140835,1,0,0:0:0:0:
281,192,141022,1,0,0:0:0:0:
76,192,141210,1,0,0:0:0:0:
384,192,141210,1,0,0:0:0:0:
435,192,141210,1,0,0:0:0:0:
128,192,141210,1,0,0:0:0:0:
486,192,141397,1,0,0:0:0:0:
179,192,141397,1,0,0:0:0:0:
281,192,141397,128,0,141585:0:0:0:0:
76,192,141585,1,0,0:0:0:0:
332,192,141585,128,0,141772:0:0:0:0:
25,192,141772,1,0,0:0:0:0:
384,192,141772,128,0,141960:0:0:0:0:
76,192,141960,1,0,0:0:0:0:
128,192,141960,1,0,0:0:0:0:
281,192,141960,1,0,0:0:0:0:
486,192,141960,128,0,142147:0:0:0:0:
179,192,142147,1,0,0:0:0:0:
25,192,142335,1,0,0:0:0:0:
76,192,142335,1,0,0:0:0:0:
332,192,142335,1,0,0:0:0:0:
230,192,142335,1,0,0:0:0:0:
76,192,142522,1,0,0:0:0:0:
179,192,142522,1,0,0:0:0:0:
384,192,142522,1,0,0:0:0:0:
281,192,142710,1,0,0:0:0:0:
435,192,142710,1,0,0:0:0:0:
128,192,142710,128,0,142897:0:0:0:0:
486,192,142897,1,0,0:0:0:0:
76,192,142897,128,0,143085:0:0:0:0:
384,192,143085,1,0,0:0:0:0:
230,192,143085,1,0,0:0:0:0:
25,192,143085,128,0,143272:0:0:0:0:
179,192,143272,128,0,143460:0:0:0:0:
76,192,143460,1,0,0:0:0:0:
384,192,143460,1,0,0:0:0:0:
281,192,143460,1,0,0:0:0:0:
486,192,143460,1,0,0:0:0:0:
179,192,143647,1,0,0:0:0:0:
128,192,143647,1,0,0:0:0:0:
230,192,143835,1,0,0:0:0:0:
486,192,143835,1,0,0:0:0:0:
281,192,144022,1,0,0:0:0:0:
25,192,144022,1,0,0:0:0:0:
76,192,144210,1,0,0:0:0:0:
179,192,144210,1,0,0:0:0:0:
435,192,144210,1,0,0:0:0:0:
128,192,144210,128,0,144585:0:0:0:0:
281,192,144210,128,0,144585:0:0:0:0:
230,192,144585,1,0,0:0:0:0:
332,192,144585,1,0,0:0:0:0:
128,192,144772,1,0,0:0:0:0:
25,192,144772,1,0,0:0:0:0:
384,192,144960,1,0,0:0:0:0:
486,192,144960,1,0,0:0:0:0:
435,192,144960,1,0,0:0:0:0:
76,192,144960,128,0,145335:0:0:0:0:
230,192,145147,128,0,145335:0:0:0:0:
179,192,145335,1,0,0:0:0:0:
332,192,145335,1,0,0:0:0:0:
435,192,145335,1,0,0:0:0:0:
230,192,145522,1,0,0:0:0:0:
435,192,145522,1,0,0:0:0:0:
332,192,145522,1,0,0:0:0:0:
281,192,145710,1,0,0:0:0:0:
76,192,145710,1,0,0:0:0:0:
486,192,145897,1,0,0:0:0:0:
435,192,145897,1,0,0:0:0:0:
128,192,145897,1,0,0:0:0:0:
384,192,145897,1,0,0:0:0:0:
332,192,146085,1,0,0:0:0:0:
281,192,146085,1,0,0:0:0:0:
179,192,146085,1,0,0:0:0:0:
76,192,146085,1,0,0:0:0:0:
179,192,146272,1,0,0:0:0:0:
76,192,146272,1,0,0:0:0:0:
435,192,146272,1,0,0:0:0:0:
25,192,146460,1,0,0:0:0:0:
230,192,146460,1,0,0:0:0:0:
486,192,146460,1,0,0:0:0:0:
435,192,146460,1,0,0:0:0:0:
76,192,146647,1,0,0:0:0:0:
179,192,146647,1,0,0:0:0:0:
384,192,146647,1,0,0:0:0:0:
230,192,146835,1,0,0:0:0:0:
25,192,146835,1,0,0:0:0:0:
332,192,146835,1,0,0:0:0:0:
76,192,147022,1,0,0:0:0:0:
128,192,147022,1,0,0:0:0:0:
435,192,147022,1,0,0:0:0:0:
179,192,147210,1,0,0:0:0:0:
384,192,147210,1,0,0:0:0:0:
435,192,147210,1,0,0:0:0:0:
332,192,147210,1,0,0:0:0:0:
25,192,147397,1,0,0:0:0:0:
128,192,147397,1,0,0:0:0:0:
179,192,147585,128,0,147960:0:0:0:0:
332,192,147678,128,0,147960:0:0:0:0:
25,192,147772,128,0,147960:0:0:0:0:
76,192,147960,128,0,148241:0:0:0:0:
179,192,148006,128,0,148241:0:0:0:0:
281,192,148053,128,0,148241:0:0:0:0:
281,192,148335,128,0,148616:0:0:0:0:
384,192,148381,128,0,148616:0:0:0:0:
486,192,148428,128,0,148616:0:0:0:0:
128,192,148710,128,0,149366:0:0:0:0:
230,192,148710,128,0,149366:0:0:0:0:
332,192,149085,128,0,150116:0:0:0:0:
435,192,149085,128,0,150116:0:0:0:0:
230,192,149460,128,0,149741:0:0:0:0:
128,192,149460,128,0,149741:0:0:0:0:
128,192,149835,128,0,150116:0:0:0:0:
230,192,149835,128,0,150116:0:0:0:0:
76,192,150210,1,0,0:0:0:0:
128,192,150210,1,0,0:0:0:0:
435,192,150210,1,0,0:0:0:0:
332,192,150210,1,0,0:0:0:0:
179,192,150210,1,0,0:0:0:0:
332,192,150585,128,0,150960:0:0:0:0:
230,192,150678,128,0,150960:0:0:0:0:
128,192,150772,128,0,150960:0:0:0:0:
76,192,150960,128,0,151241:0:0:0:0:
230,192,151006,128,0,151241:0:0:0:0:
384,192,151053,128,0,151241:0:0:0:0:
25,192,151335,128,0,151616:0:0:0:0:
281,192,151381,128,0,151616:0:0:0:0:
486,192,151428,128,0,151616:0:0:0:0:
76,192,151710,128,0,152366:0:0:0:0:
179,192,151710,128,0,152366:0:0:0:0:
384,192,152085,128,0,153116:0:0:0:0:
486,192,152085,128,0,153116:0:0:0:0:
179,192,152460,128,0,152741:0:0:0:0:
76,192,152460,128,0,152741:0:0:0:0:
76,192,152835,128,0,153116:0:0:0:0:
179,192,152835,128,0,153116:0:0:0:0:
25,192,153210,1,0,0:0:0:0:
128,192,153210,1,0,0:0:0:0:
76,192,153210,1,0,0:0:0:0:
230,192,153397,1,0,0:0:0:0:
332,192,153397,1,0,0:0:0:0:
281,192,153397,1,0,0:0:0:0:
486,192,153585,128,0,153960:0:0:0:0:
281,192,153678,128,0,153960:0:0:0:0:
76,192,153772,128,0,153960:0:0:0:0:
332,192,153960,128,0,154241:0:0:0:0:
25,192,154006,128,0,154241:0:0:0:0:
179,192,154053,128,0,154241:0:0:0:0:
179,192,154335,128,0,154616:0:0:0:0:
332,192,154381,128,0,154616:0:0:0:0:
486,192,154428,128,0,154616:0:0:0:0:
435,192,154710,128,0,155460:0:0:0:0:
76,192,154710,128,0,155460:0:0:0:0:
281,192,155085,128,0,155835:0:0:0:0:
230,192,155085,128,0,155835:0:0:0:0:
25,192,155460,128,0,156210:0:0:0:0:
179,192,155460,128,0,156210:0:0:0:0:
332,192,155835,128,0,156210:0:0:0:0:
486,192,155835,128,0,156210:0:0:0:0:
281,192,156210,1,0,0:0:0:0:
230,192,156210,1,0,0:0:0:0:
435,192,156397,1,0,0:0:0:0:
76,192,156397,1,0,0:0:0:0:
486,192,156585,128,0,156960:0:0:0:0:
281,192,156678,128,0,156960:0:0:0:0:
76,192,156772,128,0,156960:0:0:0:0:
25,192,156960,128,0,157241:0:0:0:0:
230,192,157006,128,0,157241:0:0:0:0:
384,192,157053,128,0,157241:0:0:0:0:
128,192,157335,128,0,157616:0:0:0:0:
281,192,157381,128,0,157616:0:0:0:0:
435,192,157428,128,0,157616:0:0:0:0:
332,192,157710,128,0,158460:0:0:0:0:
486,192,157710,128,0,158460:0:0:0:0:
25,192,158085,128,0,158835:0:0:0:0:
179,192,158085,128,0,158835:0:0:0:0:
230,192,158460,128,0,159116:0:0:0:0:
128,192,158460,128,0,159116:0:0:0:0:
281,192,158835,128,0,159116:0:0:0:0:
384,192,158835,128,0,159116:0:0:0:0:
384,192,159210,1,0,0:0:0:0:
332,192,159210,1,0,0:0:0:0:
281,192,159210,1,0,0:0:0:0:
230,192,159210,1,0,0:0:0:0:
128,192,159210,1,0,0:0:0:0:
179,192,159210,1,0,0:0:0:0:
332,192,159397,128,0,162116:0:0:0:0:
179,192,159397,128,0,162116:0:0:0:0:
128,192,159397,128,0,162116:0:0:0:0:
384,192,159397,128,0,162116:0:0:0:0:
435,192,159585,128,0,161741:0:0:0:0:
230,192,159772,128,0,161553:0:0:0:0:
25,192,159960,128,0,161366:0:0:0:0:
281,192,160335,128,0,160803:0:0:0:0:
76,192,160710,128,0,162116:0:0:0:0:
281,192,160897,128,0,162116:0:0:0:0:
486,192,161085,128,0,162116:0:0:0:0:
25,192,161460,128,0,162116:0:0:0:0:
230,192,161647,128,0,162116:0:0:0:0:
435,192,161835,128,0,162116:0:0:0:0:
435,192,162210,1,0,0:0:0:0:
486,192,162210,1,0,0:0:0:0:
25,192,162210,1,0,0:0:0:0:
76,192,162210,1,0,0:0:0:0:
384,192,162210,1,0,0:0:0:0:
128,192,162210,1,0,0:0:0:0:
486,192,162397,128,0,165116:0:0:0:0:
435,192,162397,128,0,165116:0:0:0:0:
25,192,162397,128,0,165116:0:0:0:0:
76,192,162397,128,0,165116:0:0:0:0:
332,192,162585,128,0,164460:0:0:0:0:
179,192,162772,128,0,164366:0:0:0:0:
230,192,162960,128,0,164178:0:0:0:0:
128,192,163241,128,0,163991:0:0:0:0:
384,192,163710,128,0,165116:0:0:0:0:
281,192,163897,128,0,165116:0:0:0:0:
128,192,164085,128,0,165116:0:0:0:0:
230,192,164272,128,0,165116:0:0:0:0:
179,192,164460,128,0,164741:0:0:0:0:
332,192,164553,128,0,164835:0:0:0:0:
179,192,164835,128,0,165116:0:0:0:0:
332,192,164928,128,0,165116:0:0:0:0:
435,192,165210,128,0,165397:0:0:0:0:
179,192,165210,128,0,165397:0:0:0:0:
76,192,165210,128,0,165397:0:0:0:0:
486,192,165585,128,0,165772:0:0:0:0:
384,192,165585,128,0,165772:0:0:0:0:
230,192,165585,128,0,165772:0:0:0:0:
435,192,165772,128,0,165960:0:0:0:0:
179,192,165772,128,0,165960:0:0:0:0:
76,192,165772,128,0,165960:0:0:0:0:
332,192,165960,128,0,166147:0:0:0:0:
25,192,165960,128,0,166147:0:0:0:0:
128,192,166335,128,0,166522:0:0:0:0:
281,192,166428,128,0,166616:0:0:0:0:
435,192,166522,128,0,166616:0:0:0:0:
486,192,166710,128,0,166897:0:0:0:0:
332,192,166803,128,0,166991:0:0:0:0:
179,192,166897,128,0,166991:0:0:0:0:
384,192,167085,128,0,167178:0:0:0:0:
76,192,167178,128,0,167366:0:0:0:0:
230,192,167178,128,0,167272:0:0:0:0:
25,192,167272,128,0,167366:0:0:0:0:
128,192,167460,128,0,167647:0:0:0:0:
486,192,167553,128,0,167741:0:0:0:0:
76,192,167647,128,0,167741:0:0:0:0:
179,192,167741,128,0,167835:0:0:0:0:
332,192,167835,128,0,167928:0:0:0:0:
435,192,167928,128,0,168022:0:0:0:0:
384,192,168210,1,0,0:0:0:0:
281,192,168210,1,0,0:0:0:0:
486,192,168397,1,0,0:0:0:0:
435,192,168585,1,0,0:0:0:0:
332,192,168772,1,0,0:0:0:0:
486,192,168960,1,0,0:0:0:0:
384,192,169147,1,0,0:0:0:0:
332,192,169335,1,0,0:0:0:0:
435,192,169522,1,0,0:0:0:0:
486,192,169710,1,0,0:0:0:0:
384,192,169897,1,0,0:0:0:0:
332,192,170085,1,0,0:0:0:0:
435,192,170272,1,0,0:0:0:0:
486,192,170460,1,0,0:0:0:0:
384,192,170647,1,0,0:0:0:0:
332,192,170835,1,0,0:0:0:0:
435,192,171022,1,0,0:0:0:0:
486,192,172335,128,0,173272:0:0:0:0:
435,192,173272,128,0,173460:0:0:0:0:
384,192,173460,128,0,173553:0:0:0:0:
332,192,173553,128,0,173647:0:0:0:0:
281,192,173647,128,0,173741:0:0:0:0:
230,192,173741,1,0,0:0:0:0:
179,192,173788,1,0,0:0:0:0:
128,192,173835,1,0,0:0:0:0:
76,192,173881,1,0,0:0:0:0:
25,192,173928,128,0,174022:0:0:0:0:
486,192,174022,128,0,174772:0:0:0:0:
435,192,174210,128,0,174397:0:0:0:0:
230,192,174210,128,0,175335:0:0:0:0:
128,192,174210,128,0,174397:0:0:0:0:
332,192,174397,128,0,174585:0:0:0:0:
25,192,174397,128,0,174585:0:0:0:0:
179,192,174585,128,0,174772:0:0:0:0:
384,192,174585,128,0,174772:0:0:0:0:
76,192,174772,128,0,174960:0:0:0:0:
281,192,174772,128,0,174960:0:0:0:0:
435,192,174960,1,0,0:0:0:0:
384,192,174960,1,0,0:0:0:0:
179,192,174960,1,0,0:0:0:0:
128,192,174960,1,0,0:0:0:0:
332,192,174960,1,0,0:0:0:0:
128,192,175335,1,0,0:0:0:0:
76,192,175335,1,0,0:0:0:0:
179,192,175335,1,0,0:0:0:0:
435,192,175522,1,0,0:0:0:0:
281,192,175522,1,0,0:0:0:0:
128,192,175710,128,0,175897:0:0:0:0:
384,192,175710,128,0,175897:0:0:0:0:
486,192,175710,1,0,0:0:0:0:
76,192,175897,128,0,176085:0:0:0:0:
332,192,175897,128,0,176085:0:0:0:0:
486,192,176085,1,0,0:0:0:0:
25,192,176085,128,0,176460:0:0:0:0:
281,192,176085,128,0,176272:0:0:0:0:
128,192,176272,128,0,177210:0:0:0:0:
281,192,176460,128,0,177210:0:0:0:0:
486,192,176460,1,0,0:0:0:0:
435,192,176460,1,0,0:0:0:0:
384,192,176460,1,0,0:0:0:0:
25,192,176647,128,0,177210:0:0:0:0:
230,192,176835,1,0,0:0:0:0:
486,192,177022,1,0,0:0:0:0:
230,192,177210,1,0,0:0:0:0:
179,192,177210,1,0,0:0:0:0:
332,192,177397,1,0,0:0:0:0:
486,192,177585,1,0,0:0:0:0:
230,192,177585,1,0,0:0:0:0:
384,192,177585,1,0,0:0:0:0:
76,192,177585,1,0,0:0:0:0:
281,192,177772,1,0,0:0:0:0:
435,192,177960,1,0,0:0:0:0:
230,192,177960,1,0,0:0:0:0:
332,192,177960,1,0,0:0:0:0:
25,192,177960,1,0,0:0:0:0:
76,192,178147,1,0,0:0:0:0:
128,192,178335,1,0,0:0:0:0:
179,192,178335,1,0,0:0:0:0:
384,192,178335,1,0,0:0:0:0:
179,192,178522,1,0,0:0:0:0:
230,192,178522,1,0,0:0:0:0:
384,192,178522,1,0,0:0:0:0:
128,192,178710,1,0,0:0:0:0:
25,192,178710,1,0,0:0:0:0:
281,192,178710,128,0,178897:0:0:0:0:
384,192,178897,128,0,179085:0:0:0:0:
76,192,179085,1,0,0:0:0:0:
179,192,179085,1,0,0:0:0:0:
486,192,179085,128,0,179272:0:0:0:0:
179,192,179272,1,0,0:0:0:0:
76,192,179272,1,0,0:0:0:0:
435,192,179272,128,0,179460:0:0:0:0:
230,192,179460,1,0,0:0:0:0:
25,192,179460,1,0,0:0:0:0:
332,192,179460,1,0,0:0:0:0:
486,192,179460,1,0,0:0:0:0:
128,192,179647,1,0,0:0:0:0:
435,192,179647,1,0,0:0:0:0:
332,192,179835,1,0,0:0:0:0:
230,192,179835,1,0,0:0:0:0:
179,192,180022,128,0,180397:0:0:0:0:
384,192,180022,1,0,0:0:0:0:
76,192,180210,1,0,0:0:0:0:
128,192,180210,128,0,180960:0:0:0:0:
230,192,180210,1,0,0:0:0:0:
332,192,180397,128,0,181335:0:0:0:0:
230,192,180585,128,0,180960:0:0:0:0:
76,192,180585,1,0,0:0:0:0:
435,192,180772,128,0,181335:0:0:0:0:
384,192,180960,128,0,181147:0:0:0:0:
179,192,180960,1,0,0:0:0:0:
25,192,180960,1,0,0:0:0:0:
76,192,180960,1,0,0:0:0:0:
486,192,181147,128,0,181335:0:0:0:0:
384,192,181335,128,0,181522:0:0:0:0:
128,192,181335,1,0,0:0:0:0:
76,192,181335,1,0,0:0:0:0:
486,192,181522,128,0,181710:0:0:0:0:
179,192,181522,1,0,0:0:0:0:
230,192,181522,1,0,0:0:0:0:
76,192,181710,128,0,182835:0:0:0:0:
332,192,181803,1,0,0:0:0:0:
179,192,181897,128,0,182835:0:0:0:0:
281,192,182085,128,0,182835:0:0:0:0:
435,192,182178,1,0,0:0:0:0:
230,192,182460,1,0,0:0:0:0:
384,192,182460,1,0,0:0:0:0:
486,192,182460,1,0,0:0:0:0:
25,192,182460,1,0,0:0:0:0:
486,192,182835,128,0,183022:0:0:0:0:
384,192,183022,128,0,183116:0:0:0:0:
281,192,183116,128,0,183210:0:0:0:0:
486,192,183210,1,0,0:0:0:0:
435,192,183210,1,0,0:0:0:0:
128,192,183210,128,0,183960:0:0:0:0:
25,192,183210,128,0,183960:0:0:0:0:
281,192,183397,128,0,183960:0:0:0:0:
230,192,183397,128,0,183960:0:0:0:0:
384,192,183585,128,0,183960:0:0:0:0:
486,192,183585,128,0,183960:0:0:0:0:
332,192,183960,1,0,0:0:0:0:
179,192,183960,1,0,0:0:0:0:
76,192,183960,1,0,0:0:0:0:
435,192,183960,1,0,0:0:0:0:
486,192,184147,128,0,184710:0:0:0:0:
25,192,184335,128,0,184897:0:0:0:0:
281,192,184522,128,0,185085:0:0:0:0:
76,192,184710,128,0,185085:0:0:0:0:
332,192,184897,128,0,185272:0:0:0:0:
179,192,185085,128,0,185460:0:0:0:0:
435,192,185178,128,0,185460:0:0:0:0:
486,192,185460,128,0,186022:0:0:0:0:
384,192,185460,1,0,0:0:0:0:
230,192,185460,1,0,0:0:0:0:
281,192,185460,1,0,0:0:0:0:
25,192,185647,1,0,0:0:0:0:
332,192,185835,1,0,0:0:0:0:
179,192,185835,1,0,0:0:0:0:
76,192,185835,1,0,0:0:0:0:
281,192,186022,1,0,0:0:0:0:
384,192,186022,1,0,0:0:0:0:
435,192,186210,1,0,0:0:0:0:
76,192,186210,1,0,0:0:0:0:
128,192,186210,1,0,0:0:0:0:
332,192,186210,1,0,0:0:0:0:
332,192,186397,1,0,0:0:0:0:
179,192,186397,1,0,0:0:0:0:
25,192,186397,1,0,0:0:0:0:
486,192,186397,1,0,0:0:0:0:
384,192,186585,1,0,0:0:0:0:
76,192,186772,1,0,0:0:0:0:
179,192,186772,1,0,0:0:0:0:
25,192,186960,1,0,0:0:0:0:
128,192,186960,1,0,0:0:0:0:
281,192,186960,1,0,0:0:0:0:
332,192,186960,1,0,0:0:0:0:
230,192,187147,1,0,0:0:0:0:
384,192,187147,1,0,0:0:0:0:
486,192,187335,1,0,0:0:0:0:
332,192,187335,1,0,0:0:0:0:
128,192,187335,1,0,0:0:0:0:
435,192,187522,1,0,0:0:0:0:
179,192,187522,1,0,0:0:0:0:
76,192,187710,1,0,0:0:0:0:
281,192,187710,1,0,0:0:0:0:
128,192,187897,1,0,0:0:0:0:
435,192,187897,1,0,0:0:0:0:
230,192,188085,1,0,0:0:0:0:
25,192,188085,1,0,0:0:0:0:
76,192,188085,1,0,0:0:0:0:
332,192,188085,1,0,0:0:0:0:
486,192,188272,1,0,0:0:0:0:
76,192,188460,1,0,0:0:0:0:
128,192,188460,1,0,0:0:0:0:
281,192,188460,1,0,0:0:0:0:
435,192,188460,1,0,0:0:0:0:
384,192,188460,1,0,0:0:0:0:
230,192,188835,1,0,0:0:0:0:
128,192,188835,1,0,0:0:0:0:
76,192,189022,1,0,0:0:0:0:
332,192,189022,1,0,0:0:0:0:
25,192,189210,1,0,0:0:0:0:
230,192,189210,1,0,0:0:0:0:
486,192,189210,1,0,0:0:0:0:
435,192,189210,1,0,0:0:0:0:
76,192,189397,1,0,0:0:0:0:
332,192,189397,1,0,0:0:0:0:
435,192,189585,1,0,0:0:0:0:
281,192,189585,1,0,0:0:0:0:
179,192,189585,1,0,0:0:0:0:
332,192,189772,1,0,0:0:0:0:
76,192,189772,1,0,0:0:0:0:
435,192,189960,1,0,0:0:0:0:
179,192,189960,1,0,0:0:0:0:
128,192,189960,1,0,0:0:0:0:
384,192,189960,1,0,0:0:0:0:
230,192,190147,1,0,0:0:0:0:
25,192,190147,1,0,0:0:0:0:
435,192,190335,1,0,0:0:0:0:
76,192,190335,1,0,0:0:0:0:
281,192,190335,1,0,0:0:0:0:
128,192,190522,1,0,0:0:0:0:
179,192,190522,1,0,0:0:0:0:
76,192,190522,1,0,0:0:0:0:
486,192,190710,1,0,0:0:0:0:
384,192,190710,1,0,0:0:0:0:
25,192,190897,1,0,0:0:0:0:
384,192,191085,1,0,0:0:0:0:
486,192,191085,1,0,0:0:0:0:
230,192,191085,1,0,0:0:0:0:
76,192,191085,1,0,0:0:0:0:
435,192,191272,1,0,0:0:0:0:
332,192,191272,1,0,0:0:0:0:
128,192,191460,1,0,0:0:0:0:
281,192,191460,1,0,0:0:0:0:
486,192,191460,1,0,0:0:0:0:
179,192,191460,1,0,0:0:0:0:
384,192,191647,1,0,0:0:0:0:
25,192,191647,1,0,0:0:0:0:
332,192,191835,1,0,0:0:0:0:
76,192,191835,1,0,0:0:0:0:
230,192,192022,1,0,0:0:0:0:
76,192,192210,1,0,0:0:0:0:
384,192,192210,1,0,0:0:0:0:
435,192,192210,1,0,0:0:0:0:
25,192,192210,1,0,0:0:0:0:
230,192,192397,128,0,192585:0:0:0:0:
128,192,192397,1,0,0:0:0:0:
486,192,192397,1,0,0:0:0:0:
179,192,192585,128,0,192772:0:0:0:0:
435,192,192585,1,0,0:0:0:0:
128,192,192772,128,0,192960:0:0:0:0:
486,192,192772,1,0,0:0:0:0:
230,192,192960,1,0,0:0:0:0:
25,192,192960,128,0,193147:0:0:0:0:
384,192,192960,1,0,0:0:0:0:
332,192,192960,1,0,0:0:0:0:
435,192,193147,1,0,0:0:0:0:
179,192,193335,1,0,0:0:0:0:
281,192,193335,1,0,0:0:0:0:
384,192,193335,1,0,0:0:0:0:
435,192,193522,1,0,0:0:0:0:
76,192,193522,1,0,0:0:0:0:
384,192,193710,128,0,193897:0:0:0:0:
486,192,193710,1,0,0:0:0:0:
128,192,193710,1,0,0:0:0:0:
25,192,193710,1,0,0:0:0:0:
435,192,193897,128,0,194085:0:0:0:0:
179,192,193897,1,0,0:0:0:0:
486,192,194085,128,0,194272:0:0:0:0:
281,192,194085,1,0,0:0:0:0:
128,192,194085,1,0,0:0:0:0:
332,192,194272,128,0,194460:0:0:0:0:
435,192,194460,1,0,0:0:0:0:
76,192,194460,1,0,0:0:0:0:
179,192,194460,1,0,0:0:0:0:
230,192,194647,1,0,0:0:0:0:
281,192,194835,1,0,0:0:0:0:
230,192,195022,1,0,0:0:0:0:
281,192,195210,128,0,195585:0:0:0:0:
25,192,195210,128,0,195585:0:0:0:0:
76,192,195210,1,0,0:0:0:0:
435,192,195210,1,0,0:0:0:0:
332,192,195210,1,0,0:0:0:0:
486,192,195397,1,0,0:0:0:0:
230,192,195397,1,0,0:0:0:0:
128,192,195397,1,0,0:0:0:0:
179,192,195585,1,0,0:0:0:0:
332,192,195585,1,0,0:0:0:0:
435,192,195772,1,0,0:0:0:0:
76,192,195960,1,0,0:0:0:0:
25,192,195960,1,0,0:0:0:0:
230,192,195960,1,0,0:0:0:0:
281,192,195960,1,0,0:0:0:0:
486,192,195960,1,0,0:0:0:0:
486,192,196147,128,0,196522:0:0:0:0:
76,192,196335,1,0,0:0:0:0:
179,192,196335,1,0,0:0:0:0:
332,192,196335,1,0,0:0:0:0:
128,192,196335,1,0,0:0:0:0:
179,192,196522,1,0,0:0:0:0:
76,192,196522,1,0,0:0:0:0:
281,192,196522,1,0,0:0:0:0:
128,192,196522,128,0,196897:0:0:0:0:
435,192,196710,1,0,0:0:0:0:
230,192,196710,1,0,0:0:0:0:
76,192,196897,1,0,0:0:0:0:
486,192,196897,1,0,0:0:0:0:
281,192,196897,1,0,0:0:0:0:
332,192,197085,1,0,0:0:0:0:
435,192,197085,1,0,0:0:0:0:
179,192,197085,1,0,0:0:0:0:
230,192,197085,1,0,0:0:0:0:
384,192,197085,1,0,0:0:0:0:
76,192,197272,1,0,0:0:0:0:
435,192,197272,1,0,0:0:0:0:
332,192,197272,1,0,0:0:0:0:
384,192,197272,1,0,0:0:0:0:
25,192,197460,1,0,0:0:0:0:
486,192,197460,1,0,0:0:0:0:
281,192,197460,1,0,0:0:0:0:
230,192,197460,1,0,0:0:0:0:
332,192,197647,1,0,0:0:0:0:
435,192,197647,1,0,0:0:0:0:
230,192,197647,1,0,0:0:0:0:
25,192,197647,1,0,0:0:0:0:
486,192,197835,1,0,0:0:0:0:
281,192,197835,1,0,0:0:0:0:
76,192,197835,1,0,0:0:0:0:
128,192,197928,1,0,0:0:0:0:
179,192,198022,1,0,0:0:0:0:
230,192,198116,1,0,0:0:0:0:
76,192,198210,1,0,0:0:0:0:
384,192,198210,1,0,0:0:0:0:
332,192,198210,1,0,0:0:0:0:
486,192,198585,128,0,198960:0:0:0:0:
281,192,198678,128,0,198960:0:0:0:0:
76,192,198772,128,0,198960:0:0:0:0:
435,192,198960,128,0,199241:0:0:0:0:
230,192,199006,128,0,199241:0:0:0:0:
25,192,199053,128,0,199241:0:0:0:0:
332,192,199335,128,0,199616:0:0:0:0:
179,192,199335,128,0,199616:0:0:0:0:
128,192,199710,128,0,200366:0:0:0:0:
384,192,199710,128,0,200366:0:0:0:0:
179,192,200085,128,0,200741:0:0:0:0:
332,192,200085,128,0,200741:0:0:0:0:
128,192,200460,128,0,201116:0:0:0:0:
384,192,200460,128,0,201116:0:0:0:0:
179,192,200835,128,0,201116:0:0:0:0:
332,192,200835,128,0,201116:0:0:0:0:
332,192,201585,128,0,201960:0:0:0:0:
230,192,201678,128,0,201960:0:0:0:0:
25,192,201772,128,0,201960:0:0:0:0:
486,192,201960,128,0,202241:0:0:0:0:
281,192,202006,128,0,202241:0:0:0:0:
179,192,202053,128,0,202241:0:0:0:0:
76,192,202335,128,0,202616:0:0:0:0:
435,192,202335,128,0,202616:0:0:0:0:
384,192,202710,128,0,203366:0:0:0:0:
128,192,202710,128,0,203366:0:0:0:0:
435,192,203085,128,0,203741:0:0:0:0:
76,192,203085,128,0,203741:0:0:0:0:
384,192,203460,128,0,204116:0:0:0:0:
128,192,203460,128,0,204116:0:0:0:0:
435,192,203835,128,0,204116:0:0:0:0:
76,192,203835,128,0,204116:0:0:0:0:
435,192,204210,1,0,0:0:0:0:
384,192,204210,1,0,0:0:0:0:
486,192,204210,1,0,0:0:0:0:
179,192,204210,1,0,0:0:0:0:
230,192,204210,128,0,204397:0:0:0:0:
435,192,204397,1,0,0:0:0:0:
384,192,204397,1,0,0:0:0:0:
332,192,204397,1,0,0:0:0:0:
128,192,204397,1,0,0:0:0:0:
179,192,204585,128,0,204772:0:0:0:0:
486,192,204585,1,0,0:0:0:0:
76,192,204772,128,0,204960:0:0:0:0:
384,192,204772,1,0,0:0:0:0:
25,192,204960,128,0,205147:0:0:0:0:
435,192,204960,1,0,0:0:0:0:
332,192,204960,1,0,0:0:0:0:
230,192,204960,1,0,0:0:0:0:
128,192,205147,128,0,205335:0:0:0:0:
281,192,205335,128,0,205522:0:0:0:0:
486,192,205335,1,0,0:0:0:0:
179,192,205522,128,0,205710:0:0:0:0:
384,192,205522,1,0,0:0:0:0:
230,192,205710,128,0,205897:0:0:0:0:
486,192,205710,1,0,0:0:0:0:
332,192,205897,128,0,206085:0:0:0:0:
435,192,206085,128,0,206272:0:0:0:0:
128,192,206085,1,0,0:0:0:0:
230,192,206085,1,0,0:0:0:0:
332,192,206272,128,0,206460:0:0:0:0:
179,192,206460,128,0,206553:0:0:0:0:
25,192,206460,1,0,0:0:0:0:
281,192,206553,128,0,206647:0:0:0:0:
128,192,206647,128,0,206741:0:0:0:0:
230,192,206741,128,0,206835:0:0:0:0:
332,192,206835,128,0,207210:0:0:0:0:
25,192,207210,128,0,207397:0:0:0:0:
179,192,207210,1,0,0:0:0:0:
76,192,207210,1,0,0:0:0:0:
230,192,207585,128,0,207772:0:0:0:0:
128,192,207585,1,0,0:0:0:0:
281,192,207772,128,0,207960:0:0:0:0:
25,192,207772,1,0,0:0:0:0:
230,192,207960,128,0,208147:0:0:0:0:
128,192,207960,1,0,0:0:0:0:
486,192,207960,1,0,0:0:0:0:
332,192,208147,128,0,208335:0:0:0:0:
486,192,208335,128,0,208522:0:0:0:0:
179,192,208335,1,0,0:0:0:0:
76,192,208335,1,0,0:0:0:0:
435,192,208522,128,0,208710:0:0:0:0:
128,192,208522,1,0,0:0:0:0:
486,192,208710,128,0,208897:0:0:0:0:
179,192,208710,1,0,0:0:0:0:
384,192,208897,128,0,209085:0:0:0:0:
230,192,208897,1,0,0:0:0:0:
25,192,208897,1,0,0:0:0:0:
332,192,209085,128,0,209272:0:0:0:0:
76,192,209085,1,0,0:0:0:0:
128,192,209085,1,0,0:0:0:0:
179,192,209272,128,0,209460:0:0:0:0:
230,192,209460,128,0,209647:0:0:0:0:
281,192,209460,1,0,0:0:0:0:
486,192,209460,1,0,0:0:0:0:
76,192,209647,128,0,209835:0:0:0:0:
435,192,209647,1,0,0:0:0:0:
384,192,209647,1,0,0:0:0:0:
128,192,209835,128,0,210022:0:0:0:0:
179,192,209835,1,0,0:0:0:0:
230,192,209835,1,0,0:0:0:0:
25,192,210022,128,0,210210:0:0:0:0:
281,192,210022,1,0,0:0:0:0:
332,192,210022,1,0,0:0:0:0:
230,192,210022,1,0,0:0:0:0:
76,192,210210,128,0,210397:0:0:0:0:
384,192,210210,1,0,0:0:0:0:
435,192,210210,1,0,0:0:0:0:
332,192,210210,1,0,0:0:0:0:
435,192,210397,1,0,0:0:0:0:
486,192,210397,1,0,0:0:0:0:
179,192,210585,128,0,210772:0:0:0:0:
332,192,210585,1,0,0:0:0:0:
76,192,210772,128,0,210960:0:0:0:0:
25,192,210960,128,0,211147:0:0:0:0:
486,192,210960,1,0,0:0:0:0:
435,192,210960,1,0,0:0:0:0:
281,192,210960,1,0,0:0:0:0:
384,192,210960,1,0,0:0:0:0:
230,192,211335,128,0,211522:0:0:0:0:
179,192,211335,1,0,0:0:0:0:
128,192,211335,1,0,0:0:0:0:
128,192,211522,1,0,0:0:0:0:
76,192,211522,1,0,0:0:0:0:
281,192,211710,128,0,211897:0:0:0:0:
332,192,211897,128,0,212085:0:0:0:0:
435,192,212085,128,0,212272:0:0:0:0:
128,192,212085,1,0,0:0:0:0:
76,192,212085,1,0,0:0:0:0:
25,192,212085,1,0,0:0:0:0:
332,192,212272,128,0,212460:0:0:0:0:
486,192,212460,128,0,212647:0:0:0:0:
179,192,212460,1,0,0:0:0:0:
230,192,212460,1,0,0:0:0:0:
128,192,212460,1,0,0:0:0:0:
76,192,212460,1,0,0:0:0:0:
384,192,212647,128,0,212835:0:0:0:0:
486,192,212835,128,0,213022:0:0:0:0:
25,192,212835,1,0,0:0:0:0:
230,192,213022,1,0,0:0:0:0:
128,192,213210,128,0,213397:0:0:0:0:
281,192,213210,1,0,0:0:0:0:
332,192,213210,1,0,0:0:0:0:
384,192,213210,1,0,0:0:0:0:
25,192,213397,128,0,213585:0:0:0:0:
435,192,213397,1,0,0:0:0:0:
230,192,213585,128,0,213772:0:0:0:0:
332,192,213585,1,0,0:0:0:0:
179,192,213772,128,0,213960:0:0:0:0:
76,192,213960,128,0,214147:0:0:0:0:
435,192,213960,1,0,0:0:0:0:
486,192,213960,1,0,0:0:0:0:
332,192,213960,1,0,0:0:0:0:
281,192,213960,1,0,0:0:0:0:
179,192,214147,128,0,214335:0:0:0:0:
25,192,214335,128,0,214522:0:0:0:0:
384,192,214335,1,0,0:0:0:0:
332,192,214335,1,0,0:0:0:0:
435,192,214335,1,0,0:0:0:0:
128,192,214522,128,0,214710:0:0:0:0:
281,192,214522,1,0,0:0:0:0:
230,192,214522,1,0,0:0:0:0:
76,192,214710,128,0,214897:0:0:0:0:
25,192,214897,128,0,215085:0:0:0:0:
384,192,214897,1,0,0:0:0:0:
76,192,215085,128,0,215272:0:0:0:0:
384,192,215085,1,0,0:0:0:0:
332,192,215085,1,0,0:0:0:0:
281,192,215085,1,0,0:0:0:0:
128,192,215272,128,0,215460:0:0:0:0:
230,192,215272,1,0,0:0:0:0:
281,192,215272,1,0,0:0:0:0:
179,192,215460,128,0,215647:0:0:0:0:
230,192,215460,1,0,0:0:0:0:
486,192,215460,1,0,0:0:0:0:
435,192,215460,1,0,0:0:0:0:
332,192,215460,1,0,0:0:0:0:
230,192,215835,128,0,216022:0:0:0:0:
384,192,215835,1,0,0:0:0:0:
384,192,216210,128,0,216397:0:0:0:0:
179,192,216210,1,0,0:0:0:0:
128,192,216210,1,0,0:0:0:0:
76,192,216210,1,0,0:0:0:0:
76,192,216397,1,0,0:0:0:0:
25,192,216397,1,0,0:0:0:0:
384,192,216585,128,0,216772:0:0:0:0:
332,192,216772,128,0,216960:0:0:0:0:
281,192,216960,128,0,217147:0:0:0:0:
230,192,216960,1,0,0:0:0:0:
128,192,216960,1,0,0:0:0:0:
25,192,216960,1,0,0:0:0:0:
76,192,216960,1,0,0:0:0:0:
384,192,217147,128,0,217335:0:0:0:0:
435,192,217335,128,0,217522:0:0:0:0:
179,192,217335,1,0,0:0:0:0:
128,192,217335,1,0,0:0:0:0:
76,192,217335,1,0,0:0:0:0:
332,192,217522,128,0,217710:0:0:0:0:
128,192,217522,1,0,0:0:0:0:
179,192,217522,1,0,0:0:0:0:
486,192,217710,128,0,217897:0:0:0:0:
25,192,217710,1,0,0:0:0:0:
435,192,217897,128,0,218085:0:0:0:0:
76,192,217897,1,0,0:0:0:0:
384,192,218085,128,0,218272:0:0:0:0:
281,192,218085,1,0,0:0:0:0:
179,192,218085,1,0,0:0:0:0:
128,192,218085,1,0,0:0:0:0:
435,192,218272,128,0,218460:0:0:0:0:
25,192,218272,1,0,0:0:0:0:
486,192,218460,128,0,218647:0:0:0:0:
76,192,218460,1,0,0:0:0:0:
128,192,218460,1,0,0:0:0:0:
230,192,218460,1,0,0:0:0:0:
281,192,218460,1,0,0:0:0:0:
332,192,218647,128,0,218835:0:0:0:0:
486,192,218835,128,0,219022:0:0:0:0:
76,192,218835,1,0,0:0:0:0:
332,192,219022,128,0,219210:0:0:0:0:
179,192,219022,1,0,0:0:0:0:
230,192,219210,128,0,219397:0:0:0:0:
76,192,219210,1,0,0:0:0:0:
384,192,219210,1,0,0:0:0:0:
435,192,219210,1,0,0:0:0:0:
128,192,219210,1,0,0:0:0:0:
179,192,219397,1,0,0:0:0:0:
281,192,219397,1,0,0:0:0:0:
486,192,219397,1,0,0:0:0:0:
25,192,219397,1,0,0:0:0:0:
128,192,219585,128,0,219772:0:0:0:0:
25,192,219772,128,0,219960:0:0:0:0:
76,192,219960,128,0,220147:0:0:0:0:
230,192,219960,1,0,0:0:0:0:
281,192,219960,1,0,0:0:0:0:
384,192,219960,1,0,0:0:0:0:
486,192,219960,1,0,0:0:0:0:
179,192,220147,128,0,220335:0:0:0:0:
128,192,220335,128,0,220522:0:0:0:0:
332,192,220335,1,0,0:0:0:0:
435,192,220335,1,0,0:0:0:0:
25,192,220522,128,0,220710:0:0:0:0:
332,192,220522,1,0,0:0:0:0:
435,192,220522,1,0,0:0:0:0:
76,192,220710,128,0,220897:0:0:0:0:
179,192,220897,128,0,221085:0:0:0:0:
281,192,220897,1,0,0:0:0:0:
486,192,220897,1,0,0:0:0:0:
384,192,220897,1,0,0:0:0:0:
76,192,221085,128,0,221272:0:0:0:0:
128,192,221085,1,0,0:0:0:0:
230,192,221085,1,0,0:0:0:0:
332,192,221085,1,0,0:0:0:0:
25,192,221272,128,0,221460:0:0:0:0:
230,192,221272,1,0,0:0:0:0:
332,192,221272,1,0,0:0:0:0:
128,192,221460,128,0,221647:0:0:0:0:
486,192,221460,1,0,0:0:0:0:
281,192,221460,1,0,0:0:0:0:
25,192,221647,128,0,221835:0:0:0:0:
435,192,221647,1,0,0:0:0:0:
332,192,221647,1,0,0:0:0:0:
230,192,221835,128,0,222022:0:0:0:0:
384,192,221835,1,0,0:0:0:0:
76,192,221835,1,0,0:0:0:0:
230,192,222210,1,0,0:0:0:0:
486,192,222210,1,0,0:0:0:0:
76,192,222210,1,0,0:0:0:0:
