osu file format v14

[General]
AudioFilename: shOut.mp3
AudioLeadIn: 0
PreviewTime: 46050
Countdown: 0
SampleSet: Soft
StackLeniency: 0.7
Mode: 3
LetterboxInBreaks: 0
SpecialStyle: 0
WidescreenStoryboard: 1

[Editor]
DistanceSpacing: 1.4
BeatDivisor: 4
GridSize: 8
TimelineZoom: 1

[Metadata]
Title:2V-ALK
TitleUnicode:2V-ALK
Artist:Selections
ArtistUnicode:Selections
Creator:SK_la
Version:Tielle - shOut//NM
Source:
Tags:10K
BeatmapID:1485404
BeatmapSetID:681350

[Difficulty]
HPDrainRate:8
CircleSize:10
OverallDifficulty:7
ApproachRate:5
SliderMultiplier:1.4
SliderTickRate:1

[Events]
//Background and Video events
0,0,"shOut.jpg",0,0
//Break Periods
//Storyboard Layer 0 (Background)
//Storyboard Layer 1 (Fail)
//Storyboard Layer 2 (Pass)
//Storyboard Layer 3 (Foreground)
//Storyboard Layer 4 (Overlay)
//Storyboard Sound Samples

[TimingPoints]
4730,566.037735849057,4,2,0,50,1,0
4730,-125,4,2,0,50,0,0
9258,-100,4,2,0,50,0,0
27371,-111.111111111111,4,2,0,50,0,0
44918,-83.3333333333333,4,2,0,50,0,0
45484,-100,4,2,0,50,0,1
63597,-100,4,2,0,50,0,1
81711,-125,4,2,0,50,0,0
83975,-100,4,2,0,50,0,0
102088,-125,4,2,0,50,0,0
111145,-105.263157894737,4,2,0,50,0,0
119352,-100,4,2,0,50,0,0
120201,-100,4,2,0,50,0,1
138314,-100,4,2,0,50,0,1
156428,-133.333333333333,4,2,0,50,0,0
158692,-111.111111111111,4,2,0,50,0,0
176805,-100,4,2,0,50,0,0
185862,-117.647058823529,4,2,0,50,0,0
193786,-111.111111111111,4,2,0,50,0,0
194352,-83.3333333333333,4,2,0,50,0,0
194918,-100,4,2,0,50,0,1
213031,-100,4,2,0,50,0,1
231145,-133.333333333333,4,2,0,50,0,0

[HitObjects]
486,192,4730,5,0,0:0:0:0:
332,192,4730,1,0,0:0:0:0:
230,192,4730,1,0,0:0:0:0:
76,192,4730,1,0,0:0:0:0:
128,192,5579,1,0,0:0:0:0:
281,192,5579,1,0,0:0:0:0:
230,192,5862,1,0,0:0:0:0:
76,192,5862,1,0,0:0:0:0:
486,192,5862,1,0,0:0:0:0:
25,192,6994,1,0,0:0:0:0:
179,192,6994,1,0,0:0:0:0:
281,192,6994,1,0,0:0:0:0:
435,192,6994,1,0,0:0:0:0:
281,192,8126,1,0,0:0:0:0:
435,192,8126,1,0,0:0:0:0:
179,192,8126,1,0,0:0:0:0:
25,192,8126,1,0,0:0:0:0:
384,192,8409,1,0,0:0:0:0:
76,192,8409,1,0,0:0:0:0:
486,192,9258,1,0,0:0:0:0:
128,192,9258,1,0,0:0:0:0:
332,192,9258,1,0,0:0:0:0:
384,192,9399,1,0,0:0:0:0:
179,192,9541,1,0,0:0:0:0:
230,192,9682,1,0,0:0:0:0:
435,192,9824,1,0,0:0:0:0:
486,192,9824,1,0,0:0:0:0:
76,192,10107,1,0,0:0:0:0:
230,192,10107,1,0,0:0:0:0:
128,192,10390,1,0,0:0:0:0:
281,192,10390,1,0,0:0:0:0:
179,192,10390,1,0,0:0:0:0:
332,192,10390,1,0,0:0:0:0:
384,192,10673,1,0,0:0:0:0:
76,192,10814,1,0,0:0:0:0:
281,192,10956,1,0,0:0:0:0:
486,192,10956,1,0,0:0:0:0:
179,192,11097,1,0,0:0:0:0:
332,192,11239,1,0,0:0:0:0:
179,192,11380,1,0,0:0:0:0:
230,192,11522,1,0,0:0:0:0:
25,192,11522,1,0,0:0:0:0:
128,192,11805,1,0,0:0:0:0:
281,192,11946,1,0,0:0:0:0:
435,192,12088,1,0,0:0:0:0:
128,192,12371,1,0,0:0:0:0:
25,192,12371,1,0,0:0:0:0:
486,192,12654,1,0,0:0:0:0:
332,192,12654,1,0,0:0:0:0:
435,192,12937,1,0,0:0:0:0:
281,192,12937,1,0,0:0:0:0:
128,192,12937,1,0,0:0:0:0:
25,192,12937,1,0,0:0:0:0:
332,192,13220,1,0,0:0:0:0:
230,192,13362,1,0,0:0:0:0:
25,192,13503,1,0,0:0:0:0:
128,192,13503,1,0,0:0:0:0:
230,192,13645,1,0,0:0:0:0:
179,192,13786,1,0,0:0:0:0:
384,192,13786,1,0,0:0:0:0:
128,192,14069,1,0,0:0:0:0:
281,192,14069,1,0,0:0:0:0:
230,192,14352,1,0,0:0:0:0:
332,192,14352,1,0,0:0:0:0:
179,192,14635,1,0,0:0:0:0:
76,192,14635,1,0,0:0:0:0:
128,192,14918,1,0,0:0:0:0:
230,192,14918,1,0,0:0:0:0:
332,192,14918,1,0,0:0:0:0:
384,192,15060,1,0,0:0:0:0:
435,192,15201,1,0,0:0:0:0:
179,192,15343,1,0,0:0:0:0:
281,192,15767,1,0,0:0:0:0:
332,192,15909,1,0,0:0:0:0:
128,192,16050,1,0,0:0:0:0:
25,192,16050,1,0,0:0:0:0:
384,192,16333,1,0,0:0:0:0:
435,192,16616,1,0,0:0:0:0:
486,192,16899,1,0,0:0:0:0:
128,192,17182,1,0,0:0:0:0:
25,192,17182,1,0,0:0:0:0:
384,192,17182,1,0,0:0:0:0:
179,192,17465,1,0,0:0:0:0:
76,192,17465,1,0,0:0:0:0:
332,192,17607,1,0,0:0:0:0:
435,192,18314,1,0,0:0:0:0:
179,192,18314,1,0,0:0:0:0:
25,192,18314,1,0,0:0:0:0:
281,192,18597,1,0,0:0:0:0:
486,192,18880,1,0,0:0:0:0:
128,192,19163,1,0,0:0:0:0:
230,192,19163,1,0,0:0:0:0:
332,192,19163,1,0,0:0:0:0:
25,192,19446,1,0,0:0:0:0:
179,192,19446,1,0,0:0:0:0:
435,192,19446,1,0,0:0:0:0:
281,192,19730,1,0,0:0:0:0:
486,192,19871,1,0,0:0:0:0:
332,192,20154,1,0,0:0:0:0:
435,192,20437,1,0,0:0:0:0:
76,192,20579,1,0,0:0:0:0:
230,192,20579,1,0,0:0:0:0:
332,192,20720,1,0,0:0:0:0:
281,192,20862,1,0,0:0:0:0:
435,192,21145,1,0,0:0:0:0:
332,192,21428,1,0,0:0:0:0:
25,192,21711,1,0,0:0:0:0:
486,192,21711,1,0,0:0:0:0:
128,192,21711,1,0,0:0:0:0:
230,192,21994,1,0,0:0:0:0:
76,192,21994,1,0,0:0:0:0:
281,192,21994,1,0,0:0:0:0:
332,192,22135,1,0,0:0:0:0:
435,192,22418,1,0,0:0:0:0:
179,192,22843,1,0,0:0:0:0:
281,192,22843,1,0,0:0:0:0:
128,192,22843,1,0,0:0:0:0:
384,192,22843,1,0,0:0:0:0:
486,192,23409,1,0,0:0:0:0:
332,192,23409,1,0,0:0:0:0:
76,192,23692,1,0,0:0:0:0:
230,192,23692,1,0,0:0:0:0:
128,192,23975,1,0,0:0:0:0:
179,192,23975,1,0,0:0:0:0:
281,192,23975,1,0,0:0:0:0:
384,192,23975,1,0,0:0:0:0:
486,192,24399,1,0,0:0:0:0:
332,192,24399,1,0,0:0:0:0:
76,192,25107,1,0,0:0:0:0:
332,192,25107,1,0,0:0:0:0:
435,192,25107,1,0,0:0:0:0:
25,192,25107,1,0,0:0:0:0:
179,192,25390,1,0,0:0:0:0:
281,192,25673,1,0,0:0:0:0:
384,192,25956,1,0,0:0:0:0:
179,192,26239,1,0,0:0:0:0:
230,192,26239,1,0,0:0:0:0:
486,192,26239,1,0,0:0:0:0:
76,192,26522,1,0,0:0:0:0:
281,192,26522,1,0,0:0:0:0:
25,192,26522,1,0,0:0:0:0:
332,192,26522,1,0,0:0:0:0:
435,192,26805,1,0,0:0:0:0:
128,192,27371,1,0,0:0:0:0:
230,192,27371,1,0,0:0:0:0:
486,192,27371,1,0,0:0:0:0:
384,192,27654,1,0,0:0:0:0:
230,192,27937,1,0,0:0:0:0:
128,192,27937,1,0,0:0:0:0:
281,192,27937,1,0,0:0:0:0:
332,192,28220,1,0,0:0:0:0:
230,192,28503,1,0,0:0:0:0:
128,192,28503,1,0,0:0:0:0:
435,192,28503,1,0,0:0:0:0:
332,192,28786,1,0,0:0:0:0:
230,192,29069,1,0,0:0:0:0:
128,192,29069,1,0,0:0:0:0:
486,192,29069,1,0,0:0:0:0:
179,192,29352,1,0,0:0:0:0:
435,192,29635,1,0,0:0:0:0:
384,192,29635,1,0,0:0:0:0:
179,192,29635,1,0,0:0:0:0:
76,192,29635,1,0,0:0:0:0:
230,192,29918,1,0,0:0:0:0:
179,192,30201,1,0,0:0:0:0:
435,192,30201,1,0,0:0:0:0:
76,192,30201,1,0,0:0:0:0:
281,192,30201,1,0,0:0:0:0:
76,192,30767,1,0,0:0:0:0:
179,192,30767,1,0,0:0:0:0:
384,192,30767,1,0,0:0:0:0:
332,192,30767,1,0,0:0:0:0:
230,192,31050,1,0,0:0:0:0:
76,192,31333,1,0,0:0:0:0:
486,192,31333,1,0,0:0:0:0:
179,192,31333,1,0,0:0:0:0:
332,192,31333,1,0,0:0:0:0:
128,192,31616,1,0,0:0:0:0:
128,192,31899,1,0,0:0:0:0:
25,192,31899,1,0,0:0:0:0:
281,192,31899,1,0,0:0:0:0:
435,192,32182,1,0,0:0:0:0:
128,192,32465,1,0,0:0:0:0:
25,192,32465,1,0,0:0:0:0:
332,192,32465,1,0,0:0:0:0:
435,192,32748,1,0,0:0:0:0:
25,192,33031,1,0,0:0:0:0:
128,192,33031,1,0,0:0:0:0:
281,192,33031,1,0,0:0:0:0:
281,192,33314,1,0,0:0:0:0:
25,192,33597,1,0,0:0:0:0:
128,192,33597,1,0,0:0:0:0:
332,192,33597,1,0,0:0:0:0:
384,192,33739,1,0,0:0:0:0:
179,192,33880,1,0,0:0:0:0:
435,192,33880,1,0,0:0:0:0:
230,192,34163,1,0,0:0:0:0:
76,192,34163,1,0,0:0:0:0:
281,192,34163,1,0,0:0:0:0:
332,192,34446,1,0,0:0:0:0:
230,192,34730,1,0,0:0:0:0:
76,192,34730,1,0,0:0:0:0:
384,192,34730,1,0,0:0:0:0:
435,192,35013,1,0,0:0:0:0:
230,192,35296,1,0,0:0:0:0:
76,192,35296,1,0,0:0:0:0:
281,192,35579,1,0,0:0:0:0:
76,192,35862,1,0,0:0:0:0:
230,192,35862,1,0,0:0:0:0:
486,192,35862,1,0,0:0:0:0:
179,192,36145,1,0,0:0:0:0:
25,192,36428,1,0,0:0:0:0:
76,192,36428,1,0,0:0:0:0:
281,192,36428,128,0,36994:0:0:0:0:
76,192,36994,1,0,0:0:0:0:
25,192,36994,1,0,0:0:0:0:
76,192,37560,1,0,0:0:0:0:
25,192,37560,1,0,0:0:0:0:
435,192,37560,1,0,0:0:0:0:
76,192,38126,1,0,0:0:0:0:
25,192,38126,1,0,0:0:0:0:
332,192,38126,1,0,0:0:0:0:
230,192,38409,1,0,0:0:0:0:
179,192,38409,1,0,0:0:0:0:
384,192,38409,128,0,39258:0:0:0:0:
128,192,38692,1,0,0:0:0:0:
76,192,38692,1,0,0:0:0:0:
179,192,38833,1,0,0:0:0:0:
230,192,38975,1,0,0:0:0:0:
179,192,39116,1,0,0:0:0:0:
128,192,39258,1,0,0:0:0:0:
76,192,39258,1,0,0:0:0:0:
179,192,39399,1,0,0:0:0:0:
230,192,39541,1,0,0:0:0:0:
281,192,39541,1,0,0:0:0:0:
179,192,39682,1,0,0:0:0:0:
128,192,39824,1,0,0:0:0:0:
76,192,39824,1,0,0:0:0:0:
486,192,39824,1,0,0:0:0:0:
179,192,39965,1,0,0:0:0:0:
230,192,40107,1,0,0:0:0:0:
179,192,40248,1,0,0:0:0:0:
128,192,40390,1,0,0:0:0:0:
76,192,40390,1,0,0:0:0:0:
332,192,40390,1,0,0:0:0:0:
179,192,40531,1,0,0:0:0:0:
230,192,40673,1,0,0:0:0:0:
435,192,40673,128,0,41380:0:0:0:0:
179,192,40814,1,0,0:0:0:0:
128,192,40956,128,0,41522:0:0:0:0:
76,192,40956,1,0,0:0:0:0:
230,192,41522,128,0,42088:0:0:0:0:
332,192,41805,1,0,0:0:0:0:
128,192,42088,128,0,42654:0:0:0:0:
486,192,42088,1,0,0:0:0:0:
486,192,42513,1,0,0:0:0:0:
230,192,42654,128,0,43220:0:0:0:0:
332,192,42654,1,0,0:0:0:0:
435,192,42937,128,0,44352:0:0:0:0:
25,192,43220,128,0,43503:0:0:0:0:
25,192,43786,128,0,44069:0:0:0:0:
179,192,44352,128,0,45484:0:0:0:0:
25,192,45484,1,0,0:0:0:0:
230,192,45484,1,0,0:0:0:0:
486,192,45484,128,0,46616:0:0:0:0:
332,192,45484,128,0,46616:0:0:0:0:
179,192,45626,1,0,0:0:0:0:
76,192,45767,1,0,0:0:0:0:
179,192,45909,1,0,0:0:0:0:
230,192,46050,1,0,0:0:0:0:
25,192,46050,1,0,0:0:0:0:
76,192,46192,1,0,0:0:0:0:
128,192,46333,1,0,0:0:0:0:
179,192,46333,1,0,0:0:0:0:
128,192,46616,1,0,0:0:0:0:
76,192,46616,1,0,0:0:0:0:
128,192,46899,1,0,0:0:0:0:
332,192,46899,1,0,0:0:0:0:
179,192,47041,1,0,0:0:0:0:
76,192,47182,1,0,0:0:0:0:
230,192,47182,1,0,0:0:0:0:
435,192,47182,1,0,0:0:0:0:
128,192,47324,1,0,0:0:0:0:
179,192,47465,1,0,0:0:0:0:
230,192,47607,1,0,0:0:0:0:
281,192,47748,1,0,0:0:0:0:
486,192,47748,1,0,0:0:0:0:
179,192,47748,1,0,0:0:0:0:
128,192,48031,1,0,0:0:0:0:
332,192,48173,1,0,0:0:0:0:
25,192,48314,1,0,0:0:0:0:
281,192,48314,1,0,0:0:0:0:
486,192,48314,1,0,0:0:0:0:
76,192,48314,1,0,0:0:0:0:
179,192,48597,1,0,0:0:0:0:
230,192,48597,1,0,0:0:0:0:
332,192,48597,1,0,0:0:0:0:
230,192,48880,1,0,0:0:0:0:
179,192,48880,1,0,0:0:0:0:
281,192,48880,1,0,0:0:0:0:
332,192,49163,1,0,0:0:0:0:
76,192,49163,1,0,0:0:0:0:
435,192,49305,1,0,0:0:0:0:
332,192,49446,1,0,0:0:0:0:
230,192,49446,1,0,0:0:0:0:
128,192,49446,1,0,0:0:0:0:
435,192,49588,1,0,0:0:0:0:
179,192,49588,1,0,0:0:0:0:
332,192,49730,1,0,0:0:0:0:
486,192,50013,1,0,0:0:0:0:
230,192,50013,1,0,0:0:0:0:
332,192,50296,1,0,0:0:0:0:
128,192,50296,1,0,0:0:0:0:
281,192,50437,1,0,0:0:0:0:
486,192,50579,1,0,0:0:0:0:
384,192,50579,1,0,0:0:0:0:
25,192,50579,1,0,0:0:0:0:
332,192,50862,1,0,0:0:0:0:
179,192,50862,1,0,0:0:0:0:
332,192,51145,1,0,0:0:0:0:
179,192,51145,1,0,0:0:0:0:
230,192,51428,1,0,0:0:0:0:
128,192,51711,1,0,0:0:0:0:
281,192,51711,1,0,0:0:0:0:
179,192,51852,1,0,0:0:0:0:
332,192,51852,1,0,0:0:0:0:
230,192,51994,1,0,0:0:0:0:
384,192,51994,1,0,0:0:0:0:
128,192,52277,1,0,0:0:0:0:
76,192,52277,1,0,0:0:0:0:
435,192,52277,1,0,0:0:0:0:
179,192,52560,1,0,0:0:0:0:
332,192,52701,1,0,0:0:0:0:
25,192,52843,1,0,0:0:0:0:
230,192,52843,1,0,0:0:0:0:
435,192,52843,1,0,0:0:0:0:
128,192,53126,1,0,0:0:0:0:
179,192,53126,1,0,0:0:0:0:
384,192,53267,1,0,0:0:0:0:
76,192,53409,1,0,0:0:0:0:
128,192,53409,1,0,0:0:0:0:
486,192,53409,1,0,0:0:0:0:
179,192,53692,1,0,0:0:0:0:
332,192,53692,1,0,0:0:0:0:
76,192,53975,1,0,0:0:0:0:
435,192,53975,1,0,0:0:0:0:
384,192,54258,1,0,0:0:0:0:
179,192,54258,1,0,0:0:0:0:
230,192,54399,1,0,0:0:0:0:
76,192,54541,1,0,0:0:0:0:
332,192,54541,1,0,0:0:0:0:
486,192,54541,1,0,0:0:0:0:
384,192,54965,1,0,0:0:0:0:
230,192,54965,1,0,0:0:0:0:
179,192,54965,1,0,0:0:0:0:
281,192,55107,1,0,0:0:0:0:
76,192,55107,1,0,0:0:0:0:
25,192,55107,1,0,0:0:0:0:
179,192,55390,1,0,0:0:0:0:
332,192,55390,1,0,0:0:0:0:
384,192,55390,1,0,0:0:0:0:
281,192,55673,1,0,0:0:0:0:
486,192,55673,1,0,0:0:0:0:
76,192,55673,1,0,0:0:0:0:
128,192,55956,1,0,0:0:0:0:
384,192,55956,1,0,0:0:0:0:
76,192,56239,1,0,0:0:0:0:
179,192,56239,1,0,0:0:0:0:
332,192,56239,1,0,0:0:0:0:
281,192,56522,1,0,0:0:0:0:
230,192,56805,1,0,0:0:0:0:
25,192,56805,1,0,0:0:0:0:
486,192,56805,1,0,0:0:0:0:
435,192,57088,1,0,0:0:0:0:
76,192,57088,1,0,0:0:0:0:
230,192,57371,1,0,0:0:0:0:
384,192,57371,1,0,0:0:0:0:
25,192,57371,1,0,0:0:0:0:
332,192,57654,1,0,0:0:0:0:
179,192,57654,1,0,0:0:0:0:
281,192,57937,1,0,0:0:0:0:
435,192,57937,1,0,0:0:0:0:
128,192,57937,1,0,0:0:0:0:
384,192,58220,1,0,0:0:0:0:
25,192,58220,1,0,0:0:0:0:
76,192,58362,1,0,0:0:0:0:
128,192,58503,1,0,0:0:0:0:
230,192,58503,1,0,0:0:0:0:
486,192,58786,1,0,0:0:0:0:
179,192,58786,1,0,0:0:0:0:
76,192,59069,1,0,0:0:0:0:
281,192,59069,1,0,0:0:0:0:
128,192,59069,1,0,0:0:0:0:
332,192,59211,1,0,0:0:0:0:
179,192,59352,1,0,0:0:0:0:
128,192,59352,1,0,0:0:0:0:
384,192,59352,1,0,0:0:0:0:
179,192,59635,1,0,0:0:0:0:
230,192,59635,1,0,0:0:0:0:
332,192,59635,1,0,0:0:0:0:
486,192,59918,1,0,0:0:0:0:
25,192,59918,1,0,0:0:0:0:
230,192,60201,1,0,0:0:0:0:
332,192,60201,1,0,0:0:0:0:
76,192,60484,1,0,0:0:0:0:
281,192,60484,1,0,0:0:0:0:
486,192,60767,1,0,0:0:0:0:
179,192,60767,1,0,0:0:0:0:
384,192,60767,1,0,0:0:0:0:
25,192,61050,1,0,0:0:0:0:
435,192,61050,1,0,0:0:0:0:
486,192,61333,1,0,0:0:0:0:
230,192,61333,1,0,0:0:0:0:
332,192,61333,1,0,0:0:0:0:
25,192,61616,1,0,0:0:0:0:
384,192,61616,1,0,0:0:0:0:
281,192,61899,1,0,0:0:0:0:
230,192,61899,1,0,0:0:0:0:
486,192,61899,1,0,0:0:0:0:
25,192,62182,1,0,0:0:0:0:
384,192,62182,1,0,0:0:0:0:
230,192,62465,1,0,0:0:0:0:
486,192,62465,1,0,0:0:0:0:
332,192,62465,1,0,0:0:0:0:
76,192,62748,1,0,0:0:0:0:
435,192,62748,1,0,0:0:0:0:
281,192,63031,1,0,0:0:0:0:
179,192,63031,1,0,0:0:0:0:
76,192,63173,1,0,0:0:0:0:
486,192,63173,1,0,0:0:0:0:
230,192,63314,1,0,0:0:0:0:
281,192,63314,1,0,0:0:0:0:
25,192,63456,1,0,0:0:0:0:
384,192,63456,1,0,0:0:0:0:
76,192,63597,1,0,0:0:0:0:
25,192,63597,1,0,0:0:0:0:
332,192,63597,1,0,0:0:0:0:
179,192,63880,1,0,0:0:0:0:
435,192,63880,1,0,0:0:0:0:
76,192,64022,1,0,0:0:0:0:
332,192,64163,1,0,0:0:0:0:
384,192,64163,1,0,0:0:0:0:
128,192,64163,1,0,0:0:0:0:
281,192,64446,1,0,0:0:0:0:
179,192,64446,1,0,0:0:0:0:
230,192,64730,1,0,0:0:0:0:
128,192,64730,1,0,0:0:0:0:
486,192,64730,1,0,0:0:0:0:
384,192,64730,1,0,0:0:0:0:
230,192,65154,1,0,0:0:0:0:
128,192,65154,1,0,0:0:0:0:
435,192,65296,1,0,0:0:0:0:
332,192,65296,1,0,0:0:0:0:
230,192,65579,1,0,0:0:0:0:
128,192,65579,1,0,0:0:0:0:
76,192,65862,1,0,0:0:0:0:
384,192,65862,1,0,0:0:0:0:
128,192,66145,1,0,0:0:0:0:
332,192,66145,1,0,0:0:0:0:
25,192,66286,1,0,0:0:0:0:
486,192,66428,1,0,0:0:0:0:
435,192,66428,1,0,0:0:0:0:
76,192,66428,1,0,0:0:0:0:
281,192,66711,1,0,0:0:0:0:
128,192,66711,1,0,0:0:0:0:
179,192,66994,1,0,0:0:0:0:
76,192,66994,1,0,0:0:0:0:
332,192,66994,1,0,0:0:0:0:
435,192,66994,1,0,0:0:0:0:
179,192,67418,1,0,0:0:0:0:
76,192,67418,1,0,0:0:0:0:
384,192,67560,1,0,0:0:0:0:
486,192,67560,1,0,0:0:0:0:
179,192,67843,1,0,0:0:0:0:
76,192,67843,1,0,0:0:0:0:
128,192,68126,1,0,0:0:0:0:
230,192,68126,1,0,0:0:0:0:
281,192,68126,1,0,0:0:0:0:
384,192,68126,1,0,0:0:0:0:
179,192,68409,1,0,0:0:0:0:
332,192,68409,1,0,0:0:0:0:
25,192,68692,128,0,69258:0:0:0:0:
486,192,68692,1,0,0:0:0:0:
76,192,68692,1,0,0:0:0:0:
281,192,68975,1,0,0:0:0:0:
384,192,68975,1,0,0:0:0:0:
128,192,69258,128,0,69824:0:0:0:0:
486,192,69258,1,0,0:0:0:0:
230,192,69824,128,0,70390:0:0:0:0:
332,192,69824,1,0,0:0:0:0:
435,192,69824,1,0,0:0:0:0:
384,192,70390,1,0,0:0:0:0:
128,192,70390,1,0,0:0:0:0:
332,192,70390,1,0,0:0:0:0:
76,192,70390,1,0,0:0:0:0:
332,192,70673,1,0,0:0:0:0:
128,192,70673,1,0,0:0:0:0:
230,192,70673,1,0,0:0:0:0:
435,192,70814,1,0,0:0:0:0:
25,192,70956,1,0,0:0:0:0:
76,192,71239,1,0,0:0:0:0:
332,192,71239,1,0,0:0:0:0:
384,192,71239,1,0,0:0:0:0:
179,192,71239,1,0,0:0:0:0:
230,192,71522,128,0,72088:0:0:0:0:
128,192,71522,1,0,0:0:0:0:
332,192,71522,1,0,0:0:0:0:
281,192,71522,1,0,0:0:0:0:
179,192,71805,1,0,0:0:0:0:
332,192,72088,1,0,0:0:0:0:
281,192,72230,1,0,0:0:0:0:
230,192,72371,1,0,0:0:0:0:
179,192,72513,1,0,0:0:0:0:
128,192,72654,1,0,0:0:0:0:
332,192,72654,1,0,0:0:0:0:
435,192,72796,1,0,0:0:0:0:
179,192,72796,1,0,0:0:0:0:
230,192,72937,1,0,0:0:0:0:
332,192,73079,1,0,0:0:0:0:
435,192,73220,1,0,0:0:0:0:
25,192,73220,1,0,0:0:0:0:
128,192,73503,1,0,0:0:0:0:
384,192,73503,1,0,0:0:0:0:
332,192,73503,1,0,0:0:0:0:
179,192,73503,1,0,0:0:0:0:
25,192,73786,1,0,0:0:0:0:
281,192,73786,1,0,0:0:0:0:
230,192,73786,1,0,0:0:0:0:
179,192,73928,1,0,0:0:0:0:
435,192,73928,1,0,0:0:0:0:
230,192,74211,1,0,0:0:0:0:
25,192,74211,1,0,0:0:0:0:
281,192,74211,1,0,0:0:0:0:
179,192,74352,1,0,0:0:0:0:
435,192,74352,1,0,0:0:0:0:
25,192,74635,1,0,0:0:0:0:
230,192,74635,1,0,0:0:0:0:
281,192,74635,1,0,0:0:0:0:
435,192,74777,1,0,0:0:0:0:
179,192,74918,1,0,0:0:0:0:
332,192,74918,1,0,0:0:0:0:
76,192,75060,1,0,0:0:0:0:
384,192,75201,1,0,0:0:0:0:
179,192,75343,1,0,0:0:0:0:
281,192,75343,1,0,0:0:0:0:
76,192,75484,1,0,0:0:0:0:
486,192,75484,1,0,0:0:0:0:
384,192,75767,1,0,0:0:0:0:
128,192,75767,1,0,0:0:0:0:
179,192,75767,1,0,0:0:0:0:
332,192,75767,1,0,0:0:0:0:
486,192,76050,1,0,0:0:0:0:
230,192,76050,1,0,0:0:0:0:
281,192,76050,1,0,0:0:0:0:
76,192,76192,1,0,0:0:0:0:
179,192,76333,1,0,0:0:0:0:
281,192,76475,1,0,0:0:0:0:
486,192,76475,1,0,0:0:0:0:
230,192,76475,1,0,0:0:0:0:
76,192,76616,1,0,0:0:0:0:
179,192,76758,1,0,0:0:0:0:
486,192,76899,1,0,0:0:0:0:
281,192,76899,1,0,0:0:0:0:
230,192,76899,1,0,0:0:0:0:
76,192,77041,1,0,0:0:0:0:
179,192,77182,1,0,0:0:0:0:
332,192,77182,1,0,0:0:0:0:
230,192,77324,1,0,0:0:0:0:
384,192,77465,1,0,0:0:0:0:
25,192,77465,1,0,0:0:0:0:
128,192,77607,1,0,0:0:0:0:
281,192,77748,1,0,0:0:0:0:
230,192,77748,128,0,78031:0:0:0:0:
486,192,77748,1,0,0:0:0:0:
128,192,78031,1,0,0:0:0:0:
332,192,78031,1,0,0:0:0:0:
230,192,78314,128,0,78597:0:0:0:0:
486,192,78314,1,0,0:0:0:0:
435,192,78314,1,0,0:0:0:0:
76,192,78597,1,0,0:0:0:0:
332,192,78597,1,0,0:0:0:0:
486,192,78880,1,0,0:0:0:0:
179,192,78880,128,0,79163:0:0:0:0:
281,192,78880,1,0,0:0:0:0:
128,192,79163,1,0,0:0:0:0:
332,192,79163,1,0,0:0:0:0:
230,192,79446,1,0,0:0:0:0:
281,192,79446,1,0,0:0:0:0:
435,192,79446,1,0,0:0:0:0:
128,192,79588,1,0,0:0:0:0:
25,192,79730,1,0,0:0:0:0:
332,192,79730,1,0,0:0:0:0:
76,192,79871,1,0,0:0:0:0:
435,192,80013,1,0,0:0:0:0:
179,192,80013,1,0,0:0:0:0:
281,192,80013,1,0,0:0:0:0:
230,192,80296,1,0,0:0:0:0:
128,192,80296,1,0,0:0:0:0:
486,192,80296,1,0,0:0:0:0:
384,192,80296,1,0,0:0:0:0:
25,192,80579,1,0,0:0:0:0:
332,192,80579,128,0,81145:0:0:0:0:
179,192,80720,1,0,0:0:0:0:
25,192,81145,1,0,0:0:0:0:
179,192,81145,1,0,0:0:0:0:
332,192,81428,1,0,0:0:0:0:
128,192,81428,1,0,0:0:0:0:
179,192,81711,1,0,0:0:0:0:
76,192,81711,1,0,0:0:0:0:
486,192,81711,1,0,0:0:0:0:
230,192,82277,1,0,0:0:0:0:
486,192,82277,1,0,0:0:0:0:
128,192,82277,1,0,0:0:0:0:
179,192,82843,1,0,0:0:0:0:
486,192,82843,1,0,0:0:0:0:
281,192,82843,1,0,0:0:0:0:
230,192,83409,1,0,0:0:0:0:
486,192,83409,1,0,0:0:0:0:
332,192,83409,1,0,0:0:0:0:
76,192,83975,1,0,0:0:0:0:
332,192,83975,1,0,0:0:0:0:
486,192,83975,1,0,0:0:0:0:
230,192,84258,1,0,0:0:0:0:
25,192,84541,1,0,0:0:0:0:
384,192,84824,1,0,0:0:0:0:
281,192,84824,1,0,0:0:0:0:
179,192,84824,1,0,0:0:0:0:
486,192,85107,1,0,0:0:0:0:
332,192,85107,1,0,0:0:0:0:
76,192,85107,1,0,0:0:0:0:
230,192,85390,1,0,0:0:0:0:
25,192,85531,1,0,0:0:0:0:
179,192,85814,1,0,0:0:0:0:
76,192,86097,1,0,0:0:0:0:
435,192,86239,1,0,0:0:0:0:
281,192,86239,1,0,0:0:0:0:
179,192,86380,1,0,0:0:0:0:
230,192,86522,1,0,0:0:0:0:
76,192,86805,1,0,0:0:0:0:
179,192,87088,1,0,0:0:0:0:
486,192,87371,1,0,0:0:0:0:
25,192,87371,1,0,0:0:0:0:
384,192,87371,1,0,0:0:0:0:
281,192,87654,1,0,0:0:0:0:
435,192,87654,1,0,0:0:0:0:
230,192,87654,1,0,0:0:0:0:
179,192,87796,1,0,0:0:0:0:
76,192,88079,1,0,0:0:0:0:
332,192,88503,1,0,0:0:0:0:
230,192,88503,1,0,0:0:0:0:
384,192,88503,1,0,0:0:0:0:
128,192,88503,1,0,0:0:0:0:
25,192,89069,1,0,0:0:0:0:
179,192,89069,1,0,0:0:0:0:
435,192,89352,1,0,0:0:0:0:
281,192,89352,1,0,0:0:0:0:
384,192,89635,1,0,0:0:0:0:
332,192,89635,1,0,0:0:0:0:
230,192,89635,1,0,0:0:0:0:
128,192,89635,1,0,0:0:0:0:
25,192,90060,1,0,0:0:0:0:
179,192,90060,1,0,0:0:0:0:
435,192,90767,1,0,0:0:0:0:
179,192,90767,1,0,0:0:0:0:
76,192,90767,1,0,0:0:0:0:
486,192,90767,1,0,0:0:0:0:
332,192,91050,1,0,0:0:0:0:
230,192,91333,1,0,0:0:0:0:
128,192,91616,1,0,0:0:0:0:
332,192,91899,1,0,0:0:0:0:
281,192,91899,1,0,0:0:0:0:
25,192,91899,1,0,0:0:0:0:
435,192,92182,1,0,0:0:0:0:
230,192,92182,1,0,0:0:0:0:
486,192,92182,1,0,0:0:0:0:
179,192,92182,1,0,0:0:0:0:
76,192,92465,1,0,0:0:0:0:
486,192,93031,1,0,0:0:0:0:
128,192,93031,1,0,0:0:0:0:
332,192,93031,1,0,0:0:0:0:
384,192,93173,1,0,0:0:0:0:
179,192,93314,1,0,0:0:0:0:
230,192,93456,1,0,0:0:0:0:
435,192,93597,1,0,0:0:0:0:
76,192,93880,1,0,0:0:0:0:
128,192,94163,1,0,0:0:0:0:
281,192,94163,1,0,0:0:0:0:
435,192,94163,1,0,0:0:0:0:
332,192,94446,1,0,0:0:0:0:
179,192,94588,1,0,0:0:0:0:
281,192,94730,1,0,0:0:0:0:
486,192,94730,1,0,0:0:0:0:
76,192,94871,1,0,0:0:0:0:
179,192,95013,1,0,0:0:0:0:
281,192,95154,1,0,0:0:0:0:
384,192,95296,1,0,0:0:0:0:
25,192,95296,1,0,0:0:0:0:
128,192,95579,1,0,0:0:0:0:
179,192,95720,1,0,0:0:0:0:
230,192,95862,1,0,0:0:0:0:
128,192,96145,1,0,0:0:0:0:
25,192,96145,1,0,0:0:0:0:
486,192,96428,1,0,0:0:0:0:
332,192,96428,1,0,0:0:0:0:
128,192,96711,1,0,0:0:0:0:
25,192,96711,1,0,0:0:0:0:
179,192,96852,1,0,0:0:0:0:
332,192,96852,1,0,0:0:0:0:
230,192,97135,1,0,0:0:0:0:
384,192,97135,1,0,0:0:0:0:
179,192,97560,1,0,0:0:0:0:
435,192,97560,1,0,0:0:0:0:
25,192,97843,1,0,0:0:0:0:
281,192,97843,1,0,0:0:0:0:
179,192,98126,1,0,0:0:0:0:
435,192,98126,1,0,0:0:0:0:
332,192,98409,1,0,0:0:0:0:
76,192,98409,1,0,0:0:0:0:
25,192,98692,1,0,0:0:0:0:
281,192,98692,1,0,0:0:0:0:
384,192,98833,1,0,0:0:0:0:
128,192,99116,1,0,0:0:0:0:
230,192,99541,128,0,100107:0:0:0:0:
128,192,99824,1,0,0:0:0:0:
25,192,99824,1,0,0:0:0:0:
384,192,100107,1,0,0:0:0:0:
435,192,100390,1,0,0:0:0:0:
486,192,100673,1,0,0:0:0:0:
128,192,100956,5,0,0:0:0:0:
25,192,100956,1,0,0:0:0:0:
384,192,100956,1,0,0:0:0:0:
179,192,101239,1,0,0:0:0:0:
76,192,101239,1,0,0:0:0:0:
332,192,101380,1,0,0:0:0:0:
179,192,102088,128,0,103503:0:0:0:0:
281,192,102088,1,0,0:0:0:0:
281,192,102371,1,0,0:0:0:0:
384,192,102513,1,0,0:0:0:0:
281,192,102654,1,0,0:0:0:0:
332,192,103220,1,0,0:0:0:0:
435,192,103503,1,0,0:0:0:0:
25,192,103786,128,0,104352:0:0:0:0:
332,192,103786,1,0,0:0:0:0:
230,192,104352,128,0,105626:0:0:0:0:
435,192,104352,1,0,0:0:0:0:
384,192,104635,1,0,0:0:0:0:
332,192,104918,1,0,0:0:0:0:
486,192,105484,1,0,0:0:0:0:
179,192,105767,128,0,106050:0:0:0:0:
384,192,105767,1,0,0:0:0:0:
230,192,106050,128,0,106475:0:0:0:0:
281,192,106050,1,0,0:0:0:0:
76,192,106616,128,0,108031:0:0:0:0:
281,192,106899,1,0,0:0:0:0:
384,192,107182,1,0,0:0:0:0:
332,192,107465,1,0,0:0:0:0:
486,192,107748,1,0,0:0:0:0:
179,192,108031,128,0,108314:0:0:0:0:
384,192,108031,1,0,0:0:0:0:
76,192,108314,128,0,108880:0:0:0:0:
281,192,108314,1,0,0:0:0:0:
486,192,108597,1,0,0:0:0:0:
128,192,108880,128,0,111145:0:0:0:0:
332,192,108880,1,0,0:0:0:0:
435,192,108880,1,0,0:0:0:0:
435,192,109446,1,0,0:0:0:0:
281,192,109446,1,0,0:0:0:0:
332,192,109730,1,0,0:0:0:0:
332,192,110296,1,0,0:0:0:0:
435,192,110579,1,0,0:0:0:0:
332,192,110862,1,0,0:0:0:0:
281,192,111145,1,0,0:0:0:0:
384,192,111145,1,0,0:0:0:0:
332,192,111428,1,0,0:0:0:0:
230,192,111711,1,0,0:0:0:0:
435,192,111711,1,0,0:0:0:0:
128,192,111994,1,0,0:0:0:0:
281,192,112135,1,0,0:0:0:0:
179,192,112277,1,0,0:0:0:0:
384,192,112277,1,0,0:0:0:0:
128,192,112560,1,0,0:0:0:0:
25,192,112701,1,0,0:0:0:0:
384,192,112843,1,0,0:0:0:0:
281,192,112843,1,0,0:0:0:0:
179,192,112843,1,0,0:0:0:0:
230,192,113126,1,0,0:0:0:0:
435,192,113409,1,0,0:0:0:0:
332,192,113409,1,0,0:0:0:0:
76,192,113409,1,0,0:0:0:0:
128,192,113550,1,0,0:0:0:0:
179,192,113692,1,0,0:0:0:0:
25,192,113975,1,0,0:0:0:0:
230,192,113975,1,0,0:0:0:0:
435,192,113975,1,0,0:0:0:0:
76,192,114258,1,0,0:0:0:0:
128,192,114399,1,0,0:0:0:0:
435,192,114541,1,0,0:0:0:0:
281,192,114541,1,0,0:0:0:0:
179,192,114541,1,0,0:0:0:0:
332,192,114824,1,0,0:0:0:0:
230,192,114824,1,0,0:0:0:0:
384,192,115107,1,0,0:0:0:0:
25,192,115107,1,0,0:0:0:0:
76,192,115390,1,0,0:0:0:0:
128,192,115531,1,0,0:0:0:0:
332,192,115673,1,0,0:0:0:0:
179,192,115673,1,0,0:0:0:0:
384,192,115956,1,0,0:0:0:0:
281,192,116239,1,0,0:0:0:0:
179,192,116522,1,0,0:0:0:0:
76,192,116805,1,0,0:0:0:0:
179,192,116946,1,0,0:0:0:0:
281,192,117088,1,0,0:0:0:0:
384,192,117371,1,0,0:0:0:0:
128,192,117654,1,0,0:0:0:0:
332,192,117937,1,0,0:0:0:0:
230,192,117937,128,0,119069:0:0:0:0:
179,192,119352,128,0,120201:0:0:0:0:
25,192,119352,128,0,120201:0:0:0:0:
486,192,120201,128,0,121333:0:0:0:0:
332,192,120201,128,0,121333:0:0:0:0:
230,192,120201,1,0,0:0:0:0:
76,192,120343,1,0,0:0:0:0:
128,192,120484,1,0,0:0:0:0:
179,192,120626,1,0,0:0:0:0:
25,192,120767,1,0,0:0:0:0:
230,192,120767,1,0,0:0:0:0:
128,192,121050,1,0,0:0:0:0:
179,192,121050,1,0,0:0:0:0:
76,192,121333,1,0,0:0:0:0:
230,192,121333,1,0,0:0:0:0:
332,192,121616,1,0,0:0:0:0:
179,192,121616,1,0,0:0:0:0:
435,192,121899,1,0,0:0:0:0:
25,192,121899,1,0,0:0:0:0:
230,192,121899,1,0,0:0:0:0:
179,192,122041,1,0,0:0:0:0:
128,192,122182,1,0,0:0:0:0:
332,192,122182,1,0,0:0:0:0:
25,192,122465,1,0,0:0:0:0:
486,192,122465,1,0,0:0:0:0:
281,192,122465,1,0,0:0:0:0:
384,192,122748,1,0,0:0:0:0:
76,192,122890,1,0,0:0:0:0:
486,192,123031,1,0,0:0:0:0:
281,192,123031,1,0,0:0:0:0:
128,192,123031,1,0,0:0:0:0:
332,192,123314,1,0,0:0:0:0:
25,192,123314,1,0,0:0:0:0:
281,192,123597,1,0,0:0:0:0:
25,192,123597,1,0,0:0:0:0:
332,192,123880,1,0,0:0:0:0:
128,192,123880,1,0,0:0:0:0:
76,192,124163,1,0,0:0:0:0:
486,192,124163,1,0,0:0:0:0:
435,192,124163,1,0,0:0:0:0:
179,192,124163,1,0,0:0:0:0:
281,192,124446,1,0,0:0:0:0:
384,192,124446,1,0,0:0:0:0:
128,192,124446,1,0,0:0:0:0:
486,192,124730,1,0,0:0:0:0:
25,192,124730,1,0,0:0:0:0:
332,192,125013,1,0,0:0:0:0:
179,192,125013,1,0,0:0:0:0:
281,192,125154,1,0,0:0:0:0:
76,192,125154,1,0,0:0:0:0:
384,192,125296,1,0,0:0:0:0:
486,192,125296,1,0,0:0:0:0:
128,192,125296,1,0,0:0:0:0:
179,192,125579,1,0,0:0:0:0:
332,192,125579,1,0,0:0:0:0:
179,192,125862,1,0,0:0:0:0:
332,192,125862,1,0,0:0:0:0:
230,192,126145,1,0,0:0:0:0:
76,192,126145,1,0,0:0:0:0:
281,192,126428,1,0,0:0:0:0:
128,192,126428,1,0,0:0:0:0:
332,192,126569,1,0,0:0:0:0:
179,192,126569,1,0,0:0:0:0:
384,192,126711,1,0,0:0:0:0:
230,192,126711,1,0,0:0:0:0:
76,192,126994,1,0,0:0:0:0:
179,192,127135,1,0,0:0:0:0:
332,192,127135,1,0,0:0:0:0:
435,192,127135,1,0,0:0:0:0:
230,192,127418,1,0,0:0:0:0:
332,192,127560,1,0,0:0:0:0:
435,192,127560,1,0,0:0:0:0:
128,192,127560,1,0,0:0:0:0:
179,192,127843,1,0,0:0:0:0:
281,192,127843,1,0,0:0:0:0:
384,192,127843,1,0,0:0:0:0:
486,192,128126,1,0,0:0:0:0:
25,192,128126,1,0,0:0:0:0:
332,192,128409,1,0,0:0:0:0:
179,192,128409,1,0,0:0:0:0:
435,192,128692,1,0,0:0:0:0:
76,192,128692,1,0,0:0:0:0:
179,192,128975,1,0,0:0:0:0:
384,192,128975,1,0,0:0:0:0:
230,192,129116,1,0,0:0:0:0:
486,192,129258,1,0,0:0:0:0:
332,192,129258,1,0,0:0:0:0:
25,192,129258,1,0,0:0:0:0:
179,192,129682,1,0,0:0:0:0:
230,192,129682,1,0,0:0:0:0:
384,192,129682,1,0,0:0:0:0:
25,192,129824,1,0,0:0:0:0:
76,192,129824,1,0,0:0:0:0:
281,192,129824,1,0,0:0:0:0:
384,192,130107,1,0,0:0:0:0:
332,192,130107,1,0,0:0:0:0:
179,192,130107,1,0,0:0:0:0:
76,192,130390,1,0,0:0:0:0:
486,192,130390,1,0,0:0:0:0:
281,192,130390,1,0,0:0:0:0:
384,192,130673,1,0,0:0:0:0:
128,192,130673,1,0,0:0:0:0:
332,192,130956,1,0,0:0:0:0:
179,192,130956,1,0,0:0:0:0:
25,192,130956,1,0,0:0:0:0:
281,192,131239,1,0,0:0:0:0:
486,192,131522,1,0,0:0:0:0:
230,192,131522,1,0,0:0:0:0:
128,192,131522,1,0,0:0:0:0:
76,192,131805,1,0,0:0:0:0:
435,192,131805,1,0,0:0:0:0:
25,192,132088,1,0,0:0:0:0:
384,192,132088,1,0,0:0:0:0:
230,192,132088,1,0,0:0:0:0:
179,192,132371,1,0,0:0:0:0:
332,192,132371,1,0,0:0:0:0:
128,192,132654,1,0,0:0:0:0:
435,192,132654,1,0,0:0:0:0:
281,192,132654,1,0,0:0:0:0:
25,192,132937,1,0,0:0:0:0:
384,192,132937,1,0,0:0:0:0:
76,192,133079,1,0,0:0:0:0:
230,192,133220,1,0,0:0:0:0:
128,192,133220,1,0,0:0:0:0:
179,192,133503,1,0,0:0:0:0:
486,192,133503,1,0,0:0:0:0:
128,192,133786,1,0,0:0:0:0:
281,192,133786,1,0,0:0:0:0:
25,192,133786,1,0,0:0:0:0:
179,192,134069,1,0,0:0:0:0:
230,192,134069,1,0,0:0:0:0:
384,192,134069,1,0,0:0:0:0:
128,192,134352,1,0,0:0:0:0:
25,192,134352,1,0,0:0:0:0:
486,192,134352,1,0,0:0:0:0:
76,192,134635,1,0,0:0:0:0:
332,192,134635,1,0,0:0:0:0:
230,192,134918,1,0,0:0:0:0:
435,192,134918,1,0,0:0:0:0:
281,192,135201,1,0,0:0:0:0:
76,192,135201,1,0,0:0:0:0:
384,192,135484,1,0,0:0:0:0:
179,192,135484,1,0,0:0:0:0:
486,192,135484,1,0,0:0:0:0:
435,192,135767,1,0,0:0:0:0:
25,192,135767,1,0,0:0:0:0:
332,192,136050,1,0,0:0:0:0:
230,192,136050,1,0,0:0:0:0:
486,192,136050,1,0,0:0:0:0:
25,192,136333,1,0,0:0:0:0:
179,192,136333,1,0,0:0:0:0:
486,192,136616,1,0,0:0:0:0:
230,192,136616,1,0,0:0:0:0:
281,192,136616,1,0,0:0:0:0:
25,192,136899,1,0,0:0:0:0:
179,192,136899,1,0,0:0:0:0:
332,192,137182,1,0,0:0:0:0:
486,192,137182,1,0,0:0:0:0:
230,192,137182,1,0,0:0:0:0:
435,192,137465,1,0,0:0:0:0:
76,192,137465,1,0,0:0:0:0:
179,192,137748,1,0,0:0:0:0:
281,192,137748,1,0,0:0:0:0:
486,192,137890,1,0,0:0:0:0:
76,192,137890,1,0,0:0:0:0:
281,192,138031,1,0,0:0:0:0:
230,192,138031,1,0,0:0:0:0:
25,192,138173,1,0,0:0:0:0:
486,192,138173,1,0,0:0:0:0:
179,192,138314,1,0,0:0:0:0:
281,192,138314,1,0,0:0:0:0:
76,192,138597,1,0,0:0:0:0:
332,192,138597,1,0,0:0:0:0:
435,192,138739,1,0,0:0:0:0:
384,192,138880,1,0,0:0:0:0:
128,192,138880,1,0,0:0:0:0:
179,192,138880,1,0,0:0:0:0:
332,192,139163,1,0,0:0:0:0:
230,192,139163,1,0,0:0:0:0:
25,192,139446,1,0,0:0:0:0:
128,192,139446,1,0,0:0:0:0:
281,192,139446,1,0,0:0:0:0:
384,192,139446,1,0,0:0:0:0:
384,192,139871,1,0,0:0:0:0:
281,192,139871,1,0,0:0:0:0:
179,192,140013,1,0,0:0:0:0:
76,192,140013,1,0,0:0:0:0:
384,192,140296,1,0,0:0:0:0:
281,192,140296,1,0,0:0:0:0:
128,192,140579,1,0,0:0:0:0:
435,192,140579,1,0,0:0:0:0:
179,192,140862,1,0,0:0:0:0:
384,192,140862,1,0,0:0:0:0:
486,192,141003,1,0,0:0:0:0:
435,192,141145,1,0,0:0:0:0:
76,192,141145,1,0,0:0:0:0:
25,192,141145,1,0,0:0:0:0:
384,192,141428,1,0,0:0:0:0:
230,192,141428,1,0,0:0:0:0:
179,192,141711,1,0,0:0:0:0:
76,192,141711,1,0,0:0:0:0:
332,192,141711,1,0,0:0:0:0:
435,192,141711,1,0,0:0:0:0:
435,192,142135,1,0,0:0:0:0:
332,192,142135,1,0,0:0:0:0:
25,192,142277,1,0,0:0:0:0:
128,192,142277,1,0,0:0:0:0:
435,192,142560,1,0,0:0:0:0:
332,192,142560,1,0,0:0:0:0:
230,192,142843,1,0,0:0:0:0:
128,192,142843,1,0,0:0:0:0:
384,192,142843,1,0,0:0:0:0:
281,192,142843,1,0,0:0:0:0:
179,192,143126,1,0,0:0:0:0:
332,192,143126,1,0,0:0:0:0:
435,192,143409,1,0,0:0:0:0:
25,192,143409,1,0,0:0:0:0:
486,192,143409,128,0,143975:0:0:0:0:
128,192,143692,1,0,0:0:0:0:
230,192,143692,1,0,0:0:0:0:
25,192,143975,1,0,0:0:0:0:
384,192,143975,128,0,144541:0:0:0:0:
76,192,144541,1,0,0:0:0:0:
179,192,144541,1,0,0:0:0:0:
281,192,144541,128,0,145107:0:0:0:0:
179,192,145107,1,0,0:0:0:0:
435,192,145107,1,0,0:0:0:0:
128,192,145107,1,0,0:0:0:0:
384,192,145107,1,0,0:0:0:0:
281,192,145390,1,0,0:0:0:0:
384,192,145390,1,0,0:0:0:0:
179,192,145390,1,0,0:0:0:0:
76,192,145531,1,0,0:0:0:0:
486,192,145673,1,0,0:0:0:0:
128,192,145956,1,0,0:0:0:0:
332,192,145956,1,0,0:0:0:0:
435,192,145956,1,0,0:0:0:0:
179,192,145956,1,0,0:0:0:0:
179,192,146239,1,0,0:0:0:0:
230,192,146239,1,0,0:0:0:0:
281,192,146239,128,0,146805:0:0:0:0:
384,192,146239,1,0,0:0:0:0:
332,192,146522,1,0,0:0:0:0:
179,192,146805,1,0,0:0:0:0:
76,192,146805,1,0,0:0:0:0:
281,192,147088,1,0,0:0:0:0:
435,192,147088,1,0,0:0:0:0:
179,192,147230,1,0,0:0:0:0:
76,192,147230,1,0,0:0:0:0:
281,192,147371,1,0,0:0:0:0:
435,192,147371,1,0,0:0:0:0:
332,192,147654,1,0,0:0:0:0:
179,192,147796,1,0,0:0:0:0:
486,192,147937,1,0,0:0:0:0:
76,192,147937,1,0,0:0:0:0:
179,192,148220,1,0,0:0:0:0:
332,192,148220,1,0,0:0:0:0:
384,192,148220,1,0,0:0:0:0:
128,192,148220,1,0,0:0:0:0:
281,192,148503,1,0,0:0:0:0:
230,192,148503,1,0,0:0:0:0:
486,192,148503,1,0,0:0:0:0:
76,192,148645,1,0,0:0:0:0:
332,192,148645,1,0,0:0:0:0:
230,192,148928,1,0,0:0:0:0:
486,192,148928,1,0,0:0:0:0:
281,192,148928,1,0,0:0:0:0:
76,192,149069,1,0,0:0:0:0:
332,192,149069,1,0,0:0:0:0:
230,192,149352,1,0,0:0:0:0:
281,192,149352,1,0,0:0:0:0:
486,192,149352,1,0,0:0:0:0:
76,192,149494,1,0,0:0:0:0:
179,192,149635,1,0,0:0:0:0:
332,192,149635,1,0,0:0:0:0:
435,192,149777,1,0,0:0:0:0:
128,192,149918,1,0,0:0:0:0:
230,192,150060,1,0,0:0:0:0:
332,192,150060,1,0,0:0:0:0:
25,192,150201,1,0,0:0:0:0:
435,192,150201,1,0,0:0:0:0:
332,192,150484,1,0,0:0:0:0:
384,192,150484,1,0,0:0:0:0:
179,192,150484,1,0,0:0:0:0:
230,192,150767,1,0,0:0:0:0:
25,192,150767,1,0,0:0:0:0:
435,192,150909,1,0,0:0:0:0:
332,192,151050,1,0,0:0:0:0:
25,192,151192,1,0,0:0:0:0:
230,192,151192,1,0,0:0:0:0:
435,192,151333,1,0,0:0:0:0:
332,192,151475,1,0,0:0:0:0:
230,192,151616,1,0,0:0:0:0:
25,192,151616,1,0,0:0:0:0:
435,192,151758,1,0,0:0:0:0:
179,192,151899,1,0,0:0:0:0:
332,192,151899,1,0,0:0:0:0:
281,192,152041,1,0,0:0:0:0:
486,192,152182,1,0,0:0:0:0:
128,192,152182,1,0,0:0:0:0:
384,192,152324,1,0,0:0:0:0:
25,192,152465,1,0,0:0:0:0:
281,192,152465,128,0,152748:0:0:0:0:
230,192,152465,1,0,0:0:0:0:
179,192,152748,1,0,0:0:0:0:
384,192,152748,1,0,0:0:0:0:
76,192,153031,1,0,0:0:0:0:
25,192,153031,1,0,0:0:0:0:
281,192,153031,128,0,153314:0:0:0:0:
179,192,153314,1,0,0:0:0:0:
435,192,153314,1,0,0:0:0:0:
230,192,153597,1,0,0:0:0:0:
332,192,153597,128,0,153880:0:0:0:0:
25,192,153597,1,0,0:0:0:0:
179,192,153880,1,0,0:0:0:0:
384,192,153880,1,0,0:0:0:0:
76,192,154163,1,0,0:0:0:0:
230,192,154163,1,0,0:0:0:0:
281,192,154163,1,0,0:0:0:0:
384,192,154305,1,0,0:0:0:0:
179,192,154446,1,0,0:0:0:0:
486,192,154446,1,0,0:0:0:0:
435,192,154588,1,0,0:0:0:0:
230,192,154730,1,0,0:0:0:0:
332,192,154730,1,0,0:0:0:0:
76,192,154730,1,0,0:0:0:0:
25,192,155013,1,0,0:0:0:0:
128,192,155013,1,0,0:0:0:0:
281,192,155013,1,0,0:0:0:0:
384,192,155013,1,0,0:0:0:0:
179,192,155296,128,0,155862:0:0:0:0:
486,192,155296,1,0,0:0:0:0:
332,192,155437,1,0,0:0:0:0:
332,192,155862,1,0,0:0:0:0:
486,192,155862,1,0,0:0:0:0:
384,192,156145,1,0,0:0:0:0:
179,192,156145,1,0,0:0:0:0:
25,192,156428,5,0,0:0:0:0:
332,192,156428,1,0,0:0:0:0:
435,192,156428,1,0,0:0:0:0:
25,192,156994,1,0,0:0:0:0:
384,192,156994,1,0,0:0:0:0:
281,192,156994,1,0,0:0:0:0:
25,192,157560,1,0,0:0:0:0:
332,192,157560,1,0,0:0:0:0:
230,192,157560,1,0,0:0:0:0:
25,192,158126,1,0,0:0:0:0:
281,192,158126,1,0,0:0:0:0:
179,192,158126,1,0,0:0:0:0:
25,192,158692,128,0,159258:0:0:0:0:
435,192,158692,1,0,0:0:0:0:
384,192,158692,1,0,0:0:0:0:
486,192,159258,128,0,159541:0:0:0:0:
179,192,159258,1,0,0:0:0:0:
230,192,159258,1,0,0:0:0:0:
332,192,159541,128,0,160390:0:0:0:0:
230,192,159541,1,0,0:0:0:0:
128,192,159541,1,0,0:0:0:0:
179,192,159824,1,0,0:0:0:0:
230,192,159824,1,0,0:0:0:0:
76,192,160107,1,0,0:0:0:0:
230,192,160390,128,0,160531:0:0:0:0:
486,192,160390,1,0,0:0:0:0:
435,192,160390,1,0,0:0:0:0:
128,192,160531,128,0,160673:0:0:0:0:
25,192,160673,128,0,160956:0:0:0:0:
435,192,160956,128,0,161239:0:0:0:0:
179,192,160956,1,0,0:0:0:0:
230,192,160956,1,0,0:0:0:0:
76,192,161239,128,0,161380:0:0:0:0:
179,192,161380,128,0,161805:0:0:0:0:
384,192,161522,1,0,0:0:0:0:
486,192,161522,1,0,0:0:0:0:
281,192,161805,128,0,162654:0:0:0:0:
435,192,161805,1,0,0:0:0:0:
230,192,162088,1,0,0:0:0:0:
128,192,162088,1,0,0:0:0:0:
179,192,162371,1,0,0:0:0:0:
384,192,162654,128,0,162796:0:0:0:0:
230,192,162796,128,0,162937:0:0:0:0:
76,192,162937,128,0,163220:0:0:0:0:
332,192,163220,1,0,0:0:0:0:
435,192,163220,1,0,0:0:0:0:
179,192,163220,1,0,0:0:0:0:
230,192,163645,1,0,0:0:0:0:
128,192,163645,1,0,0:0:0:0:
332,192,163786,1,0,0:0:0:0:
435,192,163786,1,0,0:0:0:0:
179,192,164069,1,0,0:0:0:0:
25,192,164069,1,0,0:0:0:0:
384,192,164352,1,0,0:0:0:0:
179,192,164352,1,0,0:0:0:0:
25,192,164352,1,0,0:0:0:0:
179,192,164635,1,0,0:0:0:0:
281,192,164635,1,0,0:0:0:0:
486,192,164918,1,0,0:0:0:0:
25,192,164918,1,0,0:0:0:0:
128,192,164918,1,0,0:0:0:0:
332,192,164918,1,0,0:0:0:0:
179,192,165060,1,0,0:0:0:0:
230,192,165201,1,0,0:0:0:0:
281,192,165343,1,0,0:0:0:0:
76,192,165484,1,0,0:0:0:0:
435,192,165484,1,0,0:0:0:0:
332,192,165484,1,0,0:0:0:0:
179,192,165767,1,0,0:0:0:0:
332,192,165909,1,0,0:0:0:0:
25,192,166050,1,0,0:0:0:0:
486,192,166050,1,0,0:0:0:0:
128,192,166050,1,0,0:0:0:0:
281,192,166333,1,0,0:0:0:0:
179,192,166333,1,0,0:0:0:0:
230,192,166616,1,0,0:0:0:0:
332,192,166616,1,0,0:0:0:0:
25,192,166616,1,0,0:0:0:0:
179,192,166899,1,0,0:0:0:0:
384,192,166899,1,0,0:0:0:0:
486,192,167182,1,0,0:0:0:0:
281,192,167182,1,0,0:0:0:0:
76,192,167182,1,0,0:0:0:0:
179,192,167465,1,0,0:0:0:0:
25,192,167607,1,0,0:0:0:0:
128,192,167748,1,0,0:0:0:0:
230,192,167748,1,0,0:0:0:0:
435,192,167748,1,0,0:0:0:0:
332,192,167748,1,0,0:0:0:0:
281,192,168173,1,0,0:0:0:0:
179,192,168173,1,0,0:0:0:0:
25,192,168314,1,0,0:0:0:0:
435,192,168314,1,0,0:0:0:0:
179,192,168597,1,0,0:0:0:0:
332,192,168597,1,0,0:0:0:0:
332,192,168880,1,0,0:0:0:0:
76,192,168880,1,0,0:0:0:0:
281,192,169163,1,0,0:0:0:0:
179,192,169163,1,0,0:0:0:0:
230,192,169446,1,0,0:0:0:0:
76,192,169446,1,0,0:0:0:0:
486,192,169446,1,0,0:0:0:0:
435,192,169588,1,0,0:0:0:0:
384,192,169730,1,0,0:0:0:0:
435,192,170013,1,0,0:0:0:0:
128,192,170013,1,0,0:0:0:0:
281,192,170013,1,0,0:0:0:0:
332,192,170296,1,0,0:0:0:0:
179,192,170437,1,0,0:0:0:0:
76,192,170579,1,0,0:0:0:0:
384,192,170579,1,0,0:0:0:0:
230,192,170579,1,0,0:0:0:0:
486,192,170862,1,0,0:0:0:0:
281,192,170862,1,0,0:0:0:0:
179,192,170862,1,0,0:0:0:0:
25,192,171145,1,0,0:0:0:0:
230,192,171145,1,0,0:0:0:0:
332,192,171145,1,0,0:0:0:0:
179,192,171428,1,0,0:0:0:0:
384,192,171428,1,0,0:0:0:0:
435,192,171711,1,0,0:0:0:0:
281,192,171711,1,0,0:0:0:0:
128,192,171711,1,0,0:0:0:0:
179,192,171852,1,0,0:0:0:0:
230,192,171994,1,0,0:0:0:0:
332,192,172277,1,0,0:0:0:0:
486,192,172277,1,0,0:0:0:0:
128,192,172277,1,0,0:0:0:0:
76,192,172418,1,0,0:0:0:0:
230,192,172560,1,0,0:0:0:0:
384,192,172701,1,0,0:0:0:0:
435,192,172701,1,0,0:0:0:0:
25,192,172843,1,0,0:0:0:0:
179,192,172843,1,0,0:0:0:0:
128,192,173126,1,0,0:0:0:0:
332,192,173126,1,0,0:0:0:0:
384,192,173126,1,0,0:0:0:0:
76,192,173409,1,0,0:0:0:0:
281,192,173409,1,0,0:0:0:0:
230,192,173409,1,0,0:0:0:0:
332,192,173692,1,0,0:0:0:0:
179,192,173692,1,0,0:0:0:0:
384,192,173975,1,0,0:0:0:0:
486,192,173975,1,0,0:0:0:0:
25,192,173975,1,0,0:0:0:0:
281,192,174116,1,0,0:0:0:0:
179,192,174258,1,0,0:0:0:0:
76,192,174399,1,0,0:0:0:0:
230,192,174541,1,0,0:0:0:0:
435,192,174541,1,0,0:0:0:0:
384,192,174541,1,0,0:0:0:0:
128,192,174824,1,0,0:0:0:0:
281,192,174965,1,0,0:0:0:0:
230,192,175107,1,0,0:0:0:0:
435,192,175107,1,0,0:0:0:0:
76,192,175107,1,0,0:0:0:0:
179,192,175390,1,0,0:0:0:0:
281,192,175390,1,0,0:0:0:0:
332,192,175673,1,0,0:0:0:0:
128,192,175673,1,0,0:0:0:0:
435,192,175814,1,0,0:0:0:0:
486,192,175814,1,0,0:0:0:0:
25,192,175814,1,0,0:0:0:0:
435,192,176239,1,0,0:0:0:0:
384,192,176239,1,0,0:0:0:0:
384,192,176522,1,0,0:0:0:0:
332,192,176522,1,0,0:0:0:0:
128,192,176663,1,0,0:0:0:0:
76,192,176663,1,0,0:0:0:0:
25,192,176805,1,0,0:0:0:0:
230,192,176805,1,0,0:0:0:0:
128,192,177088,1,0,0:0:0:0:
384,192,177088,1,0,0:0:0:0:
25,192,177371,1,0,0:0:0:0:
230,192,177371,1,0,0:0:0:0:
486,192,177371,1,0,0:0:0:0:
332,192,177654,1,0,0:0:0:0:
25,192,177654,1,0,0:0:0:0:
128,192,177937,1,0,0:0:0:0:
230,192,177937,1,0,0:0:0:0:
486,192,177937,1,0,0:0:0:0:
384,192,178220,1,0,0:0:0:0:
25,192,178220,1,0,0:0:0:0:
486,192,178503,1,0,0:0:0:0:
76,192,178503,1,0,0:0:0:0:
179,192,178503,1,0,0:0:0:0:
230,192,179069,1,0,0:0:0:0:
486,192,179069,1,0,0:0:0:0:
128,192,179069,1,0,0:0:0:0:
332,192,179069,1,0,0:0:0:0:
384,192,179352,1,0,0:0:0:0:
76,192,179352,1,0,0:0:0:0:
179,192,179352,1,0,0:0:0:0:
486,192,179635,1,0,0:0:0:0:
332,192,179635,1,0,0:0:0:0:
25,192,179635,1,0,0:0:0:0:
128,192,179635,1,0,0:0:0:0:
281,192,180201,1,0,0:0:0:0:
128,192,180201,1,0,0:0:0:0:
25,192,180201,1,0,0:0:0:0:
435,192,180201,1,0,0:0:0:0:
384,192,180484,1,0,0:0:0:0:
179,192,180484,1,0,0:0:0:0:
76,192,180484,1,0,0:0:0:0:
281,192,180767,1,0,0:0:0:0:
435,192,180767,1,0,0:0:0:0:
128,192,180767,1,0,0:0:0:0:
230,192,180767,1,0,0:0:0:0:
332,192,181333,1,0,0:0:0:0:
25,192,181333,1,0,0:0:0:0:
179,192,181333,1,0,0:0:0:0:
384,192,181333,1,0,0:0:0:0:
76,192,181899,1,0,0:0:0:0:
230,192,181899,1,0,0:0:0:0:
435,192,181899,1,0,0:0:0:0:
384,192,181899,1,0,0:0:0:0:
486,192,182465,1,0,0:0:0:0:
281,192,182465,1,0,0:0:0:0:
128,192,182465,1,0,0:0:0:0:
435,192,182465,1,0,0:0:0:0:
179,192,183031,1,0,0:0:0:0:
332,192,183031,1,0,0:0:0:0:
230,192,183031,1,0,0:0:0:0:
384,192,183031,1,0,0:0:0:0:
281,192,183597,1,0,0:0:0:0:
128,192,183597,1,0,0:0:0:0:
179,192,183597,1,0,0:0:0:0:
332,192,183597,1,0,0:0:0:0:
128,192,184163,1,0,0:0:0:0:
230,192,184163,1,0,0:0:0:0:
76,192,184163,1,0,0:0:0:0:
281,192,184163,1,0,0:0:0:0:
76,192,184730,1,0,0:0:0:0:
25,192,184730,1,0,0:0:0:0:
230,192,184730,1,0,0:0:0:0:
179,192,184730,1,0,0:0:0:0:
384,192,185013,1,0,0:0:0:0:
128,192,185296,1,0,0:0:0:0:
332,192,185296,1,0,0:0:0:0:
384,192,185579,1,0,0:0:0:0:
179,192,185579,1,0,0:0:0:0:
25,192,185862,1,0,0:0:0:0:
281,192,185862,1,0,0:0:0:0:
230,192,185862,1,0,0:0:0:0:
179,192,186003,1,0,0:0:0:0:
435,192,186428,1,0,0:0:0:0:
281,192,186428,1,0,0:0:0:0:
230,192,186428,1,0,0:0:0:0:
25,192,186428,1,0,0:0:0:0:
179,192,186569,1,0,0:0:0:0:
230,192,186994,1,0,0:0:0:0:
332,192,186994,1,0,0:0:0:0:
76,192,186994,1,0,0:0:0:0:
128,192,187135,1,0,0:0:0:0:
486,192,187560,1,0,0:0:0:0:
76,192,187560,1,0,0:0:0:0:
230,192,187560,1,0,0:0:0:0:
332,192,187560,1,0,0:0:0:0:
128,192,187701,1,0,0:0:0:0:
179,192,188126,1,0,0:0:0:0:
76,192,188126,1,0,0:0:0:0:
435,192,188126,1,0,0:0:0:0:
486,192,188692,1,0,0:0:0:0:
179,192,188692,1,0,0:0:0:0:
25,192,188692,1,0,0:0:0:0:
435,192,188692,1,0,0:0:0:0:
332,192,189258,1,0,0:0:0:0:
76,192,189258,1,0,0:0:0:0:
179,192,189258,1,0,0:0:0:0:
179,192,189824,1,0,0:0:0:0:
25,192,189824,1,0,0:0:0:0:
281,192,189824,1,0,0:0:0:0:
332,192,189824,1,0,0:0:0:0:
128,192,190107,1,0,0:0:0:0:
486,192,190390,128,0,190956:0:0:0:0:
230,192,190390,1,0,0:0:0:0:
281,192,190956,128,0,191522:0:0:0:0:
25,192,191239,1,0,0:0:0:0:
486,192,191522,128,0,192088:0:0:0:0:
230,192,191522,1,0,0:0:0:0:
230,192,191946,1,0,0:0:0:0:
332,192,192088,128,0,192654:0:0:0:0:
25,192,192088,1,0,0:0:0:0:
179,192,192371,128,0,193786:0:0:0:0:
435,192,192654,128,0,193220:0:0:0:0:
332,192,193220,128,0,193645:0:0:0:0:
384,192,194352,128,0,194918:0:0:0:0:
486,192,194918,1,0,0:0:0:0:
332,192,194918,1,0,0:0:0:0:
25,192,194918,1,0,0:0:0:0:
179,192,195343,1,0,0:0:0:0:
230,192,195343,1,0,0:0:0:0:
384,192,195343,1,0,0:0:0:0:
25,192,195484,1,0,0:0:0:0:
76,192,195484,1,0,0:0:0:0:
281,192,195484,1,0,0:0:0:0:
384,192,195767,1,0,0:0:0:0:
332,192,195767,1,0,0:0:0:0:
179,192,195767,1,0,0:0:0:0:
76,192,196050,1,0,0:0:0:0:
486,192,196050,1,0,0:0:0:0:
281,192,196050,1,0,0:0:0:0:
384,192,196333,1,0,0:0:0:0:
128,192,196333,1,0,0:0:0:0:
332,192,196616,1,0,0:0:0:0:
179,192,196616,1,0,0:0:0:0:
25,192,196616,1,0,0:0:0:0:
281,192,196899,1,0,0:0:0:0:
486,192,197182,1,0,0:0:0:0:
230,192,197182,1,0,0:0:0:0:
128,192,197182,1,0,0:0:0:0:
76,192,197465,1,0,0:0:0:0:
435,192,197465,1,0,0:0:0:0:
25,192,197748,1,0,0:0:0:0:
384,192,197748,1,0,0:0:0:0:
230,192,197748,1,0,0:0:0:0:
179,192,198031,1,0,0:0:0:0:
332,192,198031,1,0,0:0:0:0:
128,192,198314,1,0,0:0:0:0:
435,192,198314,1,0,0:0:0:0:
281,192,198314,1,0,0:0:0:0:
25,192,198597,1,0,0:0:0:0:
384,192,198597,1,0,0:0:0:0:
76,192,198739,1,0,0:0:0:0:
230,192,198880,1,0,0:0:0:0:
128,192,198880,1,0,0:0:0:0:
179,192,199163,1,0,0:0:0:0:
486,192,199163,1,0,0:0:0:0:
128,192,199446,1,0,0:0:0:0:
281,192,199446,1,0,0:0:0:0:
25,192,199446,1,0,0:0:0:0:
179,192,199730,1,0,0:0:0:0:
230,192,199730,1,0,0:0:0:0:
384,192,199730,1,0,0:0:0:0:
128,192,200013,1,0,0:0:0:0:
25,192,200013,1,0,0:0:0:0:
486,192,200013,1,0,0:0:0:0:
76,192,200296,1,0,0:0:0:0:
332,192,200296,1,0,0:0:0:0:
230,192,200579,1,0,0:0:0:0:
435,192,200579,1,0,0:0:0:0:
281,192,200862,1,0,0:0:0:0:
76,192,200862,1,0,0:0:0:0:
384,192,201145,1,0,0:0:0:0:
179,192,201145,1,0,0:0:0:0:
486,192,201145,1,0,0:0:0:0:
435,192,201428,1,0,0:0:0:0:
25,192,201428,1,0,0:0:0:0:
332,192,201711,1,0,0:0:0:0:
230,192,201711,1,0,0:0:0:0:
486,192,201711,1,0,0:0:0:0:
25,192,201994,1,0,0:0:0:0:
179,192,201994,1,0,0:0:0:0:
486,192,202277,1,0,0:0:0:0:
230,192,202277,1,0,0:0:0:0:
281,192,202277,1,0,0:0:0:0:
25,192,202560,1,0,0:0:0:0:
179,192,202560,1,0,0:0:0:0:
332,192,202843,1,0,0:0:0:0:
486,192,202843,1,0,0:0:0:0:
230,192,202843,1,0,0:0:0:0:
435,192,203126,1,0,0:0:0:0:
76,192,203126,1,0,0:0:0:0:
179,192,203409,1,0,0:0:0:0:
281,192,203409,1,0,0:0:0:0:
486,192,203550,1,0,0:0:0:0:
76,192,203550,1,0,0:0:0:0:
281,192,203692,1,0,0:0:0:0:
230,192,203692,1,0,0:0:0:0:
25,192,203833,1,0,0:0:0:0:
486,192,203833,1,0,0:0:0:0:
128,192,203975,1,0,0:0:0:0:
332,192,203975,1,0,0:0:0:0:
384,192,203975,1,0,0:0:0:0:
384,192,204399,1,0,0:0:0:0:
76,192,204399,1,0,0:0:0:0:
76,192,204541,1,0,0:0:0:0:
281,192,204541,1,0,0:0:0:0:
230,192,204541,1,0,0:0:0:0:
179,192,204824,1,0,0:0:0:0:
332,192,204824,1,0,0:0:0:0:
384,192,204824,1,0,0:0:0:0:
281,192,205107,1,0,0:0:0:0:
486,192,205107,1,0,0:0:0:0:
25,192,205107,1,0,0:0:0:0:
128,192,205390,1,0,0:0:0:0:
384,192,205390,1,0,0:0:0:0:
25,192,205673,1,0,0:0:0:0:
179,192,205673,1,0,0:0:0:0:
332,192,205673,1,0,0:0:0:0:
281,192,205956,1,0,0:0:0:0:
230,192,206239,1,0,0:0:0:0:
486,192,206239,1,0,0:0:0:0:
76,192,206239,1,0,0:0:0:0:
435,192,206522,1,0,0:0:0:0:
128,192,206522,1,0,0:0:0:0:
230,192,206805,1,0,0:0:0:0:
384,192,206805,1,0,0:0:0:0:
25,192,206805,1,0,0:0:0:0:
332,192,207088,1,0,0:0:0:0:
179,192,207088,1,0,0:0:0:0:
281,192,207371,1,0,0:0:0:0:
435,192,207371,1,0,0:0:0:0:
128,192,207371,1,0,0:0:0:0:
384,192,207654,1,0,0:0:0:0:
25,192,207654,1,0,0:0:0:0:
76,192,207796,1,0,0:0:0:0:
128,192,207937,1,0,0:0:0:0:
230,192,207937,1,0,0:0:0:0:
486,192,208220,1,0,0:0:0:0:
332,192,208220,1,0,0:0:0:0:
76,192,208503,1,0,0:0:0:0:
281,192,208503,1,0,0:0:0:0:
179,192,208503,1,0,0:0:0:0:
128,192,208786,1,0,0:0:0:0:
230,192,208786,1,0,0:0:0:0:
384,192,208786,1,0,0:0:0:0:
76,192,209069,1,0,0:0:0:0:
179,192,209069,1,0,0:0:0:0:
332,192,209069,1,0,0:0:0:0:
486,192,209352,1,0,0:0:0:0:
25,192,209352,1,0,0:0:0:0:
230,192,209635,1,0,0:0:0:0:
332,192,209635,1,0,0:0:0:0:
76,192,209918,1,0,0:0:0:0:
281,192,209918,1,0,0:0:0:0:
486,192,210201,1,0,0:0:0:0:
179,192,210201,1,0,0:0:0:0:
384,192,210201,1,0,0:0:0:0:
25,192,210484,1,0,0:0:0:0:
435,192,210484,1,0,0:0:0:0:
230,192,210767,1,0,0:0:0:0:
332,192,210767,1,0,0:0:0:0:
128,192,210767,1,0,0:0:0:0:
25,192,211050,1,0,0:0:0:0:
384,192,211050,1,0,0:0:0:0:
281,192,211333,1,0,0:0:0:0:
486,192,211333,1,0,0:0:0:0:
179,192,211333,1,0,0:0:0:0:
25,192,211616,1,0,0:0:0:0:
384,192,211616,1,0,0:0:0:0:
332,192,211899,1,0,0:0:0:0:
435,192,211899,1,0,0:0:0:0:
179,192,212041,1,0,0:0:0:0:
25,192,212041,1,0,0:0:0:0:
230,192,212182,1,0,0:0:0:0:
384,192,212182,1,0,0:0:0:0:
179,192,212324,1,0,0:0:0:0:
76,192,212324,1,0,0:0:0:0:
332,192,212465,1,0,0:0:0:0:
486,192,212465,1,0,0:0:0:0:
281,192,212607,1,0,0:0:0:0:
128,192,212607,1,0,0:0:0:0:
435,192,212748,1,0,0:0:0:0:
332,192,212748,1,0,0:0:0:0:
76,192,212890,1,0,0:0:0:0:
179,192,212890,1,0,0:0:0:0:
25,192,213031,1,0,0:0:0:0:
486,192,213031,1,0,0:0:0:0:
230,192,213031,1,0,0:0:0:0:
76,192,213314,1,0,0:0:0:0:
332,192,213314,1,0,0:0:0:0:
435,192,213456,1,0,0:0:0:0:
384,192,213597,1,0,0:0:0:0:
128,192,213597,1,0,0:0:0:0:
179,192,213597,1,0,0:0:0:0:
332,192,213880,1,0,0:0:0:0:
230,192,213880,1,0,0:0:0:0:
25,192,214163,1,0,0:0:0:0:
128,192,214163,1,0,0:0:0:0:
281,192,214163,1,0,0:0:0:0:
384,192,214163,1,0,0:0:0:0:
384,192,214588,1,0,0:0:0:0:
281,192,214588,1,0,0:0:0:0:
179,192,214730,1,0,0:0:0:0:
76,192,214730,1,0,0:0:0:0:
384,192,215013,1,0,0:0:0:0:
281,192,215013,1,0,0:0:0:0:
128,192,215296,1,0,0:0:0:0:
435,192,215296,1,0,0:0:0:0:
179,192,215579,1,0,0:0:0:0:
384,192,215579,1,0,0:0:0:0:
486,192,215720,1,0,0:0:0:0:
435,192,215862,1,0,0:0:0:0:
76,192,215862,1,0,0:0:0:0:
25,192,215862,1,0,0:0:0:0:
384,192,216145,1,0,0:0:0:0:
230,192,216145,1,0,0:0:0:0:
179,192,216428,1,0,0:0:0:0:
76,192,216428,1,0,0:0:0:0:
332,192,216428,1,0,0:0:0:0:
435,192,216428,1,0,0:0:0:0:
435,192,216852,1,0,0:0:0:0:
332,192,216852,1,0,0:0:0:0:
25,192,216994,1,0,0:0:0:0:
128,192,216994,1,0,0:0:0:0:
435,192,217277,1,0,0:0:0:0:
332,192,217277,1,0,0:0:0:0:
230,192,217560,1,0,0:0:0:0:
128,192,217560,1,0,0:0:0:0:
384,192,217560,1,0,0:0:0:0:
281,192,217560,1,0,0:0:0:0:
179,192,217843,1,0,0:0:0:0:
332,192,217843,1,0,0:0:0:0:
435,192,218126,1,0,0:0:0:0:
25,192,218126,1,0,0:0:0:0:
486,192,218126,128,0,218692:0:0:0:0:
128,192,218409,1,0,0:0:0:0:
230,192,218409,1,0,0:0:0:0:
25,192,218692,1,0,0:0:0:0:
384,192,218692,128,0,219258:0:0:0:0:
76,192,219258,1,0,0:0:0:0:
179,192,219258,1,0,0:0:0:0:
281,192,219258,128,0,219824:0:0:0:0:
179,192,219824,1,0,0:0:0:0:
435,192,219824,1,0,0:0:0:0:
128,192,219824,1,0,0:0:0:0:
384,192,219824,1,0,0:0:0:0:
230,192,220107,1,0,0:0:0:0:
486,192,220107,1,0,0:0:0:0:
281,192,220248,1,0,0:0:0:0:
25,192,220248,1,0,0:0:0:0:
179,192,220390,1,0,0:0:0:0:
128,192,220673,1,0,0:0:0:0:
332,192,220673,1,0,0:0:0:0:
435,192,220673,1,0,0:0:0:0:
76,192,220673,1,0,0:0:0:0:
230,192,220956,1,0,0:0:0:0:
281,192,220956,128,0,221522:0:0:0:0:
384,192,220956,1,0,0:0:0:0:
128,192,221522,5,0,0:0:0:0:
25,192,221522,1,0,0:0:0:0:
332,192,221663,1,0,0:0:0:0:
486,192,221663,1,0,0:0:0:0:
128,192,221805,1,0,0:0:0:0:
25,192,221805,1,0,0:0:0:0:
281,192,221946,1,0,0:0:0:0:
384,192,221946,1,0,0:0:0:0:
230,192,222088,1,0,0:0:0:0:
76,192,222088,1,0,0:0:0:0:
435,192,222371,1,0,0:0:0:0:
179,192,222371,1,0,0:0:0:0:
76,192,222513,1,0,0:0:0:0:
435,192,222513,1,0,0:0:0:0:
230,192,222654,1,0,0:0:0:0:
332,192,222654,1,0,0:0:0:0:
486,192,222937,1,0,0:0:0:0:
128,192,222937,1,0,0:0:0:0:
76,192,222937,1,0,0:0:0:0:
384,192,223220,1,0,0:0:0:0:
179,192,223220,1,0,0:0:0:0:
281,192,223220,1,0,0:0:0:0:
435,192,223503,1,0,0:0:0:0:
332,192,223645,1,0,0:0:0:0:
230,192,223645,1,0,0:0:0:0:
128,192,223645,1,0,0:0:0:0:
76,192,224069,1,0,0:0:0:0:
281,192,224069,1,0,0:0:0:0:
179,192,224069,1,0,0:0:0:0:
230,192,224352,1,0,0:0:0:0:
25,192,224352,1,0,0:0:0:0:
486,192,224352,1,0,0:0:0:0:
179,192,224635,1,0,0:0:0:0:
332,192,224635,1,0,0:0:0:0:
179,192,224777,1,0,0:0:0:0:
332,192,224777,1,0,0:0:0:0:
76,192,224918,1,0,0:0:0:0:
435,192,224918,1,0,0:0:0:0:
25,192,225201,1,0,0:0:0:0:
128,192,225201,1,0,0:0:0:0:
384,192,225201,1,0,0:0:0:0:
128,192,225484,1,0,0:0:0:0:
332,192,225484,1,0,0:0:0:0:
230,192,225484,1,0,0:0:0:0:
486,192,225626,1,0,0:0:0:0:
281,192,225909,1,0,0:0:0:0:
179,192,225909,1,0,0:0:0:0:
384,192,225909,1,0,0:0:0:0:
25,192,226192,1,0,0:0:0:0:
435,192,226333,1,0,0:0:0:0:
332,192,226333,1,0,0:0:0:0:
230,192,226333,1,0,0:0:0:0:
486,192,226616,1,0,0:0:0:0:
25,192,226616,1,0,0:0:0:0:
230,192,226616,1,0,0:0:0:0:
179,192,226899,1,0,0:0:0:0:
332,192,226899,1,0,0:0:0:0:
76,192,227182,1,0,0:0:0:0:
230,192,227182,1,0,0:0:0:0:
384,192,227182,1,0,0:0:0:0:
128,192,227465,1,0,0:0:0:0:
332,192,227465,1,0,0:0:0:0:
435,192,227748,1,0,0:0:0:0:
179,192,227748,1,0,0:0:0:0:
76,192,228031,1,0,0:0:0:0:
384,192,228031,1,0,0:0:0:0:
230,192,228314,1,0,0:0:0:0:
25,192,228314,1,0,0:0:0:0:
486,192,228314,1,0,0:0:0:0:
128,192,228597,1,0,0:0:0:0:
332,192,228597,1,0,0:0:0:0:
179,192,228739,1,0,0:0:0:0:
230,192,228880,1,0,0:0:0:0:
435,192,228880,1,0,0:0:0:0:
384,192,229022,1,0,0:0:0:0:
179,192,229163,1,0,0:0:0:0:
332,192,229163,1,0,0:0:0:0:
76,192,229163,1,0,0:0:0:0:
384,192,229446,1,0,0:0:0:0:
25,192,229446,1,0,0:0:0:0:
230,192,229446,1,0,0:0:0:0:
384,192,229730,1,0,0:0:0:0:
486,192,229730,1,0,0:0:0:0:
179,192,229730,1,0,0:0:0:0:
76,192,230013,1,0,0:0:0:0:
230,192,230154,1,0,0:0:0:0:
435,192,230154,1,0,0:0:0:0:
76,192,230296,1,0,0:0:0:0:
230,192,230437,1,0,0:0:0:0:
435,192,230437,1,0,0:0:0:0:
25,192,230579,1,0,0:0:0:0:
332,192,230579,1,0,0:0:0:0:
230,192,230720,1,0,0:0:0:0:
486,192,230720,1,0,0:0:0:0:
25,192,230862,1,0,0:0:0:0:
332,192,230862,1,0,0:0:0:0:
230,192,231003,1,0,0:0:0:0:
486,192,231003,1,0,0:0:0:0:
76,192,231145,1,0,0:0:0:0:
332,192,231145,1,0,0:0:0:0:
179,192,231428,1,0,0:0:0:0:
281,192,231569,1,0,0:0:0:0:
25,192,231711,1,0,0:0:0:0:
128,192,231852,1,0,0:0:0:0:
384,192,232135,1,0,0:0:0:0:
486,192,232135,1,0,0:0:0:0:
179,192,232560,1,0,0:0:0:0:
281,192,232560,1,0,0:0:0:0:
486,192,232843,1,0,0:0:0:0:
384,192,232843,1,0,0:0:0:0:
281,192,233126,1,0,0:0:0:0:
128,192,233126,1,0,0:0:0:0:
435,192,233409,1,0,0:0:0:0:
230,192,233409,1,0,0:0:0:0:
128,192,233692,1,0,0:0:0:0:
332,192,233833,1,0,0:0:0:0:
179,192,234116,1,0,0:0:0:0:
25,192,234116,1,0,0:0:0:0:
281,192,234399,1,0,0:0:0:0:
486,192,234399,1,0,0:0:0:0:
332,192,234682,1,0,0:0:0:0:
76,192,234682,1,0,0:0:0:0:
384,192,234965,1,0,0:0:0:0:
179,192,234965,1,0,0:0:0:0:
128,192,235390,1,0,0:0:0:0:
76,192,235673,1,0,0:0:0:0:
230,192,235673,1,0,0:0:0:0:
384,192,235673,1,0,0:0:0:0:
