osu file format v14

[General]
AudioFilename: HERE I AM.mp3
AudioLeadIn: 0
PreviewTime: 32284
Countdown: 0
SampleSet: Soft
StackLeniency: 0.7
Mode: 3
LetterboxInBreaks: 0
SpecialStyle: 0
WidescreenStoryboard: 0

[Editor]
DistanceSpacing: 1.4
BeatDivisor: 4
GridSize: 8
TimelineZoom: 1.7

[Metadata]
Title:2V-ALK
TitleUnicode:2V-ALK
Artist:Selections
ArtistUnicode:Selections
Creator:SK_la
Version:Gemie - HERE I AM//Epoch
Source:
Tags:10K
BeatmapID:1440634
BeatmapSetID:681350

[Difficulty]
HPDrainRate:8
CircleSize:10
OverallDifficulty:7
ApproachRate:5
SliderMultiplier:1.4
SliderTickRate:1

[Events]
//Background and Video events
0,0,"HERE I AM.jpg",0,0
//Break Periods
//Storyboard Layer 0 (Background)
//Storyboard Layer 1 (Fail)
//Storyboard Layer 2 (Pass)
//Storyboard Layer 3 (Foreground)
//Storyboard Layer 4 (Overlay)
//Storyboard Sound Samples

[TimingPoints]
2090,468.75,4,2,0,50,1,0
54121,-105.263157894737,4,2,0,50,0,0
54590,-100,4,2,0,50,0,0
60215,-111.111111111111,4,2,0,50,0,0
61621,-133.333333333333,4,2,0,50,0,0
61855,272.727272727273,4,2,0,50,1,0
61855,-1000,4,2,0,50,0,0
61972,-100,4,2,0,50,0,0
62090,468.75,4,2,0,50,1,1
62090,-100,4,2,0,50,0,1
92090,-100,4,2,0,50,0,0
107090,-105.263157894737,4,2,0,50,0,0
112715,-100,4,2,0,50,0,0
113183,-111.111111111111,4,2,0,50,0,0
114590,-100,4,2,0,50,0,0
122090,-105.263157894737,4,2,0,50,0,0
137090,-100,4,2,0,50,0,1
167090,-105.263157894737,4,2,0,50,0,0
197324,-20,4,2,0,50,0,0
198027,-10000,4,2,0,50,0,0
198379,-133.333333333333,4,2,0,50,0,0
198730,272.727272727273,4,2,0,50,1,0
198730,-250,4,2,0,50,0,0
198832,-100,4,2,0,50,0,0
198965,468.75,4,2,0,50,1,0
198965,-100,4,2,0,50,0,0

[HitObjects]
332,192,2090,5,0,0:0:0:0:
384,192,2090,1,0,0:0:0:0:
486,192,2090,1,0,0:0:0:0:
230,192,2090,1,0,0:0:0:0:
179,192,2090,1,0,0:0:0:0:
25,192,2090,1,0,0:0:0:0:
281,192,2207,1,0,0:0:0:0:
128,192,2324,1,0,0:0:0:0:
384,192,2441,1,0,0:0:0:0:
179,192,2441,1,0,0:0:0:0:
486,192,2558,1,0,0:0:0:0:
230,192,2558,1,0,0:0:0:0:
332,192,2558,1,0,0:0:0:0:
435,192,2675,1,0,0:0:0:0:
281,192,2793,1,0,0:0:0:0:
128,192,2793,1,0,0:0:0:0:
179,192,2793,1,0,0:0:0:0:
230,192,2910,1,0,0:0:0:0:
384,192,2910,1,0,0:0:0:0:
332,192,2910,1,0,0:0:0:0:
76,192,2910,1,0,0:0:0:0:
25,192,2910,1,0,0:0:0:0:
486,192,3027,1,0,0:0:0:0:
332,192,3144,1,0,0:0:0:0:
76,192,3261,1,0,0:0:0:0:
435,192,3261,1,0,0:0:0:0:
128,192,3379,1,0,0:0:0:0:
281,192,3496,1,0,0:0:0:0:
486,192,3496,1,0,0:0:0:0:
332,192,3496,1,0,0:0:0:0:
179,192,3613,1,0,0:0:0:0:
435,192,3613,1,0,0:0:0:0:
230,192,3730,1,0,0:0:0:0:
25,192,3730,1,0,0:0:0:0:
76,192,3730,1,0,0:0:0:0:
332,192,3847,1,0,0:0:0:0:
179,192,3847,1,0,0:0:0:0:
435,192,3965,1,0,0:0:0:0:
384,192,3965,1,0,0:0:0:0:
281,192,3965,1,0,0:0:0:0:
128,192,3965,1,0,0:0:0:0:
179,192,4082,1,0,0:0:0:0:
332,192,4199,1,0,0:0:0:0:
76,192,4199,1,0,0:0:0:0:
384,192,4316,1,0,0:0:0:0:
486,192,4433,1,0,0:0:0:0:
230,192,4433,1,0,0:0:0:0:
128,192,4433,1,0,0:0:0:0:
281,192,4433,1,0,0:0:0:0:
332,192,4550,1,0,0:0:0:0:
179,192,4668,1,0,0:0:0:0:
435,192,4668,1,0,0:0:0:0:
25,192,4668,1,0,0:0:0:0:
332,192,4785,1,0,0:0:0:0:
281,192,4785,1,0,0:0:0:0:
230,192,4785,1,0,0:0:0:0:
384,192,4902,1,0,0:0:0:0:
128,192,5019,1,0,0:0:0:0:
179,192,5019,1,0,0:0:0:0:
76,192,5019,1,0,0:0:0:0:
281,192,5136,1,0,0:0:0:0:
486,192,5254,1,0,0:0:0:0:
281,192,5371,1,0,0:0:0:0:
25,192,5371,1,0,0:0:0:0:
179,192,5371,1,0,0:0:0:0:
230,192,5371,1,0,0:0:0:0:
332,192,5488,1,0,0:0:0:0:
128,192,5605,1,0,0:0:0:0:
281,192,5722,1,0,0:0:0:0:
384,192,5722,1,0,0:0:0:0:
435,192,5840,1,0,0:0:0:0:
486,192,5840,1,0,0:0:0:0:
230,192,5840,1,0,0:0:0:0:
179,192,5840,1,0,0:0:0:0:
76,192,5840,1,0,0:0:0:0:
332,192,5957,1,0,0:0:0:0:
128,192,6074,1,0,0:0:0:0:
281,192,6191,1,0,0:0:0:0:
179,192,6308,1,0,0:0:0:0:
25,192,6308,1,0,0:0:0:0:
384,192,6308,1,0,0:0:0:0:
486,192,6308,1,0,0:0:0:0:
332,192,6425,1,0,0:0:0:0:
230,192,6543,1,0,0:0:0:0:
128,192,6543,1,0,0:0:0:0:
179,192,6660,1,0,0:0:0:0:
76,192,6660,1,0,0:0:0:0:
384,192,6660,1,0,0:0:0:0:
435,192,6660,1,0,0:0:0:0:
281,192,6660,1,0,0:0:0:0:
128,192,6777,1,0,0:0:0:0:
230,192,6894,1,0,0:0:0:0:
332,192,7011,1,0,0:0:0:0:
128,192,7129,1,0,0:0:0:0:
25,192,7246,1,0,0:0:0:0:
179,192,7246,1,0,0:0:0:0:
486,192,7246,1,0,0:0:0:0:
384,192,7246,1,0,0:0:0:0:
230,192,7363,1,0,0:0:0:0:
128,192,7480,1,0,0:0:0:0:
76,192,7480,1,0,0:0:0:0:
435,192,7480,1,0,0:0:0:0:
332,192,7480,1,0,0:0:0:0:
179,192,7597,1,0,0:0:0:0:
486,192,7715,1,0,0:0:0:0:
435,192,7715,1,0,0:0:0:0:
384,192,7715,1,0,0:0:0:0:
76,192,7715,1,0,0:0:0:0:
25,192,7715,1,0,0:0:0:0:
230,192,7715,1,0,0:0:0:0:
332,192,7832,1,0,0:0:0:0:
281,192,7949,1,0,0:0:0:0:
128,192,7949,1,0,0:0:0:0:
179,192,8066,1,0,0:0:0:0:
435,192,8183,1,0,0:0:0:0:
332,192,8183,1,0,0:0:0:0:
76,192,8183,1,0,0:0:0:0:
230,192,8183,1,0,0:0:0:0:
179,192,8418,1,0,0:0:0:0:
25,192,8418,1,0,0:0:0:0:
281,192,8418,1,0,0:0:0:0:
179,192,8535,1,0,0:0:0:0:
128,192,8535,1,0,0:0:0:0:
384,192,8535,1,0,0:0:0:0:
486,192,8535,1,0,0:0:0:0:
230,192,8769,1,0,0:0:0:0:
76,192,8769,1,0,0:0:0:0:
332,192,8769,1,0,0:0:0:0:
435,192,8769,1,0,0:0:0:0:
128,192,8886,1,0,0:0:0:0:
435,192,9004,1,0,0:0:0:0:
332,192,9004,1,0,0:0:0:0:
384,192,9121,1,0,0:0:0:0:
281,192,9121,1,0,0:0:0:0:
179,192,9121,1,0,0:0:0:0:
128,192,9121,1,0,0:0:0:0:
76,192,9238,1,0,0:0:0:0:
230,192,9355,1,0,0:0:0:0:
435,192,9355,1,0,0:0:0:0:
128,192,9472,1,0,0:0:0:0:
332,192,9472,1,0,0:0:0:0:
384,192,9472,1,0,0:0:0:0:
76,192,9472,1,0,0:0:0:0:
179,192,9590,1,0,0:0:0:0:
25,192,9590,1,0,0:0:0:0:
281,192,9590,1,0,0:0:0:0:
486,192,9590,1,0,0:0:0:0:
435,192,9648,1,0,0:0:0:0:
384,192,9707,1,0,0:0:0:0:
230,192,9707,1,0,0:0:0:0:
128,192,9824,1,0,0:0:0:0:
179,192,9941,1,0,0:0:0:0:
332,192,9941,1,0,0:0:0:0:
486,192,9941,1,0,0:0:0:0:
281,192,10058,1,0,0:0:0:0:
230,192,10058,1,0,0:0:0:0:
384,192,10058,1,0,0:0:0:0:
76,192,10058,1,0,0:0:0:0:
486,192,10175,1,0,0:0:0:0:
179,192,10293,1,0,0:0:0:0:
128,192,10293,1,0,0:0:0:0:
281,192,10410,1,0,0:0:0:0:
230,192,10410,1,0,0:0:0:0:
435,192,10410,1,0,0:0:0:0:
332,192,10410,1,0,0:0:0:0:
25,192,10410,1,0,0:0:0:0:
384,192,10527,1,0,0:0:0:0:
179,192,10644,1,0,0:0:0:0:
384,192,10761,1,0,0:0:0:0:
76,192,10761,1,0,0:0:0:0:
179,192,10879,1,0,0:0:0:0:
332,192,10996,1,0,0:0:0:0:
230,192,10996,1,0,0:0:0:0:
128,192,10996,1,0,0:0:0:0:
25,192,10996,1,0,0:0:0:0:
486,192,11113,1,0,0:0:0:0:
384,192,11113,1,0,0:0:0:0:
281,192,11230,1,0,0:0:0:0:
230,192,11230,1,0,0:0:0:0:
76,192,11230,1,0,0:0:0:0:
332,192,11230,1,0,0:0:0:0:
128,192,11347,1,0,0:0:0:0:
435,192,11465,1,0,0:0:0:0:
332,192,11465,1,0,0:0:0:0:
179,192,11465,1,0,0:0:0:0:
230,192,11582,1,0,0:0:0:0:
128,192,11699,1,0,0:0:0:0:
281,192,11816,1,0,0:0:0:0:
230,192,11933,1,0,0:0:0:0:
76,192,11933,1,0,0:0:0:0:
384,192,11933,1,0,0:0:0:0:
179,192,12050,1,0,0:0:0:0:
435,192,12168,1,0,0:0:0:0:
128,192,12168,1,0,0:0:0:0:
486,192,12285,1,0,0:0:0:0:
179,192,12285,1,0,0:0:0:0:
332,192,12285,1,0,0:0:0:0:
281,192,12285,1,0,0:0:0:0:
76,192,12402,1,0,0:0:0:0:
435,192,12519,1,0,0:0:0:0:
281,192,12519,1,0,0:0:0:0:
230,192,12519,1,0,0:0:0:0:
128,192,12519,1,0,0:0:0:0:
384,192,12754,1,0,0:0:0:0:
179,192,12754,1,0,0:0:0:0:
332,192,12871,1,0,0:0:0:0:
281,192,12871,1,0,0:0:0:0:
76,192,12871,1,0,0:0:0:0:
128,192,12871,1,0,0:0:0:0:
230,192,12988,1,0,0:0:0:0:
384,192,13105,1,0,0:0:0:0:
25,192,13222,1,0,0:0:0:0:
128,192,13222,1,0,0:0:0:0:
486,192,13222,1,0,0:0:0:0:
281,192,13340,1,0,0:0:0:0:
179,192,13340,1,0,0:0:0:0:
230,192,13340,1,0,0:0:0:0:
435,192,13340,1,0,0:0:0:0:
332,192,13457,1,0,0:0:0:0:
76,192,13574,1,0,0:0:0:0:
179,192,13691,1,0,0:0:0:0:
486,192,13808,1,0,0:0:0:0:
128,192,13808,1,0,0:0:0:0:
230,192,13808,1,0,0:0:0:0:
384,192,13808,1,0,0:0:0:0:
332,192,13925,1,0,0:0:0:0:
179,192,14043,1,0,0:0:0:0:
25,192,14160,1,0,0:0:0:0:
76,192,14160,1,0,0:0:0:0:
281,192,14160,1,0,0:0:0:0:
435,192,14160,1,0,0:0:0:0:
486,192,14160,1,0,0:0:0:0:
230,192,14394,1,0,0:0:0:0:
435,192,14511,1,0,0:0:0:0:
128,192,14629,1,0,0:0:0:0:
281,192,14629,1,0,0:0:0:0:
486,192,14746,1,0,0:0:0:0:
332,192,14746,1,0,0:0:0:0:
230,192,14746,1,0,0:0:0:0:
179,192,14746,1,0,0:0:0:0:
76,192,14863,1,0,0:0:0:0:
230,192,14980,1,0,0:0:0:0:
128,192,14980,1,0,0:0:0:0:
384,192,14980,1,0,0:0:0:0:
435,192,14980,1,0,0:0:0:0:
76,192,15215,1,0,0:0:0:0:
25,192,15215,1,0,0:0:0:0:
281,192,15215,1,0,0:0:0:0:
179,192,15215,1,0,0:0:0:0:
332,192,15215,1,0,0:0:0:0:
435,192,15449,1,0,0:0:0:0:
332,192,15449,1,0,0:0:0:0:
230,192,15449,1,0,0:0:0:0:
128,192,15449,1,0,0:0:0:0:
76,192,15683,1,0,0:0:0:0:
179,192,15683,1,0,0:0:0:0:
281,192,15683,1,0,0:0:0:0:
486,192,15683,1,0,0:0:0:0:
384,192,15918,1,0,0:0:0:0:
179,192,15918,1,0,0:0:0:0:
435,192,16035,1,0,0:0:0:0:
332,192,16035,1,0,0:0:0:0:
25,192,16035,1,0,0:0:0:0:
230,192,16035,1,0,0:0:0:0:
179,192,16269,1,0,0:0:0:0:
128,192,16269,1,0,0:0:0:0:
281,192,16269,1,0,0:0:0:0:
384,192,16269,1,0,0:0:0:0:
435,192,16386,1,0,0:0:0:0:
332,192,16386,1,0,0:0:0:0:
128,192,16504,1,0,0:0:0:0:
25,192,16621,1,0,0:0:0:0:
76,192,16621,1,0,0:0:0:0:
230,192,16621,1,0,0:0:0:0:
332,192,16621,1,0,0:0:0:0:
486,192,16621,1,0,0:0:0:0:
179,192,16738,1,0,0:0:0:0:
281,192,16855,1,0,0:0:0:0:
435,192,16855,1,0,0:0:0:0:
128,192,16972,1,0,0:0:0:0:
384,192,16972,1,0,0:0:0:0:
179,192,16972,1,0,0:0:0:0:
25,192,17090,1,0,0:0:0:0:
230,192,17090,1,0,0:0:0:0:
332,192,17090,1,0,0:0:0:0:
486,192,17090,1,0,0:0:0:0:
128,192,17207,1,0,0:0:0:0:
281,192,17324,1,0,0:0:0:0:
179,192,17324,1,0,0:0:0:0:
384,192,17441,1,0,0:0:0:0:
230,192,17558,1,0,0:0:0:0:
332,192,17558,1,0,0:0:0:0:
435,192,17558,1,0,0:0:0:0:
486,192,17558,1,0,0:0:0:0:
76,192,17558,1,0,0:0:0:0:
281,192,17675,1,0,0:0:0:0:
179,192,17793,1,0,0:0:0:0:
25,192,17793,1,0,0:0:0:0:
230,192,17910,1,0,0:0:0:0:
332,192,17910,1,0,0:0:0:0:
384,192,17910,1,0,0:0:0:0:
486,192,17910,1,0,0:0:0:0:
179,192,18027,1,0,0:0:0:0:
76,192,18144,1,0,0:0:0:0:
128,192,18261,1,0,0:0:0:0:
486,192,18261,1,0,0:0:0:0:
435,192,18379,1,0,0:0:0:0:
281,192,18496,1,0,0:0:0:0:
179,192,18496,1,0,0:0:0:0:
25,192,18496,1,0,0:0:0:0:
384,192,18613,1,0,0:0:0:0:
128,192,18730,1,0,0:0:0:0:
76,192,18730,1,0,0:0:0:0:
230,192,18730,1,0,0:0:0:0:
332,192,18730,1,0,0:0:0:0:
435,192,18847,1,0,0:0:0:0:
281,192,18847,1,0,0:0:0:0:
230,192,18965,1,0,0:0:0:0:
179,192,18965,1,0,0:0:0:0:
128,192,18965,1,0,0:0:0:0:
384,192,18965,1,0,0:0:0:0:
25,192,18965,1,0,0:0:0:0:
281,192,19082,1,0,0:0:0:0:
332,192,19199,1,0,0:0:0:0:
179,192,19316,1,0,0:0:0:0:
76,192,19433,1,0,0:0:0:0:
281,192,19433,1,0,0:0:0:0:
435,192,19433,1,0,0:0:0:0:
230,192,19433,1,0,0:0:0:0:
384,192,19433,1,0,0:0:0:0:
332,192,19668,1,0,0:0:0:0:
128,192,19668,1,0,0:0:0:0:
25,192,19785,1,0,0:0:0:0:
486,192,19785,1,0,0:0:0:0:
435,192,19785,1,0,0:0:0:0:
281,192,19785,1,0,0:0:0:0:
179,192,19902,1,0,0:0:0:0:
76,192,20019,1,0,0:0:0:0:
128,192,20019,1,0,0:0:0:0:
230,192,20019,1,0,0:0:0:0:
435,192,20019,1,0,0:0:0:0:
332,192,20019,1,0,0:0:0:0:
179,192,20254,1,0,0:0:0:0:
281,192,20371,1,0,0:0:0:0:
332,192,20371,1,0,0:0:0:0:
384,192,20371,1,0,0:0:0:0:
128,192,20371,1,0,0:0:0:0:
230,192,20488,1,0,0:0:0:0:
179,192,20605,1,0,0:0:0:0:
25,192,20605,1,0,0:0:0:0:
435,192,20605,1,0,0:0:0:0:
332,192,20722,1,0,0:0:0:0:
281,192,20722,1,0,0:0:0:0:
230,192,20840,1,0,0:0:0:0:
128,192,20840,1,0,0:0:0:0:
76,192,20840,1,0,0:0:0:0:
486,192,20840,1,0,0:0:0:0:
435,192,20840,1,0,0:0:0:0:
179,192,20957,1,0,0:0:0:0:
384,192,21074,1,0,0:0:0:0:
230,192,21191,1,0,0:0:0:0:
179,192,21308,1,0,0:0:0:0:
281,192,21308,1,0,0:0:0:0:
332,192,21308,1,0,0:0:0:0:
76,192,21308,1,0,0:0:0:0:
486,192,21308,1,0,0:0:0:0:
128,192,21425,1,0,0:0:0:0:
332,192,21543,1,0,0:0:0:0:
230,192,21660,1,0,0:0:0:0:
25,192,21660,1,0,0:0:0:0:
76,192,21660,1,0,0:0:0:0:
384,192,21660,1,0,0:0:0:0:
435,192,21660,1,0,0:0:0:0:
281,192,21777,1,0,0:0:0:0:
179,192,21894,1,0,0:0:0:0:
128,192,22011,1,0,0:0:0:0:
281,192,22011,1,0,0:0:0:0:
486,192,22011,1,0,0:0:0:0:
384,192,22129,1,0,0:0:0:0:
435,192,22246,1,0,0:0:0:0:
486,192,22246,1,0,0:0:0:0:
332,192,22246,1,0,0:0:0:0:
230,192,22246,1,0,0:0:0:0:
76,192,22246,1,0,0:0:0:0:
179,192,22480,1,0,0:0:0:0:
128,192,22480,1,0,0:0:0:0:
25,192,22480,1,0,0:0:0:0:
281,192,22480,1,0,0:0:0:0:
384,192,22480,1,0,0:0:0:0:
76,192,22715,1,0,0:0:0:0:
128,192,22715,1,0,0:0:0:0:
332,192,22715,1,0,0:0:0:0:
384,192,22715,1,0,0:0:0:0:
486,192,22715,1,0,0:0:0:0:
230,192,22949,1,0,0:0:0:0:
332,192,22949,1,0,0:0:0:0:
179,192,23183,1,0,0:0:0:0:
128,192,23183,1,0,0:0:0:0:
281,192,23183,1,0,0:0:0:0:
435,192,23183,1,0,0:0:0:0:
230,192,23418,1,0,0:0:0:0:
76,192,23418,1,0,0:0:0:0:
179,192,23535,1,0,0:0:0:0:
332,192,23535,1,0,0:0:0:0:
435,192,23535,1,0,0:0:0:0:
486,192,23535,1,0,0:0:0:0:
128,192,23769,1,0,0:0:0:0:
76,192,23769,1,0,0:0:0:0:
384,192,23769,1,0,0:0:0:0:
281,192,23769,1,0,0:0:0:0:
25,192,23886,1,0,0:0:0:0:
332,192,24004,1,0,0:0:0:0:
179,192,24121,1,0,0:0:0:0:
384,192,24121,1,0,0:0:0:0:
435,192,24121,1,0,0:0:0:0:
486,192,24121,1,0,0:0:0:0:
230,192,24238,1,0,0:0:0:0:
128,192,24355,1,0,0:0:0:0:
281,192,24472,1,0,0:0:0:0:
384,192,24472,1,0,0:0:0:0:
332,192,24590,1,0,0:0:0:0:
435,192,24590,1,0,0:0:0:0:
486,192,24590,1,0,0:0:0:0:
230,192,24590,1,0,0:0:0:0:
179,192,24590,1,0,0:0:0:0:
25,192,24590,1,0,0:0:0:0:
384,192,24707,1,0,0:0:0:0:
128,192,24707,1,0,0:0:0:0:
76,192,24824,1,0,0:0:0:0:
281,192,24824,1,0,0:0:0:0:
179,192,24941,1,0,0:0:0:0:
230,192,25058,1,0,0:0:0:0:
332,192,25058,1,0,0:0:0:0:
384,192,25058,1,0,0:0:0:0:
25,192,25058,1,0,0:0:0:0:
128,192,25175,1,0,0:0:0:0:
76,192,25293,1,0,0:0:0:0:
25,192,25293,1,0,0:0:0:0:
486,192,25293,1,0,0:0:0:0:
281,192,25293,1,0,0:0:0:0:
179,192,25410,1,0,0:0:0:0:
230,192,25410,1,0,0:0:0:0:
384,192,25410,1,0,0:0:0:0:
332,192,25410,1,0,0:0:0:0:
281,192,25644,1,0,0:0:0:0:
128,192,25644,1,0,0:0:0:0:
435,192,25761,1,0,0:0:0:0:
384,192,25761,1,0,0:0:0:0:
332,192,25879,1,0,0:0:0:0:
179,192,25879,1,0,0:0:0:0:
230,192,25996,1,0,0:0:0:0:
76,192,25996,1,0,0:0:0:0:
25,192,25996,1,0,0:0:0:0:
384,192,25996,1,0,0:0:0:0:
486,192,25996,1,0,0:0:0:0:
332,192,26113,1,0,0:0:0:0:
281,192,26113,1,0,0:0:0:0:
128,192,26113,1,0,0:0:0:0:
486,192,26230,1,0,0:0:0:0:
435,192,26230,1,0,0:0:0:0:
230,192,26230,1,0,0:0:0:0:
179,192,26230,1,0,0:0:0:0:
76,192,26347,1,0,0:0:0:0:
179,192,26465,1,0,0:0:0:0:
25,192,26465,1,0,0:0:0:0:
281,192,26465,1,0,0:0:0:0:
384,192,26465,1,0,0:0:0:0:
486,192,26699,1,0,0:0:0:0:
128,192,26699,1,0,0:0:0:0:
332,192,26816,1,0,0:0:0:0:
128,192,26816,1,0,0:0:0:0:
281,192,26933,1,0,0:0:0:0:
230,192,26933,1,0,0:0:0:0:
76,192,26933,1,0,0:0:0:0:
384,192,27168,1,0,0:0:0:0:
128,192,27168,1,0,0:0:0:0:
179,192,27285,1,0,0:0:0:0:
25,192,27285,1,0,0:0:0:0:
332,192,27285,1,0,0:0:0:0:
486,192,27285,1,0,0:0:0:0:
281,192,27519,1,0,0:0:0:0:
230,192,27519,1,0,0:0:0:0:
76,192,27519,1,0,0:0:0:0:
435,192,27519,1,0,0:0:0:0:
332,192,27754,1,0,0:0:0:0:
128,192,27754,1,0,0:0:0:0:
230,192,27871,1,0,0:0:0:0:
179,192,27871,1,0,0:0:0:0:
435,192,27871,1,0,0:0:0:0:
486,192,27871,1,0,0:0:0:0:
76,192,27988,1,0,0:0:0:0:
25,192,28105,1,0,0:0:0:0:
179,192,28105,1,0,0:0:0:0:
384,192,28105,1,0,0:0:0:0:
281,192,28105,1,0,0:0:0:0:
332,192,28222,1,0,0:0:0:0:
128,192,28222,1,0,0:0:0:0:
76,192,28222,1,0,0:0:0:0:
230,192,28340,1,0,0:0:0:0:
25,192,28340,1,0,0:0:0:0:
486,192,28340,1,0,0:0:0:0:
435,192,28340,1,0,0:0:0:0:
281,192,28457,1,0,0:0:0:0:
332,192,28574,1,0,0:0:0:0:
128,192,28574,1,0,0:0:0:0:
435,192,28691,1,0,0:0:0:0:
230,192,28691,1,0,0:0:0:0:
179,192,28808,1,0,0:0:0:0:
25,192,28808,1,0,0:0:0:0:
332,192,28808,1,0,0:0:0:0:
281,192,28808,1,0,0:0:0:0:
128,192,29043,1,0,0:0:0:0:
435,192,29160,1,0,0:0:0:0:
486,192,29160,1,0,0:0:0:0:
281,192,29160,1,0,0:0:0:0:
179,192,29160,1,0,0:0:0:0:
25,192,29160,1,0,0:0:0:0:
332,192,29394,1,0,0:0:0:0:
128,192,29511,1,0,0:0:0:0:
230,192,29629,1,0,0:0:0:0:
179,192,29746,1,0,0:0:0:0:
76,192,29746,1,0,0:0:0:0:
384,192,29746,1,0,0:0:0:0:
435,192,29746,1,0,0:0:0:0:
281,192,29863,1,0,0:0:0:0:
332,192,29980,1,0,0:0:0:0:
486,192,29980,1,0,0:0:0:0:
76,192,29980,1,0,0:0:0:0:
25,192,29980,1,0,0:0:0:0:
230,192,29980,1,0,0:0:0:0:
179,192,30215,1,0,0:0:0:0:
128,192,30215,1,0,0:0:0:0:
281,192,30215,1,0,0:0:0:0:
384,192,30215,1,0,0:0:0:0:
76,192,30449,1,0,0:0:0:0:
230,192,30449,1,0,0:0:0:0:
384,192,30449,1,0,0:0:0:0:
435,192,30449,1,0,0:0:0:0:
486,192,30683,1,0,0:0:0:0:
332,192,30683,1,0,0:0:0:0:
179,192,30683,1,0,0:0:0:0:
25,192,30683,1,0,0:0:0:0:
281,192,30918,1,0,0:0:0:0:
128,192,30918,1,0,0:0:0:0:
384,192,30918,1,0,0:0:0:0:
230,192,31035,1,0,0:0:0:0:
332,192,31035,1,0,0:0:0:0:
76,192,31035,1,0,0:0:0:0:
486,192,31035,1,0,0:0:0:0:
179,192,31269,1,0,0:0:0:0:
128,192,31269,1,0,0:0:0:0:
25,192,31269,1,0,0:0:0:0:
281,192,31269,1,0,0:0:0:0:
384,192,31269,1,0,0:0:0:0:
332,192,31386,1,0,0:0:0:0:
230,192,31504,1,0,0:0:0:0:
179,192,31621,1,0,0:0:0:0:
76,192,31621,1,0,0:0:0:0:
128,192,31621,1,0,0:0:0:0:
281,192,31621,1,0,0:0:0:0:
435,192,31621,1,0,0:0:0:0:
486,192,31621,1,0,0:0:0:0:
332,192,31738,1,0,0:0:0:0:
230,192,31855,1,0,0:0:0:0:
281,192,31972,1,0,0:0:0:0:
435,192,32090,1,0,0:0:0:0:
384,192,32090,1,0,0:0:0:0:
128,192,32090,1,0,0:0:0:0:
25,192,32090,1,0,0:0:0:0:
332,192,32207,1,0,0:0:0:0:
179,192,32207,1,0,0:0:0:0:
76,192,32324,1,0,0:0:0:0:
230,192,32441,1,0,0:0:0:0:
384,192,32441,1,0,0:0:0:0:
76,192,32558,1,0,0:0:0:0:
179,192,32558,1,0,0:0:0:0:
332,192,32558,1,0,0:0:0:0:
486,192,32558,1,0,0:0:0:0:
384,192,32675,1,0,0:0:0:0:
230,192,32793,1,0,0:0:0:0:
128,192,32793,1,0,0:0:0:0:
435,192,32793,1,0,0:0:0:0:
25,192,32910,1,0,0:0:0:0:
281,192,32910,1,0,0:0:0:0:
179,192,33027,1,0,0:0:0:0:
384,192,33027,1,0,0:0:0:0:
25,192,33144,1,0,0:0:0:0:
332,192,33144,1,0,0:0:0:0:
128,192,33261,1,0,0:0:0:0:
230,192,33261,1,0,0:0:0:0:
435,192,33261,1,0,0:0:0:0:
76,192,33379,1,0,0:0:0:0:
332,192,33379,1,0,0:0:0:0:
179,192,33496,1,0,0:0:0:0:
486,192,33496,1,0,0:0:0:0:
384,192,33496,1,0,0:0:0:0:
128,192,33613,1,0,0:0:0:0:
281,192,33613,1,0,0:0:0:0:
25,192,33613,1,0,0:0:0:0:
230,192,33730,1,0,0:0:0:0:
435,192,33730,1,0,0:0:0:0:
332,192,33730,1,0,0:0:0:0:
179,192,33847,1,0,0:0:0:0:
230,192,33965,1,0,0:0:0:0:
25,192,33965,1,0,0:0:0:0:
384,192,33965,1,0,0:0:0:0:
486,192,33965,1,0,0:0:0:0:
76,192,34082,1,0,0:0:0:0:
332,192,34082,1,0,0:0:0:0:
179,192,34199,1,0,0:0:0:0:
435,192,34199,1,0,0:0:0:0:
76,192,34316,1,0,0:0:0:0:
281,192,34316,1,0,0:0:0:0:
230,192,34433,1,0,0:0:0:0:
384,192,34433,1,0,0:0:0:0:
486,192,34433,1,0,0:0:0:0:
128,192,34550,1,0,0:0:0:0:
230,192,34668,1,0,0:0:0:0:
332,192,34668,1,0,0:0:0:0:
435,192,34785,1,0,0:0:0:0:
76,192,34785,1,0,0:0:0:0:
25,192,34785,1,0,0:0:0:0:
179,192,34902,1,0,0:0:0:0:
384,192,34902,1,0,0:0:0:0:
281,192,34902,1,0,0:0:0:0:
76,192,35019,1,0,0:0:0:0:
25,192,35019,1,0,0:0:0:0:
486,192,35019,1,0,0:0:0:0:
179,192,35136,1,0,0:0:0:0:
281,192,35136,1,0,0:0:0:0:
384,192,35136,1,0,0:0:0:0:
25,192,35254,1,0,0:0:0:0:
332,192,35254,1,0,0:0:0:0:
128,192,35371,1,0,0:0:0:0:
435,192,35371,1,0,0:0:0:0:
25,192,35488,1,0,0:0:0:0:
281,192,35488,1,0,0:0:0:0:
230,192,35605,1,0,0:0:0:0:
384,192,35605,1,0,0:0:0:0:
76,192,35722,1,0,0:0:0:0:
332,192,35722,1,0,0:0:0:0:
230,192,35840,1,0,0:0:0:0:
179,192,35840,1,0,0:0:0:0:
281,192,35840,1,0,0:0:0:0:
486,192,35840,1,0,0:0:0:0:
128,192,35957,1,0,0:0:0:0:
332,192,35957,1,0,0:0:0:0:
179,192,36074,1,0,0:0:0:0:
25,192,36074,1,0,0:0:0:0:
435,192,36074,1,0,0:0:0:0:
332,192,36191,1,0,0:0:0:0:
230,192,36308,1,0,0:0:0:0:
128,192,36308,1,0,0:0:0:0:
486,192,36308,1,0,0:0:0:0:
384,192,36308,1,0,0:0:0:0:
179,192,36543,1,0,0:0:0:0:
281,192,36543,1,0,0:0:0:0:
435,192,36543,1,0,0:0:0:0:
384,192,36660,1,0,0:0:0:0:
332,192,36660,1,0,0:0:0:0:
128,192,36660,1,0,0:0:0:0:
25,192,36660,1,0,0:0:0:0:
230,192,36660,1,0,0:0:0:0:
179,192,36894,1,0,0:0:0:0:
76,192,36894,1,0,0:0:0:0:
281,192,36894,1,0,0:0:0:0:
384,192,36894,1,0,0:0:0:0:
486,192,36894,1,0,0:0:0:0:
332,192,37011,1,0,0:0:0:0:
230,192,37011,1,0,0:0:0:0:
128,192,37129,1,0,0:0:0:0:
384,192,37129,1,0,0:0:0:0:
281,192,37246,1,0,0:0:0:0:
179,192,37246,1,0,0:0:0:0:
435,192,37246,1,0,0:0:0:0:
230,192,37363,1,0,0:0:0:0:
25,192,37363,1,0,0:0:0:0:
332,192,37363,1,0,0:0:0:0:
179,192,37480,1,0,0:0:0:0:
384,192,37480,1,0,0:0:0:0:
76,192,37480,1,0,0:0:0:0:
230,192,37597,1,0,0:0:0:0:
332,192,37715,1,0,0:0:0:0:
281,192,37715,1,0,0:0:0:0:
435,192,37715,1,0,0:0:0:0:
128,192,37715,1,0,0:0:0:0:
384,192,37949,1,0,0:0:0:0:
281,192,37949,1,0,0:0:0:0:
486,192,37949,1,0,0:0:0:0:
230,192,37949,1,0,0:0:0:0:
128,192,37949,1,0,0:0:0:0:
25,192,37949,1,0,0:0:0:0:
179,192,38183,1,0,0:0:0:0:
76,192,38183,1,0,0:0:0:0:
332,192,38183,1,0,0:0:0:0:
435,192,38183,1,0,0:0:0:0:
281,192,38418,1,0,0:0:0:0:
486,192,38418,1,0,0:0:0:0:
128,192,38418,1,0,0:0:0:0:
281,192,38535,1,0,0:0:0:0:
384,192,38535,1,0,0:0:0:0:
230,192,38535,1,0,0:0:0:0:
25,192,38535,1,0,0:0:0:0:
179,192,38652,1,0,0:0:0:0:
76,192,38652,1,0,0:0:0:0:
332,192,38652,1,0,0:0:0:0:
435,192,38769,1,0,0:0:0:0:
230,192,38769,1,0,0:0:0:0:
128,192,38886,1,0,0:0:0:0:
332,192,38886,1,0,0:0:0:0:
179,192,39004,1,0,0:0:0:0:
230,192,39121,1,0,0:0:0:0:
25,192,39121,1,0,0:0:0:0:
384,192,39121,1,0,0:0:0:0:
486,192,39121,1,0,0:0:0:0:
281,192,39121,1,0,0:0:0:0:
332,192,39238,1,0,0:0:0:0:
179,192,39355,1,0,0:0:0:0:
76,192,39355,1,0,0:0:0:0:
435,192,39472,1,0,0:0:0:0:
281,192,39472,1,0,0:0:0:0:
230,192,39590,1,0,0:0:0:0:
128,192,39590,1,0,0:0:0:0:
384,192,39590,1,0,0:0:0:0:
179,192,39707,1,0,0:0:0:0:
281,192,39707,1,0,0:0:0:0:
230,192,39824,1,0,0:0:0:0:
332,192,39824,1,0,0:0:0:0:
25,192,39824,1,0,0:0:0:0:
281,192,39941,1,0,0:0:0:0:
486,192,39941,1,0,0:0:0:0:
179,192,40058,1,0,0:0:0:0:
76,192,40058,1,0,0:0:0:0:
384,192,40058,1,0,0:0:0:0:
435,192,40058,1,0,0:0:0:0:
230,192,40175,1,0,0:0:0:0:
332,192,40293,1,0,0:0:0:0:
281,192,40293,1,0,0:0:0:0:
128,192,40293,1,0,0:0:0:0:
332,192,40410,1,0,0:0:0:0:
230,192,40410,1,0,0:0:0:0:
25,192,40410,1,0,0:0:0:0:
179,192,40527,1,0,0:0:0:0:
486,192,40527,1,0,0:0:0:0:
384,192,40527,1,0,0:0:0:0:
281,192,40644,1,0,0:0:0:0:
76,192,40644,1,0,0:0:0:0:
230,192,40761,1,0,0:0:0:0:
435,192,40761,1,0,0:0:0:0:
332,192,40879,1,0,0:0:0:0:
128,192,40879,1,0,0:0:0:0:
179,192,40996,1,0,0:0:0:0:
25,192,40996,1,0,0:0:0:0:
281,192,40996,1,0,0:0:0:0:
384,192,40996,1,0,0:0:0:0:
435,192,41113,1,0,0:0:0:0:
230,192,41113,1,0,0:0:0:0:
281,192,41230,1,0,0:0:0:0:
332,192,41230,1,0,0:0:0:0:
76,192,41230,1,0,0:0:0:0:
384,192,41347,1,0,0:0:0:0:
281,192,41347,1,0,0:0:0:0:
179,192,41347,1,0,0:0:0:0:
230,192,41465,1,0,0:0:0:0:
128,192,41465,1,0,0:0:0:0:
332,192,41465,1,0,0:0:0:0:
230,192,41582,1,0,0:0:0:0:
486,192,41582,1,0,0:0:0:0:
25,192,41582,1,0,0:0:0:0:
179,192,41699,1,0,0:0:0:0:
384,192,41699,1,0,0:0:0:0:
76,192,41816,1,0,0:0:0:0:
332,192,41816,1,0,0:0:0:0:
179,192,41933,1,0,0:0:0:0:
25,192,41933,1,0,0:0:0:0:
281,192,41933,1,0,0:0:0:0:
486,192,41933,1,0,0:0:0:0:
384,192,42050,1,0,0:0:0:0:
332,192,42168,1,0,0:0:0:0:
76,192,42168,1,0,0:0:0:0:
179,192,42168,1,0,0:0:0:0:
435,192,42285,1,0,0:0:0:0:
230,192,42402,1,0,0:0:0:0:
128,192,42402,1,0,0:0:0:0:
281,192,42519,1,0,0:0:0:0:
179,192,42519,1,0,0:0:0:0:
230,192,42636,1,0,0:0:0:0:
25,192,42636,1,0,0:0:0:0:
384,192,42636,1,0,0:0:0:0:
332,192,42754,1,0,0:0:0:0:
179,192,42871,1,0,0:0:0:0:
76,192,42871,1,0,0:0:0:0:
25,192,42871,1,0,0:0:0:0:
435,192,42871,1,0,0:0:0:0:
486,192,42871,1,0,0:0:0:0:
332,192,42988,1,0,0:0:0:0:
230,192,43105,1,0,0:0:0:0:
128,192,43105,1,0,0:0:0:0:
435,192,43105,1,0,0:0:0:0:
179,192,43222,1,0,0:0:0:0:
76,192,43222,1,0,0:0:0:0:
332,192,43222,1,0,0:0:0:0:
128,192,43340,1,0,0:0:0:0:
281,192,43340,1,0,0:0:0:0:
25,192,43340,1,0,0:0:0:0:
486,192,43340,1,0,0:0:0:0:
179,192,43457,1,0,0:0:0:0:
332,192,43457,1,0,0:0:0:0:
76,192,43574,1,0,0:0:0:0:
281,192,43574,1,0,0:0:0:0:
230,192,43691,1,0,0:0:0:0:
384,192,43691,1,0,0:0:0:0:
179,192,43808,1,0,0:0:0:0:
25,192,43808,1,0,0:0:0:0:
332,192,43808,1,0,0:0:0:0:
486,192,43808,1,0,0:0:0:0:
128,192,43925,1,0,0:0:0:0:
230,192,44043,1,0,0:0:0:0:
384,192,44043,1,0,0:0:0:0:
76,192,44160,1,0,0:0:0:0:
435,192,44160,1,0,0:0:0:0:
281,192,44160,1,0,0:0:0:0:
128,192,44277,1,0,0:0:0:0:
230,192,44277,1,0,0:0:0:0:
332,192,44277,1,0,0:0:0:0:
179,192,44394,1,0,0:0:0:0:
486,192,44394,1,0,0:0:0:0:
76,192,44511,1,0,0:0:0:0:
281,192,44511,1,0,0:0:0:0:
384,192,44511,1,0,0:0:0:0:
128,192,44629,1,0,0:0:0:0:
179,192,44746,1,0,0:0:0:0:
230,192,44746,1,0,0:0:0:0:
25,192,44746,1,0,0:0:0:0:
435,192,44746,1,0,0:0:0:0:
486,192,44746,1,0,0:0:0:0:
179,192,44980,1,0,0:0:0:0:
76,192,44980,1,0,0:0:0:0:
384,192,44980,1,0,0:0:0:0:
486,192,44980,1,0,0:0:0:0:
128,192,45097,1,0,0:0:0:0:
230,192,45097,1,0,0:0:0:0:
332,192,45097,1,0,0:0:0:0:
179,192,45215,1,0,0:0:0:0:
25,192,45215,1,0,0:0:0:0:
281,192,45215,1,0,0:0:0:0:
435,192,45332,1,0,0:0:0:0:
128,192,45449,1,0,0:0:0:0:
230,192,45449,1,0,0:0:0:0:
179,192,45566,1,0,0:0:0:0:
281,192,45566,1,0,0:0:0:0:
230,192,45683,1,0,0:0:0:0:
76,192,45683,1,0,0:0:0:0:
332,192,45683,1,0,0:0:0:0:
486,192,45683,1,0,0:0:0:0:
384,192,45800,1,0,0:0:0:0:
179,192,45918,1,0,0:0:0:0:
25,192,45918,1,0,0:0:0:0:
281,192,46035,1,0,0:0:0:0:
332,192,46035,1,0,0:0:0:0:
128,192,46035,1,0,0:0:0:0:
332,192,46269,1,0,0:0:0:0:
281,192,46269,1,0,0:0:0:0:
435,192,46269,1,0,0:0:0:0:
128,192,46269,1,0,0:0:0:0:
25,192,46269,1,0,0:0:0:0:
230,192,46386,1,0,0:0:0:0:
76,192,46504,1,0,0:0:0:0:
179,192,46621,1,0,0:0:0:0:
332,192,46621,1,0,0:0:0:0:
384,192,46621,1,0,0:0:0:0:
486,192,46621,1,0,0:0:0:0:
281,192,46738,1,0,0:0:0:0:
128,192,46738,1,0,0:0:0:0:
435,192,46855,1,0,0:0:0:0:
230,192,46855,1,0,0:0:0:0:
25,192,46972,1,0,0:0:0:0:
332,192,47090,1,0,0:0:0:0:
486,192,47090,1,0,0:0:0:0:
179,192,47090,1,0,0:0:0:0:
128,192,47207,1,0,0:0:0:0:
230,192,47324,1,0,0:0:0:0:
384,192,47324,1,0,0:0:0:0:
76,192,47441,1,0,0:0:0:0:
179,192,47558,1,0,0:0:0:0:
435,192,47558,1,0,0:0:0:0:
128,192,47675,1,0,0:0:0:0:
230,192,47793,1,0,0:0:0:0:
486,192,47793,1,0,0:0:0:0:
384,192,47793,1,0,0:0:0:0:
76,192,47910,1,0,0:0:0:0:
179,192,48027,1,0,0:0:0:0:
281,192,48027,1,0,0:0:0:0:
128,192,48144,1,0,0:0:0:0:
25,192,48261,1,0,0:0:0:0:
332,192,48261,1,0,0:0:0:0:
230,192,48379,1,0,0:0:0:0:
76,192,48496,1,0,0:0:0:0:
384,192,48496,1,0,0:0:0:0:
486,192,48496,1,0,0:0:0:0:
128,192,48613,1,0,0:0:0:0:
179,192,48730,1,0,0:0:0:0:
281,192,48730,1,0,0:0:0:0:
128,192,48847,1,0,0:0:0:0:
230,192,48965,1,0,0:0:0:0:
25,192,48965,1,0,0:0:0:0:
435,192,48965,1,0,0:0:0:0:
179,192,49082,1,0,0:0:0:0:
76,192,49199,1,0,0:0:0:0:
332,192,49199,1,0,0:0:0:0:
179,192,49316,1,0,0:0:0:0:
128,192,49433,1,0,0:0:0:0:
486,192,49433,1,0,0:0:0:0:
230,192,49550,1,0,0:0:0:0:
179,192,49668,1,0,0:0:0:0:
384,192,49668,1,0,0:0:0:0:
76,192,49785,1,0,0:0:0:0:
128,192,49902,1,0,0:0:0:0:
281,192,49902,1,0,0:0:0:0:
230,192,50019,1,0,0:0:0:0:
76,192,50136,1,0,0:0:0:0:
435,192,50136,1,0,0:0:0:0:
179,192,50254,1,0,0:0:0:0:
25,192,50371,1,0,0:0:0:0:
332,192,50371,1,0,0:0:0:0:
128,192,50488,1,0,0:0:0:0:
230,192,50605,1,0,0:0:0:0:
76,192,50722,1,0,0:0:0:0:
179,192,50840,1,0,0:0:0:0:
281,192,50840,1,0,0:0:0:0:
384,192,50957,1,0,0:0:0:0:
230,192,51074,1,0,0:0:0:0:
76,192,51074,1,0,0:0:0:0:
486,192,51191,1,0,0:0:0:0:
179,192,51308,1,0,0:0:0:0:
332,192,51308,1,0,0:0:0:0:
435,192,51425,1,0,0:0:0:0:
25,192,51543,1,0,0:0:0:0:
128,192,51543,1,0,0:0:0:0:
281,192,51660,1,0,0:0:0:0:
230,192,51777,1,0,0:0:0:0:
384,192,51777,1,0,0:0:0:0:
486,192,51894,1,0,0:0:0:0:
332,192,52011,1,0,0:0:0:0:
76,192,52011,1,0,0:0:0:0:
179,192,52129,1,0,0:0:0:0:
435,192,52246,1,0,0:0:0:0:
281,192,52246,1,0,0:0:0:0:
25,192,52363,1,0,0:0:0:0:
128,192,52480,1,0,0:0:0:0:
384,192,52480,1,0,0:0:0:0:
230,192,52597,1,0,0:0:0:0:
332,192,52715,1,0,0:0:0:0:
76,192,52715,1,0,0:0:0:0:
179,192,52832,1,0,0:0:0:0:
76,192,52949,1,0,0:0:0:0:
486,192,52949,1,0,0:0:0:0:
179,192,53066,1,0,0:0:0:0:
76,192,53183,1,0,0:0:0:0:
384,192,53183,1,0,0:0:0:0:
230,192,53300,1,0,0:0:0:0:
25,192,53418,5,0,0:0:0:0:
332,192,53418,1,0,0:0:0:0:
179,192,53535,1,0,0:0:0:0:
76,192,53652,1,0,0:0:0:0:
281,192,53652,1,0,0:0:0:0:
230,192,53769,1,0,0:0:0:0:
25,192,53886,1,0,0:0:0:0:
435,192,53886,1,0,0:0:0:0:
179,192,54004,1,0,0:0:0:0:
128,192,54121,1,0,0:0:0:0:
281,192,54121,1,0,0:0:0:0:
230,192,54238,1,0,0:0:0:0:
179,192,54355,1,0,0:0:0:0:
332,192,54355,1,0,0:0:0:0:
76,192,54472,1,0,0:0:0:0:
384,192,54590,5,0,0:0:0:0:
128,192,54590,1,0,0:0:0:0:
281,192,54707,1,0,0:0:0:0:
76,192,54824,1,0,0:0:0:0:
332,192,54941,1,0,0:0:0:0:
281,192,55058,1,0,0:0:0:0:
179,192,55058,1,0,0:0:0:0:
230,192,55175,1,0,0:0:0:0:
128,192,55175,1,0,0:0:0:0:
332,192,55293,1,0,0:0:0:0:
486,192,55293,1,0,0:0:0:0:
179,192,55410,1,0,0:0:0:0:
384,192,55527,1,0,0:0:0:0:
76,192,55527,1,0,0:0:0:0:
281,192,55644,1,0,0:0:0:0:
179,192,55761,1,0,0:0:0:0:
332,192,55879,1,0,0:0:0:0:
486,192,55996,1,0,0:0:0:0:
281,192,55996,1,0,0:0:0:0:
179,192,56113,1,0,0:0:0:0:
76,192,56230,1,0,0:0:0:0:
384,192,56230,1,0,0:0:0:0:
179,192,56347,1,0,0:0:0:0:
332,192,56465,1,0,0:0:0:0:
281,192,56465,1,0,0:0:0:0:
128,192,56582,1,0,0:0:0:0:
230,192,56699,1,0,0:0:0:0:
25,192,56699,1,0,0:0:0:0:
179,192,56816,1,0,0:0:0:0:
332,192,56816,1,0,0:0:0:0:
281,192,56933,1,0,0:0:0:0:
128,192,56933,1,0,0:0:0:0:
435,192,57050,1,0,0:0:0:0:
332,192,57168,1,0,0:0:0:0:
486,192,57168,1,0,0:0:0:0:
179,192,57285,1,0,0:0:0:0:
128,192,57402,1,0,0:0:0:0:
384,192,57402,1,0,0:0:0:0:
230,192,57519,1,0,0:0:0:0:
281,192,57636,1,0,0:0:0:0:
25,192,57636,1,0,0:0:0:0:
179,192,57754,1,0,0:0:0:0:
76,192,57871,1,0,0:0:0:0:
435,192,57871,1,0,0:0:0:0:
332,192,57988,1,0,0:0:0:0:
230,192,58105,1,0,0:0:0:0:
128,192,58105,1,0,0:0:0:0:
384,192,58222,1,0,0:0:0:0:
179,192,58340,1,0,0:0:0:0:
486,192,58340,1,0,0:0:0:0:
332,192,58457,1,0,0:0:0:0:
76,192,58457,1,0,0:0:0:0:
230,192,58574,1,0,0:0:0:0:
435,192,58574,1,0,0:0:0:0:
25,192,58691,1,0,0:0:0:0:
281,192,58691,1,0,0:0:0:0:
179,192,58808,1,0,0:0:0:0:
384,192,58808,1,0,0:0:0:0:
76,192,58925,1,0,0:0:0:0:
486,192,58925,1,0,0:0:0:0:
128,192,59043,1,0,0:0:0:0:
332,192,59043,1,0,0:0:0:0:
230,192,59160,1,0,0:0:0:0:
435,192,59160,1,0,0:0:0:0:
25,192,59277,1,0,0:0:0:0:
281,192,59277,1,0,0:0:0:0:
179,192,59394,1,0,0:0:0:0:
384,192,59394,1,0,0:0:0:0:
76,192,59511,1,0,0:0:0:0:
332,192,59511,1,0,0:0:0:0:
179,192,59629,1,0,0:0:0:0:
281,192,59746,1,0,0:0:0:0:
435,192,59746,1,0,0:0:0:0:
332,192,59863,1,0,0:0:0:0:
128,192,59863,1,0,0:0:0:0:
230,192,59980,1,0,0:0:0:0:
76,192,59980,1,0,0:0:0:0:
384,192,60097,1,0,0:0:0:0:
25,192,60215,1,0,0:0:0:0:
281,192,60332,1,0,0:0:0:0:
128,192,60449,1,0,0:0:0:0:
486,192,60566,1,0,0:0:0:0:
384,192,60683,1,0,0:0:0:0:
230,192,60800,1,0,0:0:0:0:
486,192,60918,5,0,0:0:0:0:
179,192,61035,1,0,0:0:0:0:
281,192,61621,1,0,0:0:0:0:
230,192,61738,1,0,0:0:0:0:
179,192,61855,1,0,0:0:0:0:
230,192,62090,5,0,0:0:0:0:
76,192,62090,1,0,0:0:0:0:
486,192,62090,1,0,0:0:0:0:
435,192,62090,1,0,0:0:0:0:
25,192,62090,1,0,0:0:0:0:
332,192,62090,1,0,0:0:0:0:
179,192,62207,1,0,0:0:0:0:
281,192,62207,1,0,0:0:0:0:
384,192,62324,1,0,0:0:0:0:
128,192,62324,1,0,0:0:0:0:
332,192,62441,1,0,0:0:0:0:
435,192,62441,1,0,0:0:0:0:
281,192,62558,1,0,0:0:0:0:
230,192,62558,1,0,0:0:0:0:
76,192,62558,1,0,0:0:0:0:
179,192,62558,1,0,0:0:0:0:
128,192,62675,1,0,0:0:0:0:
384,192,62675,1,0,0:0:0:0:
486,192,62793,1,0,0:0:0:0:
435,192,62793,1,0,0:0:0:0:
230,192,62793,1,0,0:0:0:0:
25,192,62793,1,0,0:0:0:0:
332,192,62910,1,0,0:0:0:0:
281,192,62910,1,0,0:0:0:0:
179,192,62910,1,0,0:0:0:0:
128,192,62910,1,0,0:0:0:0:
384,192,63027,1,0,0:0:0:0:
76,192,63144,1,0,0:0:0:0:
332,192,63261,1,0,0:0:0:0:
128,192,63379,1,0,0:0:0:0:
281,192,63496,1,0,0:0:0:0:
230,192,63496,1,0,0:0:0:0:
435,192,63496,1,0,0:0:0:0:
25,192,63496,1,0,0:0:0:0:
76,192,63496,1,0,0:0:0:0:
179,192,63613,1,0,0:0:0:0:
486,192,63613,1,0,0:0:0:0:
384,192,63730,1,0,0:0:0:0:
128,192,63730,1,0,0:0:0:0:
332,192,63847,1,0,0:0:0:0:
76,192,63847,1,0,0:0:0:0:
435,192,63965,1,0,0:0:0:0:
486,192,63965,1,0,0:0:0:0:
281,192,63965,1,0,0:0:0:0:
230,192,63965,1,0,0:0:0:0:
179,192,63965,1,0,0:0:0:0:
128,192,64082,1,0,0:0:0:0:
384,192,64199,1,0,0:0:0:0:
179,192,64199,1,0,0:0:0:0:
281,192,64316,1,0,0:0:0:0:
76,192,64316,1,0,0:0:0:0:
25,192,64433,1,0,0:0:0:0:
230,192,64433,1,0,0:0:0:0:
332,192,64433,1,0,0:0:0:0:
435,192,64433,1,0,0:0:0:0:
128,192,64433,1,0,0:0:0:0:
179,192,64550,1,0,0:0:0:0:
384,192,64668,1,0,0:0:0:0:
281,192,64668,1,0,0:0:0:0:
230,192,64785,1,0,0:0:0:0:
76,192,64785,1,0,0:0:0:0:
179,192,64902,1,0,0:0:0:0:
332,192,64902,1,0,0:0:0:0:
486,192,64902,1,0,0:0:0:0:
435,192,64902,1,0,0:0:0:0:
281,192,65019,1,0,0:0:0:0:
230,192,65019,1,0,0:0:0:0:
128,192,65019,1,0,0:0:0:0:
384,192,65136,1,0,0:0:0:0:
25,192,65136,1,0,0:0:0:0:
179,192,65254,1,0,0:0:0:0:
332,192,65371,1,0,0:0:0:0:
25,192,65371,1,0,0:0:0:0:
230,192,65371,1,0,0:0:0:0:
486,192,65371,1,0,0:0:0:0:
435,192,65371,1,0,0:0:0:0:
128,192,65488,1,0,0:0:0:0:
179,192,65605,1,0,0:0:0:0:
384,192,65605,1,0,0:0:0:0:
281,192,65605,1,0,0:0:0:0:
76,192,65722,1,0,0:0:0:0:
230,192,65722,1,0,0:0:0:0:
332,192,65840,1,0,0:0:0:0:
486,192,65840,1,0,0:0:0:0:
179,192,65840,1,0,0:0:0:0:
281,192,65840,1,0,0:0:0:0:
25,192,65840,1,0,0:0:0:0:
384,192,66074,1,0,0:0:0:0:
230,192,66074,1,0,0:0:0:0:
128,192,66074,1,0,0:0:0:0:
179,192,66191,1,0,0:0:0:0:
281,192,66191,1,0,0:0:0:0:
435,192,66191,1,0,0:0:0:0:
76,192,66191,1,0,0:0:0:0:
25,192,66308,1,0,0:0:0:0:
384,192,66425,1,0,0:0:0:0:
332,192,66543,1,0,0:0:0:0:
281,192,66543,1,0,0:0:0:0:
128,192,66543,1,0,0:0:0:0:
230,192,66660,1,0,0:0:0:0:
179,192,66660,1,0,0:0:0:0:
25,192,66660,1,0,0:0:0:0:
435,192,66660,1,0,0:0:0:0:
486,192,66660,1,0,0:0:0:0:
332,192,66777,1,0,0:0:0:0:
76,192,66894,1,0,0:0:0:0:
230,192,67011,1,0,0:0:0:0:
384,192,67011,1,0,0:0:0:0:
128,192,67129,1,0,0:0:0:0:
281,192,67246,1,0,0:0:0:0:
179,192,67246,1,0,0:0:0:0:
435,192,67246,1,0,0:0:0:0:
332,192,67363,1,0,0:0:0:0:
128,192,67363,1,0,0:0:0:0:
25,192,67363,1,0,0:0:0:0:
230,192,67480,1,0,0:0:0:0:
76,192,67480,1,0,0:0:0:0:
384,192,67480,1,0,0:0:0:0:
179,192,67597,1,0,0:0:0:0:
128,192,67715,1,0,0:0:0:0:
76,192,67715,1,0,0:0:0:0:
230,192,67715,1,0,0:0:0:0:
281,192,67715,1,0,0:0:0:0:
384,192,67715,1,0,0:0:0:0:
435,192,67715,1,0,0:0:0:0:
25,192,67949,1,0,0:0:0:0:
230,192,67949,1,0,0:0:0:0:
435,192,67949,1,0,0:0:0:0:
332,192,67949,1,0,0:0:0:0:
486,192,68066,1,0,0:0:0:0:
384,192,68066,1,0,0:0:0:0:
128,192,68066,1,0,0:0:0:0:
281,192,68183,1,0,0:0:0:0:
179,192,68183,1,0,0:0:0:0:
76,192,68183,1,0,0:0:0:0:
435,192,68300,1,0,0:0:0:0:
128,192,68418,1,0,0:0:0:0:
25,192,68418,1,0,0:0:0:0:
384,192,68418,1,0,0:0:0:0:
230,192,68535,1,0,0:0:0:0:
76,192,68535,1,0,0:0:0:0:
281,192,68535,1,0,0:0:0:0:
486,192,68535,1,0,0:0:0:0:
179,192,68652,1,0,0:0:0:0:
128,192,68652,1,0,0:0:0:0:
332,192,68652,1,0,0:0:0:0:
76,192,68769,1,0,0:0:0:0:
230,192,68769,1,0,0:0:0:0:
435,192,68769,1,0,0:0:0:0:
281,192,68769,1,0,0:0:0:0:
332,192,68886,1,0,0:0:0:0:
179,192,68886,1,0,0:0:0:0:
384,192,69121,1,0,0:0:0:0:
281,192,69121,1,0,0:0:0:0:
230,192,69121,1,0,0:0:0:0:
128,192,69121,1,0,0:0:0:0:
76,192,69238,1,0,0:0:0:0:
332,192,69355,1,0,0:0:0:0:
486,192,69355,1,0,0:0:0:0:
179,192,69355,1,0,0:0:0:0:
25,192,69355,1,0,0:0:0:0:
230,192,69472,1,0,0:0:0:0:
384,192,69472,1,0,0:0:0:0:
179,192,69590,1,0,0:0:0:0:
76,192,69590,1,0,0:0:0:0:
25,192,69590,1,0,0:0:0:0:
281,192,69590,1,0,0:0:0:0:
486,192,69590,1,0,0:0:0:0:
128,192,69707,1,0,0:0:0:0:
179,192,69824,1,0,0:0:0:0:
76,192,69941,1,0,0:0:0:0:
230,192,69941,1,0,0:0:0:0:
384,192,69941,1,0,0:0:0:0:
179,192,70058,1,0,0:0:0:0:
332,192,70058,1,0,0:0:0:0:
435,192,70058,1,0,0:0:0:0:
486,192,70058,1,0,0:0:0:0:
281,192,70175,1,0,0:0:0:0:
128,192,70175,1,0,0:0:0:0:
25,192,70175,1,0,0:0:0:0:
435,192,70293,1,0,0:0:0:0:
332,192,70293,1,0,0:0:0:0:
179,192,70293,1,0,0:0:0:0:
384,192,70410,1,0,0:0:0:0:
230,192,70410,1,0,0:0:0:0:
281,192,70410,1,0,0:0:0:0:
76,192,70410,1,0,0:0:0:0:
128,192,70527,1,0,0:0:0:0:
332,192,70644,1,0,0:0:0:0:
486,192,70644,1,0,0:0:0:0:
179,192,70761,1,0,0:0:0:0:
25,192,70761,1,0,0:0:0:0:
384,192,70879,1,0,0:0:0:0:
281,192,70879,1,0,0:0:0:0:
332,192,70996,1,0,0:0:0:0:
230,192,70996,1,0,0:0:0:0:
128,192,70996,1,0,0:0:0:0:
76,192,70996,1,0,0:0:0:0:
179,192,71113,1,0,0:0:0:0:
281,192,71113,1,0,0:0:0:0:
435,192,71113,1,0,0:0:0:0:
486,192,71230,1,0,0:0:0:0:
384,192,71230,1,0,0:0:0:0:
230,192,71230,1,0,0:0:0:0:
25,192,71465,1,0,0:0:0:0:
230,192,71465,1,0,0:0:0:0:
128,192,71465,1,0,0:0:0:0:
332,192,71465,1,0,0:0:0:0:
486,192,71465,1,0,0:0:0:0:
435,192,71699,1,0,0:0:0:0:
281,192,71699,1,0,0:0:0:0:
179,192,71699,1,0,0:0:0:0:
76,192,71699,1,0,0:0:0:0:
230,192,71816,1,0,0:0:0:0:
128,192,71933,1,0,0:0:0:0:
384,192,71933,1,0,0:0:0:0:
332,192,71933,1,0,0:0:0:0:
486,192,71933,1,0,0:0:0:0:
435,192,72168,1,0,0:0:0:0:
281,192,72168,1,0,0:0:0:0:
179,192,72168,1,0,0:0:0:0:
76,192,72168,1,0,0:0:0:0:
384,192,72285,1,0,0:0:0:0:
332,192,72285,1,0,0:0:0:0:
281,192,72285,1,0,0:0:0:0:
128,192,72285,1,0,0:0:0:0:
230,192,72285,1,0,0:0:0:0:
25,192,72402,1,0,0:0:0:0:
332,192,72519,1,0,0:0:0:0:
281,192,72519,1,0,0:0:0:0:
384,192,72519,1,0,0:0:0:0:
179,192,72519,1,0,0:0:0:0:
76,192,72636,1,0,0:0:0:0:
230,192,72636,1,0,0:0:0:0:
128,192,72754,1,0,0:0:0:0:
486,192,72871,1,0,0:0:0:0:
435,192,72871,1,0,0:0:0:0:
332,192,72871,1,0,0:0:0:0:
179,192,72871,1,0,0:0:0:0:
384,192,72988,1,0,0:0:0:0:
332,192,73105,1,0,0:0:0:0:
281,192,73105,1,0,0:0:0:0:
230,192,73105,1,0,0:0:0:0:
25,192,73105,1,0,0:0:0:0:
435,192,73222,1,0,0:0:0:0:
332,192,73340,1,0,0:0:0:0:
281,192,73340,1,0,0:0:0:0:
486,192,73340,1,0,0:0:0:0:
76,192,73340,1,0,0:0:0:0:
179,192,73340,1,0,0:0:0:0:
230,192,73457,1,0,0:0:0:0:
25,192,73574,1,0,0:0:0:0:
179,192,73574,1,0,0:0:0:0:
384,192,73574,1,0,0:0:0:0:
332,192,73574,1,0,0:0:0:0:
128,192,73691,1,0,0:0:0:0:
230,192,73808,1,0,0:0:0:0:
435,192,73808,1,0,0:0:0:0:
281,192,73808,1,0,0:0:0:0:
76,192,73808,1,0,0:0:0:0:
332,192,74043,1,0,0:0:0:0:
435,192,74043,1,0,0:0:0:0:
25,192,74043,1,0,0:0:0:0:
128,192,74043,1,0,0:0:0:0:
230,192,74043,1,0,0:0:0:0:
281,192,74160,1,0,0:0:0:0:
486,192,74277,1,0,0:0:0:0:
384,192,74277,1,0,0:0:0:0:
179,192,74277,1,0,0:0:0:0:
25,192,74277,1,0,0:0:0:0:
128,192,74394,1,0,0:0:0:0:
281,192,74511,1,0,0:0:0:0:
76,192,74629,1,0,0:0:0:0:
435,192,74746,1,0,0:0:0:0:
332,192,74746,1,0,0:0:0:0:
281,192,74746,1,0,0:0:0:0:
179,192,74746,1,0,0:0:0:0:
128,192,74746,1,0,0:0:0:0:
230,192,74863,1,0,0:0:0:0:
25,192,74863,1,0,0:0:0:0:
384,192,74980,1,0,0:0:0:0:
486,192,74980,1,0,0:0:0:0:
128,192,74980,1,0,0:0:0:0:
179,192,75097,1,0,0:0:0:0:
128,192,75215,1,0,0:0:0:0:
25,192,75215,1,0,0:0:0:0:
281,192,75215,1,0,0:0:0:0:
435,192,75215,1,0,0:0:0:0:
332,192,75332,1,0,0:0:0:0:
230,192,75332,1,0,0:0:0:0:
76,192,75449,1,0,0:0:0:0:
179,192,75449,1,0,0:0:0:0:
384,192,75449,1,0,0:0:0:0:
230,192,75566,1,0,0:0:0:0:
486,192,75566,1,0,0:0:0:0:
179,192,75683,1,0,0:0:0:0:
25,192,75683,1,0,0:0:0:0:
435,192,75683,1,0,0:0:0:0:
230,192,75800,1,0,0:0:0:0:
128,192,75800,1,0,0:0:0:0:
332,192,75800,1,0,0:0:0:0:
76,192,75918,1,0,0:0:0:0:
384,192,75918,1,0,0:0:0:0:
179,192,76035,1,0,0:0:0:0:
281,192,76035,1,0,0:0:0:0:
435,192,76035,1,0,0:0:0:0:
76,192,76152,1,0,0:0:0:0:
486,192,76152,1,0,0:0:0:0:
25,192,76269,1,0,0:0:0:0:
128,192,76269,1,0,0:0:0:0:
384,192,76269,1,0,0:0:0:0:
281,192,76269,1,0,0:0:0:0:
179,192,76386,1,0,0:0:0:0:
76,192,76504,1,0,0:0:0:0:
332,192,76621,1,0,0:0:0:0:
128,192,76621,1,0,0:0:0:0:
230,192,76621,1,0,0:0:0:0:
281,192,76738,1,0,0:0:0:0:
179,192,76738,1,0,0:0:0:0:
384,192,76738,1,0,0:0:0:0:
230,192,76855,1,0,0:0:0:0:
332,192,76855,1,0,0:0:0:0:
486,192,76855,1,0,0:0:0:0:
25,192,76855,1,0,0:0:0:0:
179,192,76972,1,0,0:0:0:0:
281,192,77090,5,0,0:0:0:0:
128,192,77090,1,0,0:0:0:0:
486,192,77090,1,0,0:0:0:0:
332,192,77090,1,0,0:0:0:0:
435,192,77090,1,0,0:0:0:0:
25,192,77090,1,0,0:0:0:0:
76,192,77207,1,0,0:0:0:0:
230,192,77207,1,0,0:0:0:0:
384,192,77324,1,0,0:0:0:0:
128,192,77324,1,0,0:0:0:0:
76,192,77441,1,0,0:0:0:0:
179,192,77441,1,0,0:0:0:0:
435,192,77558,1,0,0:0:0:0:
332,192,77558,1,0,0:0:0:0:
25,192,77558,1,0,0:0:0:0:
230,192,77558,1,0,0:0:0:0:
128,192,77675,1,0,0:0:0:0:
384,192,77675,1,0,0:0:0:0:
281,192,77793,1,0,0:0:0:0:
486,192,77793,1,0,0:0:0:0:
25,192,77793,1,0,0:0:0:0:
76,192,77793,1,0,0:0:0:0:
332,192,77910,1,0,0:0:0:0:
384,192,77910,1,0,0:0:0:0:
179,192,77910,1,0,0:0:0:0:
230,192,77910,1,0,0:0:0:0:
128,192,78027,1,0,0:0:0:0:
435,192,78144,1,0,0:0:0:0:
179,192,78261,1,0,0:0:0:0:
384,192,78379,1,0,0:0:0:0:
486,192,78496,1,0,0:0:0:0:
435,192,78496,1,0,0:0:0:0:
76,192,78496,1,0,0:0:0:0:
230,192,78496,1,0,0:0:0:0:
281,192,78496,1,0,0:0:0:0:
25,192,78613,1,0,0:0:0:0:
332,192,78613,1,0,0:0:0:0:
384,192,78730,1,0,0:0:0:0:
128,192,78730,1,0,0:0:0:0:
435,192,78847,1,0,0:0:0:0:
179,192,78847,1,0,0:0:0:0:
281,192,78965,1,0,0:0:0:0:
332,192,78965,1,0,0:0:0:0:
230,192,78965,1,0,0:0:0:0:
76,192,78965,1,0,0:0:0:0:
25,192,78965,1,0,0:0:0:0:
384,192,79082,1,0,0:0:0:0:
332,192,79199,1,0,0:0:0:0:
128,192,79199,1,0,0:0:0:0:
435,192,79316,1,0,0:0:0:0:
230,192,79316,1,0,0:0:0:0:
76,192,79433,1,0,0:0:0:0:
384,192,79433,1,0,0:0:0:0:
179,192,79433,1,0,0:0:0:0:
486,192,79433,1,0,0:0:0:0:
281,192,79433,1,0,0:0:0:0:
332,192,79550,1,0,0:0:0:0:
230,192,79668,1,0,0:0:0:0:
128,192,79668,1,0,0:0:0:0:
435,192,79785,1,0,0:0:0:0:
281,192,79785,1,0,0:0:0:0:
25,192,79902,1,0,0:0:0:0:
332,192,79902,1,0,0:0:0:0:
179,192,79902,1,0,0:0:0:0:
76,192,79961,1,0,0:0:0:0:
384,192,80019,1,0,0:0:0:0:
281,192,80019,1,0,0:0:0:0:
230,192,80019,1,0,0:0:0:0:
179,192,80078,1,0,0:0:0:0:
486,192,80136,1,0,0:0:0:0:
128,192,80136,1,0,0:0:0:0:
230,192,80254,1,0,0:0:0:0:
384,192,80254,1,0,0:0:0:0:
281,192,80312,1,0,0:0:0:0:
25,192,80371,1,0,0:0:0:0:
76,192,80371,1,0,0:0:0:0:
179,192,80371,1,0,0:0:0:0:
332,192,80371,1,0,0:0:0:0:
435,192,80371,1,0,0:0:0:0:
384,192,80488,1,0,0:0:0:0:
230,192,80605,1,0,0:0:0:0:
128,192,80605,1,0,0:0:0:0:
332,192,80605,1,0,0:0:0:0:
281,192,80722,1,0,0:0:0:0:
435,192,80722,1,0,0:0:0:0:
230,192,80840,1,0,0:0:0:0:
486,192,80840,1,0,0:0:0:0:
332,192,80840,1,0,0:0:0:0:
179,192,80840,1,0,0:0:0:0:
25,192,80840,1,0,0:0:0:0:
384,192,81074,1,0,0:0:0:0:
281,192,81074,1,0,0:0:0:0:
128,192,81074,1,0,0:0:0:0:
76,192,81191,1,0,0:0:0:0:
435,192,81191,1,0,0:0:0:0:
332,192,81191,1,0,0:0:0:0:
230,192,81191,1,0,0:0:0:0:
486,192,81308,1,0,0:0:0:0:
128,192,81425,1,0,0:0:0:0:
384,192,81543,1,0,0:0:0:0:
230,192,81543,1,0,0:0:0:0:
179,192,81543,1,0,0:0:0:0:
76,192,81660,1,0,0:0:0:0:
25,192,81660,1,0,0:0:0:0:
486,192,81660,1,0,0:0:0:0:
281,192,81660,1,0,0:0:0:0:
332,192,81660,1,0,0:0:0:0:
179,192,81777,1,0,0:0:0:0:
435,192,81894,1,0,0:0:0:0:
128,192,82011,1,0,0:0:0:0:
281,192,82011,1,0,0:0:0:0:
384,192,82129,1,0,0:0:0:0:
76,192,82246,1,0,0:0:0:0:
332,192,82246,1,0,0:0:0:0:
230,192,82246,1,0,0:0:0:0:
486,192,82363,1,0,0:0:0:0:
384,192,82363,1,0,0:0:0:0:
179,192,82363,1,0,0:0:0:0:
128,192,82480,1,0,0:0:0:0:
435,192,82480,1,0,0:0:0:0:
281,192,82480,1,0,0:0:0:0:
332,192,82597,1,0,0:0:0:0:
230,192,82715,1,0,0:0:0:0:
128,192,82715,1,0,0:0:0:0:
76,192,82715,1,0,0:0:0:0:
384,192,82715,1,0,0:0:0:0:
435,192,82715,1,0,0:0:0:0:
281,192,82715,1,0,0:0:0:0:
76,192,82949,1,0,0:0:0:0:
179,192,82949,1,0,0:0:0:0:
486,192,82949,1,0,0:0:0:0:
281,192,82949,1,0,0:0:0:0:
384,192,83066,1,0,0:0:0:0:
128,192,83066,1,0,0:0:0:0:
25,192,83066,1,0,0:0:0:0:
435,192,83183,1,0,0:0:0:0:
332,192,83183,1,0,0:0:0:0:
230,192,83183,1,0,0:0:0:0:
76,192,83300,1,0,0:0:0:0:
128,192,83418,1,0,0:0:0:0:
486,192,83418,1,0,0:0:0:0:
384,192,83418,1,0,0:0:0:0:
230,192,83535,1,0,0:0:0:0:
25,192,83535,1,0,0:0:0:0:
281,192,83535,1,0,0:0:0:0:
435,192,83535,1,0,0:0:0:0:
179,192,83652,1,0,0:0:0:0:
384,192,83652,1,0,0:0:0:0:
332,192,83652,1,0,0:0:0:0:
76,192,83769,1,0,0:0:0:0:
230,192,83769,1,0,0:0:0:0:
435,192,83769,1,0,0:0:0:0:
281,192,83769,1,0,0:0:0:0:
332,192,83886,1,0,0:0:0:0:
179,192,83886,1,0,0:0:0:0:
281,192,84121,1,0,0:0:0:0:
384,192,84121,1,0,0:0:0:0:
128,192,84121,1,0,0:0:0:0:
230,192,84121,1,0,0:0:0:0:
435,192,84238,1,0,0:0:0:0:
332,192,84355,1,0,0:0:0:0:
486,192,84355,1,0,0:0:0:0:
179,192,84355,1,0,0:0:0:0:
25,192,84355,1,0,0:0:0:0:
128,192,84472,1,0,0:0:0:0:
281,192,84472,1,0,0:0:0:0:
230,192,84590,1,0,0:0:0:0:
25,192,84590,1,0,0:0:0:0:
486,192,84590,1,0,0:0:0:0:
332,192,84590,1,0,0:0:0:0:
435,192,84590,1,0,0:0:0:0:
384,192,84707,1,0,0:0:0:0:
332,192,84824,1,0,0:0:0:0:
128,192,84941,1,0,0:0:0:0:
281,192,84941,1,0,0:0:0:0:
435,192,84941,1,0,0:0:0:0:
76,192,85058,1,0,0:0:0:0:
25,192,85058,1,0,0:0:0:0:
332,192,85058,1,0,0:0:0:0:
179,192,85058,1,0,0:0:0:0:
486,192,85175,1,0,0:0:0:0:
384,192,85175,1,0,0:0:0:0:
230,192,85175,1,0,0:0:0:0:
332,192,85293,1,0,0:0:0:0:
179,192,85293,1,0,0:0:0:0:
76,192,85293,1,0,0:0:0:0:
230,192,85410,1,0,0:0:0:0:
435,192,85410,1,0,0:0:0:0:
128,192,85410,1,0,0:0:0:0:
281,192,85410,1,0,0:0:0:0:
384,192,85527,1,0,0:0:0:0:
25,192,85644,1,0,0:0:0:0:
179,192,85644,1,0,0:0:0:0:
486,192,85761,1,0,0:0:0:0:
332,192,85761,1,0,0:0:0:0:
230,192,85879,1,0,0:0:0:0:
128,192,85879,1,0,0:0:0:0:
384,192,85996,1,0,0:0:0:0:
435,192,85996,1,0,0:0:0:0:
179,192,85996,1,0,0:0:0:0:
281,192,85996,1,0,0:0:0:0:
76,192,86113,1,0,0:0:0:0:
230,192,86113,1,0,0:0:0:0:
332,192,86113,1,0,0:0:0:0:
281,192,86230,1,0,0:0:0:0:
128,192,86230,1,0,0:0:0:0:
25,192,86230,1,0,0:0:0:0:
179,192,86465,1,0,0:0:0:0:
25,192,86465,1,0,0:0:0:0:
384,192,86465,1,0,0:0:0:0:
486,192,86465,1,0,0:0:0:0:
281,192,86465,1,0,0:0:0:0:
332,192,86699,1,0,0:0:0:0:
435,192,86699,1,0,0:0:0:0:
76,192,86699,1,0,0:0:0:0:
230,192,86699,1,0,0:0:0:0:
281,192,86816,1,0,0:0:0:0:
179,192,86933,1,0,0:0:0:0:
25,192,86933,1,0,0:0:0:0:
384,192,86933,1,0,0:0:0:0:
128,192,86933,1,0,0:0:0:0:
332,192,87168,1,0,0:0:0:0:
435,192,87168,1,0,0:0:0:0:
76,192,87168,1,0,0:0:0:0:
230,192,87168,1,0,0:0:0:0:
384,192,87285,1,0,0:0:0:0:
281,192,87285,1,0,0:0:0:0:
230,192,87285,1,0,0:0:0:0:
128,192,87285,1,0,0:0:0:0:
179,192,87285,1,0,0:0:0:0:
486,192,87402,1,0,0:0:0:0:
128,192,87519,1,0,0:0:0:0:
332,192,87519,1,0,0:0:0:0:
179,192,87519,1,0,0:0:0:0:
230,192,87519,1,0,0:0:0:0:
281,192,87636,1,0,0:0:0:0:
435,192,87636,1,0,0:0:0:0:
384,192,87754,1,0,0:0:0:0:
179,192,87871,1,0,0:0:0:0:
332,192,87871,1,0,0:0:0:0:
25,192,87871,1,0,0:0:0:0:
76,192,87871,1,0,0:0:0:0:
128,192,87988,1,0,0:0:0:0:
281,192,88105,1,0,0:0:0:0:
486,192,88105,1,0,0:0:0:0:
179,192,88105,1,0,0:0:0:0:
230,192,88105,1,0,0:0:0:0:
76,192,88222,1,0,0:0:0:0:
435,192,88340,1,0,0:0:0:0:
332,192,88340,1,0,0:0:0:0:
25,192,88340,1,0,0:0:0:0:
179,192,88340,1,0,0:0:0:0:
230,192,88340,1,0,0:0:0:0:
281,192,88457,1,0,0:0:0:0:
128,192,88574,1,0,0:0:0:0:
179,192,88574,1,0,0:0:0:0:
486,192,88574,1,0,0:0:0:0:
332,192,88574,1,0,0:0:0:0:
384,192,88691,1,0,0:0:0:0:
230,192,88808,1,0,0:0:0:0:
435,192,88808,1,0,0:0:0:0:
281,192,88808,1,0,0:0:0:0:
76,192,88808,1,0,0:0:0:0:
384,192,89043,1,0,0:0:0:0:
281,192,89043,1,0,0:0:0:0:
486,192,89043,1,0,0:0:0:0:
179,192,89043,1,0,0:0:0:0:
76,192,89043,1,0,0:0:0:0:
230,192,89160,1,0,0:0:0:0:
332,192,89277,1,0,0:0:0:0:
486,192,89277,1,0,0:0:0:0:
25,192,89277,1,0,0:0:0:0:
128,192,89277,1,0,0:0:0:0:
384,192,89394,1,0,0:0:0:0:
230,192,89511,1,0,0:0:0:0:
435,192,89629,1,0,0:0:0:0:
332,192,89746,1,0,0:0:0:0:
384,192,89746,1,0,0:0:0:0:
230,192,89746,1,0,0:0:0:0:
76,192,89746,1,0,0:0:0:0:
179,192,89746,1,0,0:0:0:0:
486,192,89863,1,0,0:0:0:0:
281,192,89863,1,0,0:0:0:0:
384,192,89980,1,0,0:0:0:0:
25,192,89980,1,0,0:0:0:0:
128,192,89980,1,0,0:0:0:0:
332,192,90097,1,0,0:0:0:0:
230,192,90215,1,0,0:0:0:0:
76,192,90215,1,0,0:0:0:0:
384,192,90215,1,0,0:0:0:0:
486,192,90215,1,0,0:0:0:0:
128,192,90449,1,0,0:0:0:0:
486,192,90566,1,0,0:0:0:0:
384,192,90566,1,0,0:0:0:0:
25,192,90566,1,0,0:0:0:0:
281,192,90566,1,0,0:0:0:0:
179,192,90566,1,0,0:0:0:0:
435,192,90918,5,0,0:0:0:0:
25,192,90918,1,0,0:0:0:0:
332,192,90918,1,0,0:0:0:0:
128,192,90918,1,0,0:0:0:0:
230,192,90918,1,0,0:0:0:0:
486,192,91152,5,0,0:0:0:0:
332,192,91152,1,0,0:0:0:0:
230,192,91152,1,0,0:0:0:0:
281,192,91152,1,0,0:0:0:0:
76,192,91152,1,0,0:0:0:0:
128,192,91269,1,0,0:0:0:0:
179,192,91269,1,0,0:0:0:0:
332,192,91386,1,0,0:0:0:0:
435,192,91386,1,0,0:0:0:0:
25,192,91386,1,0,0:0:0:0:
230,192,91386,1,0,0:0:0:0:
76,192,91386,1,0,0:0:0:0:
179,192,91504,1,0,0:0:0:0:
281,192,91621,1,0,0:0:0:0:
384,192,91621,1,0,0:0:0:0:
486,192,91621,1,0,0:0:0:0:
128,192,91738,1,0,0:0:0:0:
230,192,91738,1,0,0:0:0:0:
25,192,91855,1,0,0:0:0:0:
281,192,91855,1,0,0:0:0:0:
179,192,91855,1,0,0:0:0:0:
435,192,91855,1,0,0:0:0:0:
332,192,92090,5,0,0:0:0:0:
230,192,92090,1,0,0:0:0:0:
486,192,92090,1,0,0:0:0:0:
76,192,92090,1,0,0:0:0:0:
25,192,92090,1,0,0:0:0:0:
281,192,92207,1,0,0:0:0:0:
128,192,92324,1,0,0:0:0:0:
384,192,92441,1,0,0:0:0:0:
179,192,92441,1,0,0:0:0:0:
486,192,92558,1,0,0:0:0:0:
230,192,92558,1,0,0:0:0:0:
332,192,92558,1,0,0:0:0:0:
435,192,92675,1,0,0:0:0:0:
281,192,92793,1,0,0:0:0:0:
128,192,92793,1,0,0:0:0:0:
179,192,92793,1,0,0:0:0:0:
230,192,92910,1,0,0:0:0:0:
384,192,92910,1,0,0:0:0:0:
332,192,92910,1,0,0:0:0:0:
76,192,92910,1,0,0:0:0:0:
25,192,92910,1,0,0:0:0:0:
486,192,93027,1,0,0:0:0:0:
332,192,93144,1,0,0:0:0:0:
76,192,93261,1,0,0:0:0:0:
435,192,93261,1,0,0:0:0:0:
128,192,93379,1,0,0:0:0:0:
281,192,93496,1,0,0:0:0:0:
486,192,93496,1,0,0:0:0:0:
332,192,93496,1,0,0:0:0:0:
179,192,93613,1,0,0:0:0:0:
435,192,93613,1,0,0:0:0:0:
230,192,93730,1,0,0:0:0:0:
25,192,93730,1,0,0:0:0:0:
76,192,93730,1,0,0:0:0:0:
332,192,93847,1,0,0:0:0:0:
179,192,93847,1,0,0:0:0:0:
435,192,93965,1,0,0:0:0:0:
384,192,93965,1,0,0:0:0:0:
281,192,93965,1,0,0:0:0:0:
128,192,93965,1,0,0:0:0:0:
179,192,94082,1,0,0:0:0:0:
332,192,94199,1,0,0:0:0:0:
76,192,94199,1,0,0:0:0:0:
486,192,94199,1,0,0:0:0:0:
230,192,94316,1,0,0:0:0:0:
281,192,94433,1,0,0:0:0:0:
435,192,94433,1,0,0:0:0:0:
25,192,94433,1,0,0:0:0:0:
76,192,94550,1,0,0:0:0:0:
179,192,94668,1,0,0:0:0:0:
384,192,94668,1,0,0:0:0:0:
281,192,94785,1,0,0:0:0:0:
486,192,94785,1,0,0:0:0:0:
128,192,94785,1,0,0:0:0:0:
230,192,94785,1,0,0:0:0:0:
384,192,94902,1,0,0:0:0:0:
76,192,95019,1,0,0:0:0:0:
435,192,95019,1,0,0:0:0:0:
281,192,95019,1,0,0:0:0:0:
230,192,95019,1,0,0:0:0:0:
384,192,95254,1,0,0:0:0:0:
281,192,95254,1,0,0:0:0:0:
128,192,95254,1,0,0:0:0:0:
230,192,95371,1,0,0:0:0:0:
76,192,95371,1,0,0:0:0:0:
25,192,95371,1,0,0:0:0:0:
435,192,95488,1,0,0:0:0:0:
128,192,95605,1,0,0:0:0:0:
332,192,95605,1,0,0:0:0:0:
281,192,95605,1,0,0:0:0:0:
25,192,95722,1,0,0:0:0:0:
435,192,95840,1,0,0:0:0:0:
486,192,95840,1,0,0:0:0:0:
230,192,95840,1,0,0:0:0:0:
179,192,95840,1,0,0:0:0:0:
76,192,95840,1,0,0:0:0:0:
332,192,95957,1,0,0:0:0:0:
128,192,96074,1,0,0:0:0:0:
281,192,96191,1,0,0:0:0:0:
179,192,96308,1,0,0:0:0:0:
25,192,96308,1,0,0:0:0:0:
384,192,96308,1,0,0:0:0:0:
486,192,96308,1,0,0:0:0:0:
332,192,96425,1,0,0:0:0:0:
230,192,96543,1,0,0:0:0:0:
128,192,96543,1,0,0:0:0:0:
179,192,96660,1,0,0:0:0:0:
76,192,96660,1,0,0:0:0:0:
384,192,96660,1,0,0:0:0:0:
435,192,96660,1,0,0:0:0:0:
281,192,96660,1,0,0:0:0:0:
128,192,96777,1,0,0:0:0:0:
230,192,96894,1,0,0:0:0:0:
332,192,97011,1,0,0:0:0:0:
128,192,97129,1,0,0:0:0:0:
25,192,97246,1,0,0:0:0:0:
179,192,97246,1,0,0:0:0:0:
486,192,97246,1,0,0:0:0:0:
384,192,97246,1,0,0:0:0:0:
230,192,97363,1,0,0:0:0:0:
128,192,97480,1,0,0:0:0:0:
76,192,97480,1,0,0:0:0:0:
435,192,97480,1,0,0:0:0:0:
332,192,97480,1,0,0:0:0:0:
179,192,97597,1,0,0:0:0:0:
486,192,97715,1,0,0:0:0:0:
435,192,97715,1,0,0:0:0:0:
384,192,97715,1,0,0:0:0:0:
76,192,97715,1,0,0:0:0:0:
25,192,97715,1,0,0:0:0:0:
230,192,97715,1,0,0:0:0:0:
332,192,97832,1,0,0:0:0:0:
281,192,97949,1,0,0:0:0:0:
128,192,97949,1,0,0:0:0:0:
435,192,97949,1,0,0:0:0:0:
179,192,98066,1,0,0:0:0:0:
435,192,98183,1,0,0:0:0:0:
332,192,98183,1,0,0:0:0:0:
76,192,98183,1,0,0:0:0:0:
230,192,98183,1,0,0:0:0:0:
179,192,98418,1,0,0:0:0:0:
25,192,98418,1,0,0:0:0:0:
281,192,98418,1,0,0:0:0:0:
179,192,98535,1,0,0:0:0:0:
128,192,98535,1,0,0:0:0:0:
384,192,98535,1,0,0:0:0:0:
486,192,98535,1,0,0:0:0:0:
230,192,98769,1,0,0:0:0:0:
76,192,98769,1,0,0:0:0:0:
332,192,98769,1,0,0:0:0:0:
435,192,98769,1,0,0:0:0:0:
128,192,98886,1,0,0:0:0:0:
435,192,99004,1,0,0:0:0:0:
332,192,99004,1,0,0:0:0:0:
384,192,99121,1,0,0:0:0:0:
281,192,99121,1,0,0:0:0:0:
179,192,99121,1,0,0:0:0:0:
128,192,99121,1,0,0:0:0:0:
76,192,99238,1,0,0:0:0:0:
230,192,99355,1,0,0:0:0:0:
435,192,99355,1,0,0:0:0:0:
128,192,99472,1,0,0:0:0:0:
332,192,99472,1,0,0:0:0:0:
76,192,99472,1,0,0:0:0:0:
486,192,99472,1,0,0:0:0:0:
384,192,99472,1,0,0:0:0:0:
179,192,99590,1,0,0:0:0:0:
25,192,99590,1,0,0:0:0:0:
281,192,99590,1,0,0:0:0:0:
435,192,99590,1,0,0:0:0:0:
384,192,99648,1,0,0:0:0:0:
230,192,99707,1,0,0:0:0:0:
332,192,99707,1,0,0:0:0:0:
128,192,99824,1,0,0:0:0:0:
179,192,99941,1,0,0:0:0:0:
332,192,99941,1,0,0:0:0:0:
486,192,99941,1,0,0:0:0:0:
281,192,100058,1,0,0:0:0:0:
230,192,100058,1,0,0:0:0:0:
384,192,100058,1,0,0:0:0:0:
76,192,100058,1,0,0:0:0:0:
486,192,100175,1,0,0:0:0:0:
179,192,100293,1,0,0:0:0:0:
128,192,100293,1,0,0:0:0:0:
281,192,100410,1,0,0:0:0:0:
230,192,100410,1,0,0:0:0:0:
435,192,100410,1,0,0:0:0:0:
332,192,100410,1,0,0:0:0:0:
25,192,100410,1,0,0:0:0:0:
384,192,100527,1,0,0:0:0:0:
179,192,100644,1,0,0:0:0:0:
384,192,100761,1,0,0:0:0:0:
76,192,100761,1,0,0:0:0:0:
179,192,100879,1,0,0:0:0:0:
332,192,100996,1,0,0:0:0:0:
230,192,100996,1,0,0:0:0:0:
128,192,100996,1,0,0:0:0:0:
25,192,100996,1,0,0:0:0:0:
486,192,101113,1,0,0:0:0:0:
384,192,101113,1,0,0:0:0:0:
281,192,101230,1,0,0:0:0:0:
230,192,101230,1,0,0:0:0:0:
76,192,101230,1,0,0:0:0:0:
332,192,101230,1,0,0:0:0:0:
128,192,101347,1,0,0:0:0:0:
435,192,101465,1,0,0:0:0:0:
332,192,101465,1,0,0:0:0:0:
179,192,101465,1,0,0:0:0:0:
230,192,101582,1,0,0:0:0:0:
128,192,101699,1,0,0:0:0:0:
281,192,101816,1,0,0:0:0:0:
230,192,101933,1,0,0:0:0:0:
76,192,101933,1,0,0:0:0:0:
384,192,101933,1,0,0:0:0:0:
179,192,102050,1,0,0:0:0:0:
435,192,102168,1,0,0:0:0:0:
128,192,102168,1,0,0:0:0:0:
486,192,102285,1,0,0:0:0:0:
179,192,102285,1,0,0:0:0:0:
332,192,102285,1,0,0:0:0:0:
281,192,102285,1,0,0:0:0:0:
76,192,102402,1,0,0:0:0:0:
435,192,102519,1,0,0:0:0:0:
281,192,102519,1,0,0:0:0:0:
230,192,102519,1,0,0:0:0:0:
128,192,102519,1,0,0:0:0:0:
384,192,102754,1,0,0:0:0:0:
179,192,102754,1,0,0:0:0:0:
332,192,102871,1,0,0:0:0:0:
281,192,102871,1,0,0:0:0:0:
76,192,102871,1,0,0:0:0:0:
128,192,102871,1,0,0:0:0:0:
230,192,102988,1,0,0:0:0:0:
384,192,103105,1,0,0:0:0:0:
25,192,103222,1,0,0:0:0:0:
128,192,103222,1,0,0:0:0:0:
486,192,103222,1,0,0:0:0:0:
281,192,103340,1,0,0:0:0:0:
179,192,103340,1,0,0:0:0:0:
230,192,103340,1,0,0:0:0:0:
435,192,103340,1,0,0:0:0:0:
332,192,103457,1,0,0:0:0:0:
76,192,103574,1,0,0:0:0:0:
179,192,103691,1,0,0:0:0:0:
486,192,103808,1,0,0:0:0:0:
128,192,103808,1,0,0:0:0:0:
230,192,103808,1,0,0:0:0:0:
384,192,103808,1,0,0:0:0:0:
332,192,103925,1,0,0:0:0:0:
179,192,104043,1,0,0:0:0:0:
25,192,104160,1,0,0:0:0:0:
76,192,104160,1,0,0:0:0:0:
281,192,104160,1,0,0:0:0:0:
435,192,104160,1,0,0:0:0:0:
486,192,104160,1,0,0:0:0:0:
230,192,104394,1,0,0:0:0:0:
435,192,104511,1,0,0:0:0:0:
128,192,104629,1,0,0:0:0:0:
281,192,104629,1,0,0:0:0:0:
486,192,104746,1,0,0:0:0:0:
332,192,104746,1,0,0:0:0:0:
230,192,104746,1,0,0:0:0:0:
179,192,104746,1,0,0:0:0:0:
76,192,104863,1,0,0:0:0:0:
230,192,104980,1,0,0:0:0:0:
128,192,104980,1,0,0:0:0:0:
384,192,104980,1,0,0:0:0:0:
435,192,104980,1,0,0:0:0:0:
76,192,105215,1,0,0:0:0:0:
25,192,105215,1,0,0:0:0:0:
281,192,105215,1,0,0:0:0:0:
179,192,105215,1,0,0:0:0:0:
332,192,105215,1,0,0:0:0:0:
435,192,105449,1,0,0:0:0:0:
332,192,105449,1,0,0:0:0:0:
230,192,105449,1,0,0:0:0:0:
128,192,105449,1,0,0:0:0:0:
76,192,105683,1,0,0:0:0:0:
179,192,105683,1,0,0:0:0:0:
281,192,105683,1,0,0:0:0:0:
486,192,105683,1,0,0:0:0:0:
384,192,105918,1,0,0:0:0:0:
179,192,105918,1,0,0:0:0:0:
435,192,106035,1,0,0:0:0:0:
332,192,106035,1,0,0:0:0:0:
25,192,106035,1,0,0:0:0:0:
230,192,106035,1,0,0:0:0:0:
179,192,106269,1,0,0:0:0:0:
128,192,106269,1,0,0:0:0:0:
281,192,106269,1,0,0:0:0:0:
384,192,106269,1,0,0:0:0:0:
435,192,106386,1,0,0:0:0:0:
332,192,106386,1,0,0:0:0:0:
128,192,106504,1,0,0:0:0:0:
25,192,106621,1,0,0:0:0:0:
76,192,106621,1,0,0:0:0:0:
230,192,106621,1,0,0:0:0:0:
332,192,106621,1,0,0:0:0:0:
486,192,106621,1,0,0:0:0:0:
179,192,106738,1,0,0:0:0:0:
281,192,106855,1,0,0:0:0:0:
435,192,106855,1,0,0:0:0:0:
128,192,106972,1,0,0:0:0:0:
384,192,106972,1,0,0:0:0:0:
179,192,106972,1,0,0:0:0:0:
25,192,107090,1,0,0:0:0:0:
332,192,107090,1,0,0:0:0:0:
230,192,107207,1,0,0:0:0:0:
25,192,107324,1,0,0:0:0:0:
332,192,107324,1,0,0:0:0:0:
230,192,107441,1,0,0:0:0:0:
435,192,107558,1,0,0:0:0:0:
76,192,107793,1,0,0:0:0:0:
332,192,107793,1,0,0:0:0:0:
179,192,107910,1,0,0:0:0:0:
76,192,108027,1,0,0:0:0:0:
435,192,108027,1,0,0:0:0:0:
179,192,108144,1,0,0:0:0:0:
128,192,108261,1,0,0:0:0:0:
230,192,108379,1,0,0:0:0:0:
128,192,108496,1,0,0:0:0:0:
384,192,108496,1,0,0:0:0:0:
230,192,108613,1,0,0:0:0:0:
332,192,108613,1,0,0:0:0:0:
179,192,108730,1,0,0:0:0:0:
281,192,108730,1,0,0:0:0:0:
25,192,108847,1,0,0:0:0:0:
332,192,108847,1,0,0:0:0:0:
179,192,108965,1,0,0:0:0:0:
435,192,108965,128,0,109433:0:0:0:0:
25,192,109082,1,0,0:0:0:0:
179,192,109199,1,0,0:0:0:0:
25,192,109316,1,0,0:0:0:0:
230,192,109433,1,0,0:0:0:0:
486,192,109433,128,0,109902:0:0:0:0:
76,192,109550,1,0,0:0:0:0:
179,192,109668,1,0,0:0:0:0:
76,192,109785,1,0,0:0:0:0:
230,192,109902,1,0,0:0:0:0:
435,192,109902,1,0,0:0:0:0:
384,192,109902,1,0,0:0:0:0:
128,192,110019,1,0,0:0:0:0:
179,192,110136,1,0,0:0:0:0:
384,192,110136,1,0,0:0:0:0:
332,192,110136,1,0,0:0:0:0:
128,192,110254,1,0,0:0:0:0:
230,192,110371,1,0,0:0:0:0:
332,192,110371,1,0,0:0:0:0:
281,192,110371,1,0,0:0:0:0:
25,192,110488,1,0,0:0:0:0:
230,192,110605,1,0,0:0:0:0:
179,192,110840,1,0,0:0:0:0:
486,192,110840,1,0,0:0:0:0:
384,192,110957,1,0,0:0:0:0:
230,192,111074,1,0,0:0:0:0:
486,192,111074,1,0,0:0:0:0:
384,192,111191,1,0,0:0:0:0:
179,192,111308,1,0,0:0:0:0:
76,192,111543,1,0,0:0:0:0:
435,192,111543,1,0,0:0:0:0:
179,192,111660,1,0,0:0:0:0:
332,192,111660,1,0,0:0:0:0:
230,192,111894,1,0,0:0:0:0:
435,192,111894,1,0,0:0:0:0:
179,192,112011,1,0,0:0:0:0:
435,192,112129,1,0,0:0:0:0:
128,192,112246,1,0,0:0:0:0:
332,192,112246,1,0,0:0:0:0:
384,192,112363,1,0,0:0:0:0:
25,192,112480,1,0,0:0:0:0:
281,192,112480,1,0,0:0:0:0:
435,192,112597,1,0,0:0:0:0:
128,192,112715,1,0,0:0:0:0:
76,192,112715,1,0,0:0:0:0:
230,192,112715,1,0,0:0:0:0:
384,192,112715,1,0,0:0:0:0:
332,192,112715,1,0,0:0:0:0:
179,192,112949,1,0,0:0:0:0:
230,192,113183,1,0,0:0:0:0:
128,192,113183,1,0,0:0:0:0:
332,192,113183,1,0,0:0:0:0:
486,192,113183,1,0,0:0:0:0:
435,192,113183,1,0,0:0:0:0:
179,192,113418,1,0,0:0:0:0:
281,192,113418,1,0,0:0:0:0:
384,192,113418,1,0,0:0:0:0:
128,192,113535,1,0,0:0:0:0:
76,192,113535,1,0,0:0:0:0:
25,192,113535,1,0,0:0:0:0:
230,192,113535,1,0,0:0:0:0:
332,192,113535,1,0,0:0:0:0:
179,192,113769,1,0,0:0:0:0:
128,192,113769,1,0,0:0:0:0:
281,192,113769,1,0,0:0:0:0:
435,192,113769,1,0,0:0:0:0:
230,192,113886,1,0,0:0:0:0:
179,192,114004,1,0,0:0:0:0:
486,192,114121,1,0,0:0:0:0:
384,192,114121,1,0,0:0:0:0:
281,192,114121,1,0,0:0:0:0:
128,192,114121,1,0,0:0:0:0:
25,192,114121,1,0,0:0:0:0:
332,192,114238,1,0,0:0:0:0:
179,192,114355,1,0,0:0:0:0:
332,192,114472,1,0,0:0:0:0:
230,192,114590,1,0,0:0:0:0:
76,192,114590,1,0,0:0:0:0:
25,192,114590,1,0,0:0:0:0:
435,192,114590,1,0,0:0:0:0:
179,192,114707,1,0,0:0:0:0:
384,192,114707,1,0,0:0:0:0:
128,192,114824,1,0,0:0:0:0:
281,192,114824,1,0,0:0:0:0:
179,192,114941,1,0,0:0:0:0:
332,192,114941,1,0,0:0:0:0:
230,192,115058,1,0,0:0:0:0:
486,192,115058,1,0,0:0:0:0:
435,192,115058,1,0,0:0:0:0:
281,192,115058,1,0,0:0:0:0:
76,192,115058,1,0,0:0:0:0:
384,192,115175,1,0,0:0:0:0:
179,192,115293,1,0,0:0:0:0:
25,192,115293,1,0,0:0:0:0:
128,192,115410,1,0,0:0:0:0:
332,192,115410,1,0,0:0:0:0:
230,192,115527,1,0,0:0:0:0:
435,192,115527,1,0,0:0:0:0:
332,192,115644,1,0,0:0:0:0:
76,192,115644,1,0,0:0:0:0:
179,192,115761,1,0,0:0:0:0:
128,192,115879,1,0,0:0:0:0:
384,192,115879,1,0,0:0:0:0:
281,192,115879,1,0,0:0:0:0:
179,192,115996,1,0,0:0:0:0:
230,192,115996,1,0,0:0:0:0:
25,192,116113,1,0,0:0:0:0:
179,192,116230,1,0,0:0:0:0:
332,192,116230,1,0,0:0:0:0:
486,192,116230,1,0,0:0:0:0:
128,192,116347,1,0,0:0:0:0:
435,192,116347,1,0,0:0:0:0:
281,192,116347,1,0,0:0:0:0:
179,192,116465,1,0,0:0:0:0:
76,192,116465,1,0,0:0:0:0:
230,192,116582,1,0,0:0:0:0:
384,192,116582,1,0,0:0:0:0:
486,192,116582,1,0,0:0:0:0:
128,192,116699,1,0,0:0:0:0:
25,192,116816,1,0,0:0:0:0:
230,192,116933,1,0,0:0:0:0:
332,192,116933,1,0,0:0:0:0:
435,192,116933,1,0,0:0:0:0:
486,192,117050,1,0,0:0:0:0:
128,192,117050,1,0,0:0:0:0:
179,192,117168,1,0,0:0:0:0:
25,192,117168,1,0,0:0:0:0:
281,192,117168,1,0,0:0:0:0:
384,192,117168,1,0,0:0:0:0:
332,192,117285,1,0,0:0:0:0:
128,192,117285,1,0,0:0:0:0:
76,192,117285,1,0,0:0:0:0:
230,192,117402,1,0,0:0:0:0:
486,192,117402,1,0,0:0:0:0:
384,192,117402,1,0,0:0:0:0:
179,192,117519,1,0,0:0:0:0:
128,192,117519,1,0,0:0:0:0:
435,192,117754,1,0,0:0:0:0:
281,192,117754,1,0,0:0:0:0:
230,192,117871,1,0,0:0:0:0:
179,192,117871,1,0,0:0:0:0:
25,192,117871,1,0,0:0:0:0:
384,192,117988,1,0,0:0:0:0:
332,192,118105,1,0,0:0:0:0:
128,192,118105,1,0,0:0:0:0:
230,192,118222,1,0,0:0:0:0:
281,192,118222,1,0,0:0:0:0:
384,192,118222,1,0,0:0:0:0:
179,192,118340,1,0,0:0:0:0:
76,192,118340,1,0,0:0:0:0:
25,192,118340,1,0,0:0:0:0:
332,192,118457,1,0,0:0:0:0:
128,192,118574,1,0,0:0:0:0:
281,192,118691,1,0,0:0:0:0:
435,192,118691,1,0,0:0:0:0:
76,192,118808,1,0,0:0:0:0:
332,192,118808,1,0,0:0:0:0:
486,192,118808,1,0,0:0:0:0:
230,192,118808,1,0,0:0:0:0:
179,192,118808,1,0,0:0:0:0:
281,192,119043,1,0,0:0:0:0:
384,192,119043,1,0,0:0:0:0:
179,192,119043,1,0,0:0:0:0:
230,192,119277,1,0,0:0:0:0:
332,192,119277,1,0,0:0:0:0:
486,192,119277,1,0,0:0:0:0:
25,192,119277,1,0,0:0:0:0:
179,192,119394,1,0,0:0:0:0:
230,192,119511,1,0,0:0:0:0:
384,192,119511,1,0,0:0:0:0:
76,192,119629,1,0,0:0:0:0:
435,192,119629,1,0,0:0:0:0:
281,192,119629,1,0,0:0:0:0:
230,192,119746,1,0,0:0:0:0:
128,192,119746,1,0,0:0:0:0:
332,192,119746,1,0,0:0:0:0:
25,192,119863,1,0,0:0:0:0:
179,192,119980,1,0,0:0:0:0:
384,192,119980,1,0,0:0:0:0:
435,192,119980,1,0,0:0:0:0:
281,192,119980,1,0,0:0:0:0:
25,192,120097,1,0,0:0:0:0:
230,192,120215,1,0,0:0:0:0:
332,192,120215,1,0,0:0:0:0:
128,192,120215,1,0,0:0:0:0:
76,192,120332,1,0,0:0:0:0:
435,192,120332,1,0,0:0:0:0:
179,192,120449,1,0,0:0:0:0:
332,192,120449,1,0,0:0:0:0:
25,192,120566,1,0,0:0:0:0:
281,192,120566,1,0,0:0:0:0:
179,192,120683,1,0,0:0:0:0:
230,192,120683,1,0,0:0:0:0:
128,192,120683,1,0,0:0:0:0:
384,192,120683,1,0,0:0:0:0:
281,192,120800,1,0,0:0:0:0:
76,192,120918,5,0,0:0:0:0:
486,192,120918,1,0,0:0:0:0:
179,192,121152,1,0,0:0:0:0:
25,192,121152,1,0,0:0:0:0:
332,192,121152,1,0,0:0:0:0:
128,192,121269,1,0,0:0:0:0:
230,192,121269,1,0,0:0:0:0:
179,192,121386,1,0,0:0:0:0:
486,192,121386,1,0,0:0:0:0:
25,192,121504,1,0,0:0:0:0:
384,192,121504,1,0,0:0:0:0:
230,192,121621,1,0,0:0:0:0:
76,192,121621,1,0,0:0:0:0:
332,192,121738,1,0,0:0:0:0:
179,192,121855,1,0,0:0:0:0:
128,192,122090,5,0,0:0:0:0:
281,192,122090,1,0,0:0:0:0:
179,192,122207,1,0,0:0:0:0:
486,192,122207,1,0,0:0:0:0:
76,192,122324,1,0,0:0:0:0:
281,192,122324,1,0,0:0:0:0:
179,192,122441,1,0,0:0:0:0:
486,192,122441,1,0,0:0:0:0:
25,192,122558,1,0,0:0:0:0:
230,192,122558,1,0,0:0:0:0:
281,192,122558,1,0,0:0:0:0:
179,192,122675,1,0,0:0:0:0:
486,192,122675,1,0,0:0:0:0:
76,192,122793,1,0,0:0:0:0:
281,192,122793,1,0,0:0:0:0:
179,192,122910,1,0,0:0:0:0:
486,192,122910,1,0,0:0:0:0:
76,192,123027,1,0,0:0:0:0:
281,192,123027,1,0,0:0:0:0:
179,192,123144,1,0,0:0:0:0:
486,192,123144,1,0,0:0:0:0:
76,192,123261,1,0,0:0:0:0:
281,192,123261,1,0,0:0:0:0:
179,192,123379,1,0,0:0:0:0:
486,192,123379,1,0,0:0:0:0:
25,192,123496,1,0,0:0:0:0:
230,192,123496,1,0,0:0:0:0:
281,192,123496,1,0,0:0:0:0:
76,192,123613,1,0,0:0:0:0:
486,192,123613,1,0,0:0:0:0:
179,192,123730,1,0,0:0:0:0:
281,192,123730,1,0,0:0:0:0:
76,192,123847,1,0,0:0:0:0:
486,192,123847,1,0,0:0:0:0:
179,192,123965,1,0,0:0:0:0:
332,192,123965,1,0,0:0:0:0:
76,192,124082,1,0,0:0:0:0:
435,192,124082,1,0,0:0:0:0:
179,192,124199,1,0,0:0:0:0:
332,192,124199,1,0,0:0:0:0:
76,192,124316,1,0,0:0:0:0:
435,192,124316,1,0,0:0:0:0:
230,192,124433,1,0,0:0:0:0:
25,192,124433,1,0,0:0:0:0:
332,192,124433,1,0,0:0:0:0:
179,192,124550,1,0,0:0:0:0:
435,192,124550,1,0,0:0:0:0:
76,192,124668,1,0,0:0:0:0:
332,192,124668,1,0,0:0:0:0:
179,192,124785,1,0,0:0:0:0:
435,192,124785,1,0,0:0:0:0:
76,192,124902,1,0,0:0:0:0:
332,192,124902,1,0,0:0:0:0:
179,192,125019,1,0,0:0:0:0:
435,192,125019,1,0,0:0:0:0:
76,192,125136,1,0,0:0:0:0:
332,192,125136,1,0,0:0:0:0:
179,192,125254,1,0,0:0:0:0:
435,192,125254,1,0,0:0:0:0:
230,192,125371,1,0,0:0:0:0:
25,192,125371,1,0,0:0:0:0:
332,192,125371,1,0,0:0:0:0:
76,192,125488,1,0,0:0:0:0:
435,192,125488,1,0,0:0:0:0:
179,192,125605,1,0,0:0:0:0:
332,192,125605,1,0,0:0:0:0:
76,192,125722,1,0,0:0:0:0:
435,192,125722,1,0,0:0:0:0:
230,192,125840,1,0,0:0:0:0:
128,192,125840,1,0,0:0:0:0:
25,192,125840,1,0,0:0:0:0:
384,192,125840,1,0,0:0:0:0:
179,192,125957,1,0,0:0:0:0:
486,192,125957,1,0,0:0:0:0:
332,192,126074,1,0,0:0:0:0:
25,192,126074,1,0,0:0:0:0:
179,192,126191,1,0,0:0:0:0:
435,192,126191,1,0,0:0:0:0:
332,192,126308,1,0,0:0:0:0:
281,192,126308,1,0,0:0:0:0:
76,192,126308,1,0,0:0:0:0:
179,192,126425,1,0,0:0:0:0:
486,192,126425,1,0,0:0:0:0:
332,192,126543,1,0,0:0:0:0:
25,192,126543,1,0,0:0:0:0:
179,192,126660,1,0,0:0:0:0:
435,192,126660,1,0,0:0:0:0:
332,192,126777,1,0,0:0:0:0:
25,192,126777,1,0,0:0:0:0:
179,192,126894,1,0,0:0:0:0:
486,192,126894,1,0,0:0:0:0:
332,192,127011,1,0,0:0:0:0:
25,192,127011,1,0,0:0:0:0:
179,192,127129,1,0,0:0:0:0:
435,192,127129,1,0,0:0:0:0:
332,192,127246,1,0,0:0:0:0:
281,192,127246,1,0,0:0:0:0:
76,192,127246,1,0,0:0:0:0:
179,192,127363,1,0,0:0:0:0:
486,192,127363,1,0,0:0:0:0:
332,192,127480,1,0,0:0:0:0:
25,192,127480,1,0,0:0:0:0:
435,192,127597,1,0,0:0:0:0:
128,192,127597,1,0,0:0:0:0:
384,192,127715,1,0,0:0:0:0:
281,192,127715,1,0,0:0:0:0:
179,192,127715,1,0,0:0:0:0:
76,192,127832,1,0,0:0:0:0:
332,192,127832,1,0,0:0:0:0:
486,192,127949,1,0,0:0:0:0:
128,192,127949,1,0,0:0:0:0:
332,192,128066,1,0,0:0:0:0:
179,192,128066,1,0,0:0:0:0:
230,192,128183,1,0,0:0:0:0:
435,192,128183,1,0,0:0:0:0:
281,192,128300,1,0,0:0:0:0:
179,192,128300,1,0,0:0:0:0:
486,192,128418,1,0,0:0:0:0:
25,192,128418,1,0,0:0:0:0:
281,192,128535,1,0,0:0:0:0:
128,192,128535,1,0,0:0:0:0:
384,192,128652,1,0,0:0:0:0:
76,192,128652,1,0,0:0:0:0:
332,192,128769,1,0,0:0:0:0:
179,192,128769,1,0,0:0:0:0:
486,192,128886,1,0,0:0:0:0:
128,192,128886,1,0,0:0:0:0:
332,192,129004,1,0,0:0:0:0:
25,192,129004,1,0,0:0:0:0:
230,192,129121,1,0,0:0:0:0:
435,192,129121,1,0,0:0:0:0:
281,192,129238,1,0,0:0:0:0:
179,192,129238,1,0,0:0:0:0:
384,192,129355,1,0,0:0:0:0:
76,192,129355,1,0,0:0:0:0:
332,192,129472,1,0,0:0:0:0:
179,192,129472,1,0,0:0:0:0:
281,192,129590,1,0,0:0:0:0:
128,192,129590,1,0,0:0:0:0:
435,192,129707,1,0,0:0:0:0:
179,192,129824,1,0,0:0:0:0:
384,192,129941,1,0,0:0:0:0:
332,192,130058,1,0,0:0:0:0:
230,192,130058,1,0,0:0:0:0:
486,192,130058,1,0,0:0:0:0:
76,192,130058,1,0,0:0:0:0:
281,192,130175,1,0,0:0:0:0:
128,192,130293,1,0,0:0:0:0:
384,192,130293,1,0,0:0:0:0:
25,192,130410,1,0,0:0:0:0:
230,192,130527,1,0,0:0:0:0:
332,192,130527,1,0,0:0:0:0:
76,192,130644,1,0,0:0:0:0:
179,192,130761,1,0,0:0:0:0:
435,192,130761,1,0,0:0:0:0:
281,192,130879,1,0,0:0:0:0:
128,192,130996,1,0,0:0:0:0:
230,192,131113,1,0,0:0:0:0:
179,192,131230,1,0,0:0:0:0:
486,192,131230,1,0,0:0:0:0:
281,192,131347,1,0,0:0:0:0:
384,192,131465,1,0,0:0:0:0:
25,192,131465,1,0,0:0:0:0:
128,192,131582,1,0,0:0:0:0:
281,192,131699,1,0,0:0:0:0:
435,192,131699,1,0,0:0:0:0:
179,192,131816,1,0,0:0:0:0:
332,192,131933,1,0,0:0:0:0:
230,192,132050,1,0,0:0:0:0:
76,192,132168,1,0,0:0:0:0:
281,192,132285,1,0,0:0:0:0:
486,192,132402,1,0,0:0:0:0:
384,192,132402,1,0,0:0:0:0:
179,192,132402,1,0,0:0:0:0:
25,192,132519,1,0,0:0:0:0:
384,192,132636,1,0,0:0:0:0:
281,192,132636,1,0,0:0:0:0:
128,192,132636,1,0,0:0:0:0:
230,192,132754,1,0,0:0:0:0:
76,192,132871,1,0,0:0:0:0:
332,192,132871,1,0,0:0:0:0:
179,192,132988,1,0,0:0:0:0:
486,192,133105,1,0,0:0:0:0:
384,192,133105,1,0,0:0:0:0:
230,192,133222,1,0,0:0:0:0:
128,192,133340,1,0,0:0:0:0:
281,192,133340,1,0,0:0:0:0:
435,192,133457,1,0,0:0:0:0:
179,192,133574,1,0,0:0:0:0:
25,192,133574,1,0,0:0:0:0:
384,192,133691,1,0,0:0:0:0:
230,192,133808,1,0,0:0:0:0:
76,192,133808,1,0,0:0:0:0:
332,192,133808,1,0,0:0:0:0:
435,192,133925,1,0,0:0:0:0:
281,192,134043,1,0,0:0:0:0:
128,192,134043,1,0,0:0:0:0:
486,192,134043,1,0,0:0:0:0:
384,192,134277,1,0,0:0:0:0:
486,192,134277,1,0,0:0:0:0:
179,192,134277,1,0,0:0:0:0:
76,192,134394,1,0,0:0:0:0:
384,192,134511,1,0,0:0:0:0:
281,192,134511,1,0,0:0:0:0:
128,192,134511,1,0,0:0:0:0:
435,192,134629,1,0,0:0:0:0:
25,192,134629,1,0,0:0:0:0:
332,192,134746,1,0,0:0:0:0:
179,192,134746,1,0,0:0:0:0:
76,192,134863,1,0,0:0:0:0:
384,192,134980,1,0,0:0:0:0:
281,192,134980,1,0,0:0:0:0:
179,192,134980,1,0,0:0:0:0:
128,192,135097,1,0,0:0:0:0:
230,192,135215,1,0,0:0:0:0:
332,192,135215,1,0,0:0:0:0:
486,192,135215,1,0,0:0:0:0:
179,192,135332,1,0,0:0:0:0:
76,192,135449,1,0,0:0:0:0:
384,192,135449,1,0,0:0:0:0:
281,192,135449,1,0,0:0:0:0:
230,192,135566,1,0,0:0:0:0:
25,192,135683,1,0,0:0:0:0:
179,192,135800,1,0,0:0:0:0:
76,192,135918,1,0,0:0:0:0:
435,192,135918,1,0,0:0:0:0:
332,192,135918,1,0,0:0:0:0:
128,192,136035,1,0,0:0:0:0:
179,192,136152,128,0,136621:0:0:0:0:
128,192,136621,1,0,0:0:0:0:
435,192,136621,1,0,0:0:0:0:
230,192,136738,1,0,0:0:0:0:
332,192,136738,1,0,0:0:0:0:
128,192,136855,1,0,0:0:0:0:
435,192,136855,1,0,0:0:0:0:
179,192,136972,1,0,0:0:0:0:
384,192,137090,1,0,0:0:0:0:
332,192,137090,1,0,0:0:0:0:
281,192,137090,1,0,0:0:0:0:
486,192,137090,1,0,0:0:0:0:
230,192,137090,1,0,0:0:0:0:
25,192,137090,1,0,0:0:0:0:
179,192,137207,1,0,0:0:0:0:
76,192,137324,1,0,0:0:0:0:
230,192,137441,1,0,0:0:0:0:
128,192,137441,1,0,0:0:0:0:
332,192,137441,1,0,0:0:0:0:
435,192,137441,1,0,0:0:0:0:
76,192,137558,1,0,0:0:0:0:
230,192,137675,1,0,0:0:0:0:
384,192,137793,1,0,0:0:0:0:
281,192,137793,1,0,0:0:0:0:
179,192,137793,1,0,0:0:0:0:
25,192,137793,1,0,0:0:0:0:
25,192,137910,1,0,0:0:0:0:
76,192,137910,1,0,0:0:0:0:
332,192,137910,1,0,0:0:0:0:
281,192,137910,1,0,0:0:0:0:
230,192,138027,1,0,0:0:0:0:
128,192,138144,1,0,0:0:0:0:
435,192,138261,1,0,0:0:0:0:
179,192,138261,1,0,0:0:0:0:
332,192,138379,1,0,0:0:0:0:
128,192,138379,1,0,0:0:0:0:
281,192,138496,1,0,0:0:0:0:
384,192,138496,1,0,0:0:0:0:
179,192,138496,1,0,0:0:0:0:
25,192,138496,1,0,0:0:0:0:
230,192,138613,1,0,0:0:0:0:
76,192,138613,1,0,0:0:0:0:
435,192,138730,1,0,0:0:0:0:
179,192,138730,1,0,0:0:0:0:
281,192,138730,1,0,0:0:0:0:
384,192,138730,1,0,0:0:0:0:
435,192,138965,1,0,0:0:0:0:
486,192,138965,1,0,0:0:0:0:
332,192,138965,1,0,0:0:0:0:
230,192,138965,1,0,0:0:0:0:
128,192,138965,1,0,0:0:0:0:
25,192,139082,1,0,0:0:0:0:
281,192,139082,1,0,0:0:0:0:
179,192,139199,1,0,0:0:0:0:
332,192,139199,1,0,0:0:0:0:
25,192,139316,1,0,0:0:0:0:
384,192,139316,1,0,0:0:0:0:
281,192,139316,1,0,0:0:0:0:
179,192,139433,1,0,0:0:0:0:
230,192,139433,1,0,0:0:0:0:
332,192,139433,1,0,0:0:0:0:
486,192,139433,1,0,0:0:0:0:
76,192,139550,1,0,0:0:0:0:
230,192,139668,1,0,0:0:0:0:
435,192,139668,1,0,0:0:0:0:
281,192,139668,1,0,0:0:0:0:
76,192,139785,1,0,0:0:0:0:
332,192,139785,1,0,0:0:0:0:
384,192,139785,1,0,0:0:0:0:
179,192,139902,1,0,0:0:0:0:
230,192,139902,1,0,0:0:0:0:
281,192,139902,1,0,0:0:0:0:
486,192,139902,1,0,0:0:0:0:
128,192,140019,1,0,0:0:0:0:
384,192,140019,1,0,0:0:0:0:
332,192,140019,1,0,0:0:0:0:
230,192,140136,1,0,0:0:0:0:
76,192,140136,1,0,0:0:0:0:
179,192,140254,1,0,0:0:0:0:
332,192,140254,1,0,0:0:0:0:
25,192,140371,1,0,0:0:0:0:
128,192,140371,1,0,0:0:0:0:
384,192,140371,1,0,0:0:0:0:
486,192,140371,1,0,0:0:0:0:
179,192,140488,1,0,0:0:0:0:
76,192,140488,1,0,0:0:0:0:
230,192,140605,1,0,0:0:0:0:
281,192,140605,1,0,0:0:0:0:
332,192,140605,1,0,0:0:0:0:
128,192,140722,1,0,0:0:0:0:
332,192,140722,1,0,0:0:0:0:
435,192,140722,1,0,0:0:0:0:
179,192,140840,1,0,0:0:0:0:
76,192,140840,1,0,0:0:0:0:
25,192,140840,1,0,0:0:0:0:
384,192,140840,1,0,0:0:0:0:
486,192,140840,1,0,0:0:0:0:
332,192,140957,1,0,0:0:0:0:
281,192,141074,1,0,0:0:0:0:
128,192,141074,1,0,0:0:0:0:
230,192,141191,1,0,0:0:0:0:
332,192,141191,1,0,0:0:0:0:
435,192,141191,1,0,0:0:0:0:
76,192,141308,1,0,0:0:0:0:
25,192,141308,1,0,0:0:0:0:
128,192,141308,1,0,0:0:0:0:
332,192,141425,1,0,0:0:0:0:
230,192,141425,1,0,0:0:0:0:
384,192,141543,1,0,0:0:0:0:
281,192,141543,1,0,0:0:0:0:
179,192,141543,1,0,0:0:0:0:
76,192,141660,1,0,0:0:0:0:
25,192,141660,1,0,0:0:0:0:
332,192,141777,1,0,0:0:0:0:
230,192,141777,1,0,0:0:0:0:
281,192,141894,1,0,0:0:0:0:
128,192,141894,1,0,0:0:0:0:
179,192,142011,1,0,0:0:0:0:
384,192,142011,1,0,0:0:0:0:
332,192,142129,1,0,0:0:0:0:
76,192,142129,1,0,0:0:0:0:
230,192,142246,1,0,0:0:0:0:
128,192,142246,1,0,0:0:0:0:
384,192,142246,1,0,0:0:0:0:
281,192,142363,1,0,0:0:0:0:
179,192,142363,1,0,0:0:0:0:
435,192,142363,1,0,0:0:0:0:
332,192,142480,1,0,0:0:0:0:
486,192,142480,1,0,0:0:0:0:
25,192,142480,1,0,0:0:0:0:
76,192,142480,1,0,0:0:0:0:
230,192,142597,1,0,0:0:0:0:
179,192,142715,1,0,0:0:0:0:
128,192,142715,1,0,0:0:0:0:
76,192,142715,1,0,0:0:0:0:
384,192,142715,1,0,0:0:0:0:
281,192,142715,1,0,0:0:0:0:
435,192,142715,1,0,0:0:0:0:
230,192,142949,1,0,0:0:0:0:
332,192,142949,1,0,0:0:0:0:
25,192,142949,1,0,0:0:0:0:
179,192,143066,1,0,0:0:0:0:
384,192,143066,1,0,0:0:0:0:
486,192,143066,1,0,0:0:0:0:
281,192,143183,1,0,0:0:0:0:
128,192,143183,1,0,0:0:0:0:
435,192,143418,1,0,0:0:0:0:
332,192,143418,1,0,0:0:0:0:
76,192,143418,1,0,0:0:0:0:
281,192,143418,1,0,0:0:0:0:
230,192,143535,1,0,0:0:0:0:
179,192,143535,1,0,0:0:0:0:
25,192,143535,1,0,0:0:0:0:
281,192,143652,1,0,0:0:0:0:
384,192,143769,1,0,0:0:0:0:
332,192,143769,1,0,0:0:0:0:
128,192,143769,1,0,0:0:0:0:
76,192,143769,1,0,0:0:0:0:
179,192,143769,1,0,0:0:0:0:
435,192,143769,1,0,0:0:0:0:
25,192,143886,1,0,0:0:0:0:
230,192,143886,1,0,0:0:0:0:
281,192,143886,1,0,0:0:0:0:
486,192,143886,1,0,0:0:0:0:
332,192,144004,1,0,0:0:0:0:
76,192,144004,1,0,0:0:0:0:
230,192,144121,1,0,0:0:0:0:
128,192,144121,1,0,0:0:0:0:
486,192,144121,1,0,0:0:0:0:
384,192,144121,1,0,0:0:0:0:
435,192,144355,1,0,0:0:0:0:
332,192,144355,1,0,0:0:0:0:
179,192,144355,1,0,0:0:0:0:
76,192,144355,1,0,0:0:0:0:
230,192,144590,1,0,0:0:0:0:
128,192,144590,1,0,0:0:0:0:
25,192,144590,1,0,0:0:0:0:
486,192,144590,1,0,0:0:0:0:
384,192,144648,1,0,0:0:0:0:
281,192,144707,1,0,0:0:0:0:
179,192,144824,1,0,0:0:0:0:
76,192,144824,1,0,0:0:0:0:
281,192,144941,1,0,0:0:0:0:
435,192,144941,1,0,0:0:0:0:
230,192,145058,1,0,0:0:0:0:
128,192,145058,1,0,0:0:0:0:
76,192,145058,1,0,0:0:0:0:
332,192,145058,1,0,0:0:0:0:
179,192,145175,1,0,0:0:0:0:
486,192,145293,1,0,0:0:0:0:
281,192,145293,1,0,0:0:0:0:
25,192,145293,1,0,0:0:0:0:
76,192,145293,1,0,0:0:0:0:
179,192,145410,1,0,0:0:0:0:
230,192,145410,1,0,0:0:0:0:
332,192,145527,1,0,0:0:0:0:
435,192,145527,1,0,0:0:0:0:
128,192,145644,1,0,0:0:0:0:
230,192,145644,1,0,0:0:0:0:
384,192,145761,1,0,0:0:0:0:
281,192,145761,1,0,0:0:0:0:
76,192,145879,1,0,0:0:0:0:
179,192,145879,1,0,0:0:0:0:
230,192,145996,1,0,0:0:0:0:
384,192,145996,1,0,0:0:0:0:
25,192,145996,1,0,0:0:0:0:
332,192,146113,1,0,0:0:0:0:
179,192,146113,1,0,0:0:0:0:
128,192,146230,1,0,0:0:0:0:
281,192,146230,1,0,0:0:0:0:
486,192,146230,1,0,0:0:0:0:
435,192,146230,1,0,0:0:0:0:
486,192,146465,1,0,0:0:0:0:
332,192,146465,1,0,0:0:0:0:
230,192,146465,1,0,0:0:0:0:
25,192,146465,1,0,0:0:0:0:
76,192,146494,1,0,0:0:0:0:
128,192,146523,1,0,0:0:0:0:
179,192,146552,1,0,0:0:0:0:
384,192,146699,1,0,0:0:0:0:
281,192,146699,1,0,0:0:0:0:
76,192,146816,1,0,0:0:0:0:
230,192,146816,1,0,0:0:0:0:
332,192,146933,1,0,0:0:0:0:
486,192,146933,1,0,0:0:0:0:
435,192,146933,1,0,0:0:0:0:
179,192,147050,1,0,0:0:0:0:
230,192,147168,1,0,0:0:0:0:
332,192,147168,1,0,0:0:0:0:
25,192,147168,1,0,0:0:0:0:
384,192,147285,1,0,0:0:0:0:
281,192,147285,1,0,0:0:0:0:
128,192,147285,1,0,0:0:0:0:
179,192,147402,1,0,0:0:0:0:
332,192,147519,1,0,0:0:0:0:
281,192,147519,1,0,0:0:0:0:
76,192,147519,1,0,0:0:0:0:
230,192,147636,1,0,0:0:0:0:
128,192,147636,1,0,0:0:0:0:
486,192,147636,1,0,0:0:0:0:
332,192,147754,1,0,0:0:0:0:
179,192,147754,1,0,0:0:0:0:
384,192,147871,1,0,0:0:0:0:
76,192,147871,1,0,0:0:0:0:
435,192,147900,1,0,0:0:0:0:
486,192,147929,1,0,0:0:0:0:
230,192,147929,1,0,0:0:0:0:
179,192,147988,1,0,0:0:0:0:
281,192,148105,1,0,0:0:0:0:
332,192,148105,1,0,0:0:0:0:
128,192,148105,1,0,0:0:0:0:
25,192,148105,1,0,0:0:0:0:
384,192,148222,1,0,0:0:0:0:
230,192,148222,1,0,0:0:0:0:
179,192,148222,1,0,0:0:0:0:
281,192,148340,1,0,0:0:0:0:
435,192,148340,1,0,0:0:0:0:
128,192,148340,1,0,0:0:0:0:
76,192,148340,128,0,148574:0:0:0:0:
332,192,148457,1,0,0:0:0:0:
179,192,148574,128,0,148808:0:0:0:0:
128,192,148691,1,0,0:0:0:0:
281,192,148808,128,0,149043:0:0:0:0:
486,192,148808,1,0,0:0:0:0:
230,192,148925,1,0,0:0:0:0:
384,192,149043,128,0,149277:0:0:0:0:
332,192,149160,1,0,0:0:0:0:
179,192,149160,1,0,0:0:0:0:
76,192,149160,1,0,0:0:0:0:
486,192,149277,128,0,149746:0:0:0:0:
435,192,149394,1,0,0:0:0:0:
230,192,149746,1,0,0:0:0:0:
128,192,149746,1,0,0:0:0:0:
332,192,149746,1,0,0:0:0:0:
179,192,149863,1,0,0:0:0:0:
435,192,149980,128,0,150215:0:0:0:0:
179,192,150097,1,0,0:0:0:0:
230,192,150215,1,0,0:0:0:0:
76,192,150215,1,0,0:0:0:0:
25,192,150215,1,0,0:0:0:0:
281,192,150215,128,0,150449:0:0:0:0:
179,192,150449,1,0,0:0:0:0:
76,192,150449,1,0,0:0:0:0:
384,192,150449,128,0,150683:0:0:0:0:
128,192,150683,1,0,0:0:0:0:
230,192,150683,1,0,0:0:0:0:
486,192,150683,128,0,151035:0:0:0:0:
179,192,150800,1,0,0:0:0:0:
76,192,150918,1,0,0:0:0:0:
128,192,151035,1,0,0:0:0:0:
25,192,151035,1,0,0:0:0:0:
230,192,151152,1,0,0:0:0:0:
332,192,151152,128,0,151269:0:0:0:0:
128,192,151269,1,0,0:0:0:0:
25,192,151269,1,0,0:0:0:0:
384,192,151386,1,0,0:0:0:0:
281,192,151386,1,0,0:0:0:0:
179,192,151504,1,0,0:0:0:0:
486,192,151621,1,0,0:0:0:0:
332,192,151621,1,0,0:0:0:0:
128,192,151621,1,0,0:0:0:0:
25,192,151738,1,0,0:0:0:0:
230,192,151738,1,0,0:0:0:0:
179,192,151738,1,0,0:0:0:0:
179,192,151855,128,0,151972:0:0:0:0:
384,192,151972,1,0,0:0:0:0:
281,192,151972,1,0,0:0:0:0:
332,192,152090,5,0,0:0:0:0:
76,192,152090,1,0,0:0:0:0:
486,192,152090,1,0,0:0:0:0:
128,192,152090,1,0,0:0:0:0:
25,192,152090,1,0,0:0:0:0:
179,192,152207,1,0,0:0:0:0:
281,192,152207,1,0,0:0:0:0:
76,192,152324,1,0,0:0:0:0:
384,192,152441,1,0,0:0:0:0:
230,192,152441,1,0,0:0:0:0:
486,192,152558,1,0,0:0:0:0:
128,192,152558,1,0,0:0:0:0:
332,192,152558,1,0,0:0:0:0:
435,192,152675,1,0,0:0:0:0:
281,192,152793,1,0,0:0:0:0:
25,192,152793,1,0,0:0:0:0:
179,192,152793,1,0,0:0:0:0:
230,192,152910,1,0,0:0:0:0:
384,192,152910,1,0,0:0:0:0:
332,192,152910,1,0,0:0:0:0:
76,192,152910,1,0,0:0:0:0:
128,192,152910,1,0,0:0:0:0:
486,192,153027,1,0,0:0:0:0:
332,192,153144,1,0,0:0:0:0:
76,192,153261,1,0,0:0:0:0:
435,192,153261,1,0,0:0:0:0:
230,192,153379,1,0,0:0:0:0:
128,192,153496,1,0,0:0:0:0:
486,192,153496,1,0,0:0:0:0:
25,192,153496,1,0,0:0:0:0:
179,192,153613,1,0,0:0:0:0:
384,192,153613,1,0,0:0:0:0:
281,192,153613,1,0,0:0:0:0:
486,192,153730,1,0,0:0:0:0:
76,192,153730,1,0,0:0:0:0:
230,192,153730,1,0,0:0:0:0:
332,192,153847,1,0,0:0:0:0:
179,192,153847,1,0,0:0:0:0:
384,192,153965,1,0,0:0:0:0:
25,192,153965,1,0,0:0:0:0:
486,192,153965,1,0,0:0:0:0:
281,192,153965,1,0,0:0:0:0:
179,192,154082,1,0,0:0:0:0:
332,192,154199,1,0,0:0:0:0:
76,192,154199,1,0,0:0:0:0:
179,192,154316,1,0,0:0:0:0:
486,192,154433,1,0,0:0:0:0:
230,192,154433,1,0,0:0:0:0:
128,192,154433,1,0,0:0:0:0:
281,192,154433,1,0,0:0:0:0:
332,192,154550,1,0,0:0:0:0:
179,192,154668,1,0,0:0:0:0:
435,192,154668,1,0,0:0:0:0:
25,192,154668,1,0,0:0:0:0:
281,192,154785,1,0,0:0:0:0:
230,192,154785,1,0,0:0:0:0:
128,192,154785,1,0,0:0:0:0:
76,192,154785,1,0,0:0:0:0:
384,192,154785,1,0,0:0:0:0:
332,192,154902,1,0,0:0:0:0:
435,192,154902,1,0,0:0:0:0:
128,192,155019,1,0,0:0:0:0:
76,192,155019,1,0,0:0:0:0:
25,192,155019,1,0,0:0:0:0:
486,192,155019,1,0,0:0:0:0:
384,192,155019,1,0,0:0:0:0:
281,192,155136,1,0,0:0:0:0:
179,192,155136,1,0,0:0:0:0:
128,192,155254,1,0,0:0:0:0:
435,192,155254,1,0,0:0:0:0:
25,192,155371,1,0,0:0:0:0:
179,192,155371,1,0,0:0:0:0:
332,192,155371,1,0,0:0:0:0:
281,192,155371,1,0,0:0:0:0:
230,192,155371,1,0,0:0:0:0:
384,192,155488,1,0,0:0:0:0:
128,192,155605,1,0,0:0:0:0:
25,192,155605,1,0,0:0:0:0:
281,192,155722,1,0,0:0:0:0:
384,192,155722,1,0,0:0:0:0:
435,192,155840,1,0,0:0:0:0:
486,192,155840,1,0,0:0:0:0:
230,192,155840,1,0,0:0:0:0:
179,192,155840,1,0,0:0:0:0:
76,192,155840,1,0,0:0:0:0:
332,192,155957,1,0,0:0:0:0:
128,192,156074,1,0,0:0:0:0:
281,192,156191,1,0,0:0:0:0:
25,192,156191,1,0,0:0:0:0:
179,192,156308,1,0,0:0:0:0:
384,192,156308,1,0,0:0:0:0:
486,192,156308,1,0,0:0:0:0:
230,192,156308,1,0,0:0:0:0:
332,192,156425,1,0,0:0:0:0:
230,192,156543,1,0,0:0:0:0:
76,192,156543,1,0,0:0:0:0:
179,192,156660,1,0,0:0:0:0:
384,192,156660,1,0,0:0:0:0:
435,192,156660,1,0,0:0:0:0:
281,192,156660,1,0,0:0:0:0:
128,192,156777,1,0,0:0:0:0:
230,192,156894,1,0,0:0:0:0:
332,192,157011,1,0,0:0:0:0:
128,192,157129,1,0,0:0:0:0:
25,192,157246,1,0,0:0:0:0:
179,192,157246,1,0,0:0:0:0:
486,192,157246,1,0,0:0:0:0:
384,192,157246,1,0,0:0:0:0:
230,192,157363,1,0,0:0:0:0:
128,192,157480,1,0,0:0:0:0:
76,192,157480,1,0,0:0:0:0:
435,192,157480,1,0,0:0:0:0:
332,192,157480,1,0,0:0:0:0:
179,192,157597,1,0,0:0:0:0:
486,192,157715,1,0,0:0:0:0:
435,192,157715,1,0,0:0:0:0:
384,192,157715,1,0,0:0:0:0:
76,192,157715,1,0,0:0:0:0:
25,192,157715,1,0,0:0:0:0:
230,192,157715,1,0,0:0:0:0:
332,192,157832,1,0,0:0:0:0:
281,192,157949,1,0,0:0:0:0:
128,192,157949,1,0,0:0:0:0:
179,192,158066,1,0,0:0:0:0:
435,192,158183,1,0,0:0:0:0:
332,192,158183,1,0,0:0:0:0:
76,192,158183,1,0,0:0:0:0:
230,192,158183,1,0,0:0:0:0:
179,192,158418,1,0,0:0:0:0:
25,192,158418,1,0,0:0:0:0:
281,192,158418,1,0,0:0:0:0:
179,192,158535,1,0,0:0:0:0:
128,192,158535,1,0,0:0:0:0:
384,192,158535,1,0,0:0:0:0:
486,192,158535,1,0,0:0:0:0:
230,192,158769,1,0,0:0:0:0:
332,192,158769,1,0,0:0:0:0:
435,192,158769,1,0,0:0:0:0:
25,192,158769,1,0,0:0:0:0:
128,192,158886,1,0,0:0:0:0:
435,192,159004,1,0,0:0:0:0:
332,192,159004,1,0,0:0:0:0:
384,192,159121,1,0,0:0:0:0:
281,192,159121,1,0,0:0:0:0:
179,192,159121,1,0,0:0:0:0:
76,192,159121,1,0,0:0:0:0:
25,192,159238,1,0,0:0:0:0:
230,192,159355,1,0,0:0:0:0:
435,192,159355,1,0,0:0:0:0:
128,192,159472,1,0,0:0:0:0:
332,192,159472,1,0,0:0:0:0:
384,192,159472,1,0,0:0:0:0:
76,192,159472,1,0,0:0:0:0:
179,192,159590,1,0,0:0:0:0:
25,192,159590,1,0,0:0:0:0:
281,192,159590,1,0,0:0:0:0:
486,192,159590,1,0,0:0:0:0:
230,192,159707,1,0,0:0:0:0:
128,192,159824,1,0,0:0:0:0:
179,192,159941,1,0,0:0:0:0:
332,192,159941,1,0,0:0:0:0:
486,192,159941,1,0,0:0:0:0:
281,192,160058,1,0,0:0:0:0:
230,192,160058,1,0,0:0:0:0:
384,192,160058,1,0,0:0:0:0:
76,192,160058,1,0,0:0:0:0:
486,192,160175,1,0,0:0:0:0:
179,192,160293,1,0,0:0:0:0:
128,192,160293,1,0,0:0:0:0:
281,192,160410,1,0,0:0:0:0:
230,192,160410,1,0,0:0:0:0:
435,192,160410,1,0,0:0:0:0:
332,192,160410,1,0,0:0:0:0:
25,192,160410,1,0,0:0:0:0:
384,192,160527,1,0,0:0:0:0:
179,192,160644,1,0,0:0:0:0:
384,192,160761,1,0,0:0:0:0:
76,192,160761,1,0,0:0:0:0:
179,192,160879,1,0,0:0:0:0:
332,192,160996,1,0,0:0:0:0:
230,192,160996,1,0,0:0:0:0:
128,192,160996,1,0,0:0:0:0:
25,192,160996,1,0,0:0:0:0:
486,192,161113,1,0,0:0:0:0:
384,192,161113,1,0,0:0:0:0:
281,192,161230,1,0,0:0:0:0:
230,192,161230,1,0,0:0:0:0:
76,192,161230,1,0,0:0:0:0:
332,192,161230,1,0,0:0:0:0:
128,192,161347,1,0,0:0:0:0:
435,192,161465,1,0,0:0:0:0:
332,192,161465,1,0,0:0:0:0:
179,192,161465,1,0,0:0:0:0:
230,192,161582,1,0,0:0:0:0:
25,192,161699,1,0,0:0:0:0:
281,192,161816,1,0,0:0:0:0:
128,192,161816,1,0,0:0:0:0:
486,192,161816,1,0,0:0:0:0:
230,192,161933,1,0,0:0:0:0:
76,192,161933,1,0,0:0:0:0:
384,192,161933,1,0,0:0:0:0:
179,192,162050,1,0,0:0:0:0:
435,192,162168,1,0,0:0:0:0:
128,192,162168,1,0,0:0:0:0:
281,192,162168,1,0,0:0:0:0:
486,192,162285,1,0,0:0:0:0:
179,192,162285,1,0,0:0:0:0:
332,192,162285,1,0,0:0:0:0:
25,192,162285,1,0,0:0:0:0:
76,192,162402,1,0,0:0:0:0:
384,192,162402,1,0,0:0:0:0:
281,192,162402,1,0,0:0:0:0:
435,192,162519,1,0,0:0:0:0:
230,192,162519,1,0,0:0:0:0:
128,192,162519,1,0,0:0:0:0:
25,192,162519,1,0,0:0:0:0:
332,192,162636,1,0,0:0:0:0:
384,192,162754,1,0,0:0:0:0:
179,192,162754,1,0,0:0:0:0:
332,192,162871,1,0,0:0:0:0:
281,192,162871,1,0,0:0:0:0:
76,192,162871,1,0,0:0:0:0:
25,192,162871,1,0,0:0:0:0:
230,192,162988,1,0,0:0:0:0:
384,192,163105,1,0,0:0:0:0:
128,192,163105,1,0,0:0:0:0:
25,192,163222,1,0,0:0:0:0:
486,192,163222,1,0,0:0:0:0:
179,192,163222,1,0,0:0:0:0:
281,192,163340,1,0,0:0:0:0:
230,192,163340,1,0,0:0:0:0:
435,192,163340,1,0,0:0:0:0:
76,192,163340,1,0,0:0:0:0:
332,192,163457,1,0,0:0:0:0:
76,192,163574,1,0,0:0:0:0:
179,192,163691,1,0,0:0:0:0:
486,192,163808,1,0,0:0:0:0:
128,192,163808,1,0,0:0:0:0:
230,192,163808,1,0,0:0:0:0:
384,192,163808,1,0,0:0:0:0:
332,192,163925,1,0,0:0:0:0:
179,192,164043,1,0,0:0:0:0:
25,192,164160,1,0,0:0:0:0:
76,192,164160,1,0,0:0:0:0:
281,192,164160,1,0,0:0:0:0:
435,192,164160,1,0,0:0:0:0:
486,192,164160,1,0,0:0:0:0:
230,192,164394,1,0,0:0:0:0:
435,192,164511,1,0,0:0:0:0:
281,192,164629,1,0,0:0:0:0:
25,192,164629,1,0,0:0:0:0:
486,192,164746,1,0,0:0:0:0:
332,192,164746,1,0,0:0:0:0:
230,192,164746,1,0,0:0:0:0:
179,192,164746,1,0,0:0:0:0:
76,192,164863,1,0,0:0:0:0:
230,192,164980,1,0,0:0:0:0:
128,192,164980,1,0,0:0:0:0:
384,192,164980,1,0,0:0:0:0:
435,192,164980,1,0,0:0:0:0:
76,192,165215,1,0,0:0:0:0:
25,192,165215,1,0,0:0:0:0:
281,192,165215,1,0,0:0:0:0:
179,192,165215,1,0,0:0:0:0:
332,192,165215,1,0,0:0:0:0:
435,192,165566,1,0,0:0:0:0:
332,192,165566,1,0,0:0:0:0:
230,192,165566,1,0,0:0:0:0:
128,192,165566,1,0,0:0:0:0:
179,192,165683,1,0,0:0:0:0:
384,192,165800,1,0,0:0:0:0:
128,192,165800,1,0,0:0:0:0:
435,192,165918,1,0,0:0:0:0:
281,192,165918,1,0,0:0:0:0:
25,192,165918,1,0,0:0:0:0:
230,192,165918,1,0,0:0:0:0:
179,192,166035,1,0,0:0:0:0:
332,192,166152,1,0,0:0:0:0:
486,192,166152,1,0,0:0:0:0:
76,192,166152,1,0,0:0:0:0:
128,192,166269,1,0,0:0:0:0:
281,192,166386,1,0,0:0:0:0:
384,192,166386,1,0,0:0:0:0:
179,192,166386,1,0,0:0:0:0:
25,192,166386,1,0,0:0:0:0:
128,192,166621,1,0,0:0:0:0:
435,192,166621,1,0,0:0:0:0:
332,192,166621,1,0,0:0:0:0:
25,192,166738,1,0,0:0:0:0:
230,192,166738,1,0,0:0:0:0:
179,192,166855,1,0,0:0:0:0:
384,192,166855,1,0,0:0:0:0:
281,192,166855,1,0,0:0:0:0:
76,192,166855,1,0,0:0:0:0:
486,192,167090,1,0,0:0:0:0:
435,192,167090,1,0,0:0:0:0:
332,192,167090,1,0,0:0:0:0:
179,192,167207,1,0,0:0:0:0:
230,192,167324,1,0,0:0:0:0:
384,192,167441,1,0,0:0:0:0:
179,192,167441,1,0,0:0:0:0:
230,192,167558,1,0,0:0:0:0:
76,192,167558,1,0,0:0:0:0:
486,192,167558,1,0,0:0:0:0:
332,192,167675,1,0,0:0:0:0:
230,192,167793,1,0,0:0:0:0:
128,192,167793,1,0,0:0:0:0:
25,192,167910,1,0,0:0:0:0:
76,192,167910,1,0,0:0:0:0:
179,192,167910,1,0,0:0:0:0:
384,192,168379,1,0,0:0:0:0:
486,192,168496,1,0,0:0:0:0:
230,192,168496,1,0,0:0:0:0:
128,192,168496,1,0,0:0:0:0:
76,192,168496,1,0,0:0:0:0:
384,192,168613,1,0,0:0:0:0:
281,192,168730,1,0,0:0:0:0:
179,192,168730,1,0,0:0:0:0:
332,192,168847,1,0,0:0:0:0:
435,192,168965,1,0,0:0:0:0:
128,192,168965,1,0,0:0:0:0:
25,192,168965,1,0,0:0:0:0:
486,192,169433,1,0,0:0:0:0:
230,192,169433,1,0,0:0:0:0:
76,192,169433,1,0,0:0:0:0:
332,192,169668,1,0,0:0:0:0:
281,192,169785,1,0,0:0:0:0:
179,192,169785,1,0,0:0:0:0:
128,192,169785,1,0,0:0:0:0:
384,192,169902,1,0,0:0:0:0:
281,192,170019,1,0,0:0:0:0:
179,192,170019,1,0,0:0:0:0:
128,192,170019,1,0,0:0:0:0:
435,192,170254,1,0,0:0:0:0:
230,192,170371,1,0,0:0:0:0:
25,192,170371,1,0,0:0:0:0:
332,192,170488,1,0,0:0:0:0:
128,192,170488,1,0,0:0:0:0:
76,192,170605,1,0,0:0:0:0:
384,192,170722,1,0,0:0:0:0:
128,192,170722,1,0,0:0:0:0:
179,192,170840,1,0,0:0:0:0:
486,192,170840,1,0,0:0:0:0:
281,192,170840,1,0,0:0:0:0:
230,192,170957,1,0,0:0:0:0:
76,192,171074,1,0,0:0:0:0:
230,192,171191,1,0,0:0:0:0:
128,192,171308,1,0,0:0:0:0:
332,192,171308,1,0,0:0:0:0:
486,192,171308,1,0,0:0:0:0:
435,192,171308,1,0,0:0:0:0:
230,192,171425,1,0,0:0:0:0:
25,192,171543,1,0,0:0:0:0:
230,192,171660,1,0,0:0:0:0:
332,192,171660,1,0,0:0:0:0:
435,192,171660,1,0,0:0:0:0:
384,192,171660,1,0,0:0:0:0:
384,192,172129,1,0,0:0:0:0:
486,192,172246,1,0,0:0:0:0:
230,192,172246,1,0,0:0:0:0:
179,192,172246,1,0,0:0:0:0:
25,192,172246,1,0,0:0:0:0:
332,192,172363,1,0,0:0:0:0:
281,192,172480,1,0,0:0:0:0:
128,192,172480,1,0,0:0:0:0:
76,192,172480,1,0,0:0:0:0:
332,192,172597,1,0,0:0:0:0:
384,192,172715,1,0,0:0:0:0:
179,192,172715,1,0,0:0:0:0:
128,192,172715,1,0,0:0:0:0:
76,192,172715,1,0,0:0:0:0:
435,192,173183,1,0,0:0:0:0:
230,192,173183,1,0,0:0:0:0:
179,192,173183,1,0,0:0:0:0:
76,192,173183,1,0,0:0:0:0:
281,192,173418,1,0,0:0:0:0:
332,192,173535,1,0,0:0:0:0:
128,192,173535,1,0,0:0:0:0:
25,192,173535,1,0,0:0:0:0:
76,192,173535,1,0,0:0:0:0:
332,192,173769,1,0,0:0:0:0:
230,192,173769,1,0,0:0:0:0:
179,192,173769,1,0,0:0:0:0:
128,192,173769,1,0,0:0:0:0:
281,192,174004,1,0,0:0:0:0:
230,192,174121,1,0,0:0:0:0:
128,192,174121,1,0,0:0:0:0:
25,192,174121,1,0,0:0:0:0:
332,192,174355,1,0,0:0:0:0:
179,192,174472,1,0,0:0:0:0:
435,192,174590,1,0,0:0:0:0:
332,192,174590,1,0,0:0:0:0:
230,192,174590,1,0,0:0:0:0:
128,192,174590,1,0,0:0:0:0:
179,192,174707,1,0,0:0:0:0:
76,192,174824,1,0,0:0:0:0:
179,192,174941,1,0,0:0:0:0:
128,192,175058,1,0,0:0:0:0:
384,192,175058,1,0,0:0:0:0:
332,192,175058,1,0,0:0:0:0:
281,192,175058,1,0,0:0:0:0:
384,192,175293,1,0,0:0:0:0:
486,192,175293,1,0,0:0:0:0:
230,192,175410,1,0,0:0:0:0:
384,192,175410,1,0,0:0:0:0:
332,192,175410,1,0,0:0:0:0:
179,192,175879,1,0,0:0:0:0:
230,192,175996,1,0,0:0:0:0:
486,192,175996,1,0,0:0:0:0:
435,192,175996,1,0,0:0:0:0:
332,192,175996,1,0,0:0:0:0:
179,192,176113,1,0,0:0:0:0:
25,192,176230,1,0,0:0:0:0:
332,192,176230,1,0,0:0:0:0:
281,192,176230,1,0,0:0:0:0:
76,192,176347,1,0,0:0:0:0:
486,192,176465,1,0,0:0:0:0:
332,192,176465,1,0,0:0:0:0:
179,192,176465,1,0,0:0:0:0:
230,192,176465,1,0,0:0:0:0:
384,192,176933,1,0,0:0:0:0:
230,192,176933,1,0,0:0:0:0:
25,192,176933,1,0,0:0:0:0:
76,192,176933,1,0,0:0:0:0:
281,192,177168,1,0,0:0:0:0:
332,192,177285,1,0,0:0:0:0:
179,192,177285,1,0,0:0:0:0:
435,192,177285,1,0,0:0:0:0:
486,192,177285,1,0,0:0:0:0:
281,192,177519,1,0,0:0:0:0:
128,192,177519,1,0,0:0:0:0:
486,192,177519,1,0,0:0:0:0:
435,192,177519,1,0,0:0:0:0:
179,192,177754,1,0,0:0:0:0:
25,192,177754,1,0,0:0:0:0:
384,192,177871,1,0,0:0:0:0:
281,192,177871,1,0,0:0:0:0:
230,192,177988,1,0,0:0:0:0:
76,192,177988,1,0,0:0:0:0:
25,192,178105,1,0,0:0:0:0:
435,192,178222,1,0,0:0:0:0:
384,192,178222,1,0,0:0:0:0:
179,192,178340,1,0,0:0:0:0:
332,192,178340,1,0,0:0:0:0:
128,192,178340,1,0,0:0:0:0:
281,192,178457,1,0,0:0:0:0:
384,192,178574,1,0,0:0:0:0:
281,192,178691,1,0,0:0:0:0:
230,192,178808,1,0,0:0:0:0:
25,192,178808,1,0,0:0:0:0:
486,192,178808,1,0,0:0:0:0:
281,192,178925,1,0,0:0:0:0:
384,192,179043,1,0,0:0:0:0:
76,192,179160,1,0,0:0:0:0:
128,192,179160,1,0,0:0:0:0:
281,192,179160,1,0,0:0:0:0:
332,192,179277,1,0,0:0:0:0:
281,192,179394,1,0,0:0:0:0:
384,192,179629,1,0,0:0:0:0:
230,192,179746,1,0,0:0:0:0:
179,192,179746,1,0,0:0:0:0:
128,192,179746,1,0,0:0:0:0:
486,192,179746,1,0,0:0:0:0:
435,192,179863,1,0,0:0:0:0:
128,192,179980,1,0,0:0:0:0:
76,192,179980,1,0,0:0:0:0:
25,192,179980,1,0,0:0:0:0:
281,192,179980,1,0,0:0:0:0:
332,192,180097,1,0,0:0:0:0:
230,192,180215,1,0,0:0:0:0:
128,192,180215,1,0,0:0:0:0:
76,192,180215,1,0,0:0:0:0:
384,192,180215,1,0,0:0:0:0:
230,192,180683,1,0,0:0:0:0:
179,192,180683,1,0,0:0:0:0:
128,192,180683,1,0,0:0:0:0:
486,192,180683,1,0,0:0:0:0:
384,192,180918,1,0,0:0:0:0:
179,192,180918,1,0,0:0:0:0:
25,192,180918,1,0,0:0:0:0:
281,192,181035,1,0,0:0:0:0:
76,192,181035,1,0,0:0:0:0:
25,192,181035,1,0,0:0:0:0:
332,192,181269,1,0,0:0:0:0:
179,192,181269,1,0,0:0:0:0:
128,192,181269,1,0,0:0:0:0:
435,192,181504,1,0,0:0:0:0:
230,192,181621,1,0,0:0:0:0:
76,192,181621,1,0,0:0:0:0:
384,192,181738,1,0,0:0:0:0:
332,192,181855,1,0,0:0:0:0:
179,192,181855,1,0,0:0:0:0:
128,192,181972,1,0,0:0:0:0:
179,192,182090,1,0,0:0:0:0:
230,192,182090,1,0,0:0:0:0:
281,192,182090,1,0,0:0:0:0:
435,192,182090,1,0,0:0:0:0:
76,192,182324,1,0,0:0:0:0:
230,192,182441,1,0,0:0:0:0:
332,192,182558,1,0,0:0:0:0:
486,192,182558,1,0,0:0:0:0:
25,192,182558,1,0,0:0:0:0:
179,192,182675,1,0,0:0:0:0:
435,192,182793,1,0,0:0:0:0:
281,192,182793,1,0,0:0:0:0:
76,192,182793,1,0,0:0:0:0:
25,192,182793,1,0,0:0:0:0:
230,192,183027,1,0,0:0:0:0:
76,192,183144,1,0,0:0:0:0:
486,192,183261,1,0,0:0:0:0:
332,192,183261,1,0,0:0:0:0:
179,192,183261,1,0,0:0:0:0:
128,192,183379,1,0,0:0:0:0:
435,192,183496,1,0,0:0:0:0:
281,192,183496,1,0,0:0:0:0:
25,192,183613,1,0,0:0:0:0:
230,192,183730,1,0,0:0:0:0:
179,192,183730,1,0,0:0:0:0:
281,192,183847,1,0,0:0:0:0:
384,192,183847,1,0,0:0:0:0:
486,192,183965,1,0,0:0:0:0:
332,192,183965,1,0,0:0:0:0:
128,192,183965,1,0,0:0:0:0:
76,192,183965,1,0,0:0:0:0:
179,192,184082,1,0,0:0:0:0:
435,192,184199,1,0,0:0:0:0:
281,192,184199,1,0,0:0:0:0:
25,192,184199,1,0,0:0:0:0:
230,192,184316,1,0,0:0:0:0:
76,192,184433,1,0,0:0:0:0:
179,192,184550,1,0,0:0:0:0:
384,192,184668,1,0,0:0:0:0:
281,192,184668,1,0,0:0:0:0:
25,192,184668,1,0,0:0:0:0:
384,192,184785,1,0,0:0:0:0:
486,192,184785,1,0,0:0:0:0:
230,192,184785,1,0,0:0:0:0:
128,192,184902,1,0,0:0:0:0:
435,192,185019,1,0,0:0:0:0:
332,192,185019,1,0,0:0:0:0:
179,192,185019,1,0,0:0:0:0:
128,192,185136,1,0,0:0:0:0:
435,192,185254,1,0,0:0:0:0:
332,192,185254,1,0,0:0:0:0:
179,192,185371,1,0,0:0:0:0:
76,192,185371,1,0,0:0:0:0:
384,192,185488,1,0,0:0:0:0:
281,192,185488,1,0,0:0:0:0:
128,192,185605,1,0,0:0:0:0:
332,192,185722,1,0,0:0:0:0:
435,192,185722,1,0,0:0:0:0:
25,192,185722,1,0,0:0:0:0:
230,192,185840,1,0,0:0:0:0:
76,192,185840,1,0,0:0:0:0:
384,192,185957,1,0,0:0:0:0:
281,192,186191,1,0,0:0:0:0:
230,192,186308,1,0,0:0:0:0:
76,192,186308,1,0,0:0:0:0:
486,192,186308,1,0,0:0:0:0:
332,192,186425,1,0,0:0:0:0:
179,192,186543,1,0,0:0:0:0:
25,192,186543,1,0,0:0:0:0:
486,192,186543,1,0,0:0:0:0:
281,192,186660,1,0,0:0:0:0:
435,192,186777,1,0,0:0:0:0:
332,192,186894,1,0,0:0:0:0:
230,192,187011,1,0,0:0:0:0:
128,192,187011,1,0,0:0:0:0:
384,192,187129,1,0,0:0:0:0:
179,192,187246,1,0,0:0:0:0:
76,192,187246,1,0,0:0:0:0:
486,192,187246,1,0,0:0:0:0:
435,192,187246,1,0,0:0:0:0:
281,192,187246,1,0,0:0:0:0:
332,192,187480,1,0,0:0:0:0:
384,192,187480,1,0,0:0:0:0:
230,192,187715,1,0,0:0:0:0:
76,192,187715,1,0,0:0:0:0:
435,192,187715,1,0,0:0:0:0:
281,192,187715,1,0,0:0:0:0:
332,192,187832,1,0,0:0:0:0:
179,192,187949,1,0,0:0:0:0:
25,192,187949,1,0,0:0:0:0:
281,192,188066,1,0,0:0:0:0:
384,192,188066,1,0,0:0:0:0:
332,192,188183,1,0,0:0:0:0:
179,192,188300,1,0,0:0:0:0:
76,192,188300,1,0,0:0:0:0:
332,192,188300,1,0,0:0:0:0:
435,192,188418,1,0,0:0:0:0:
281,192,188418,1,0,0:0:0:0:
128,192,188535,1,0,0:0:0:0:
25,192,188535,1,0,0:0:0:0:
486,192,188535,1,0,0:0:0:0:
384,192,188652,1,0,0:0:0:0:
332,192,188652,1,0,0:0:0:0:
128,192,188769,1,0,0:0:0:0:
25,192,188769,1,0,0:0:0:0:
486,192,188769,1,0,0:0:0:0:
332,192,188886,1,0,0:0:0:0:
281,192,189004,1,0,0:0:0:0:
435,192,189004,1,0,0:0:0:0:
230,192,189004,1,0,0:0:0:0:
128,192,189004,1,0,0:0:0:0:
332,192,189121,1,0,0:0:0:0:
179,192,189238,1,0,0:0:0:0:
76,192,189238,1,0,0:0:0:0:
435,192,189238,1,0,0:0:0:0:
281,192,189238,1,0,0:0:0:0:
384,192,189355,1,0,0:0:0:0:
230,192,189472,1,0,0:0:0:0:
128,192,189472,1,0,0:0:0:0:
332,192,189472,1,0,0:0:0:0:
486,192,189472,1,0,0:0:0:0:
281,192,189590,1,0,0:0:0:0:
25,192,189707,1,0,0:0:0:0:
281,192,189824,1,0,0:0:0:0:
25,192,189941,1,0,0:0:0:0:
281,192,190293,1,0,0:0:0:0:
25,192,190410,1,0,0:0:0:0:
128,192,190644,1,0,0:0:0:0:
435,192,190761,1,0,0:0:0:0:
128,192,190879,1,0,0:0:0:0:
435,192,190996,1,0,0:0:0:0:
76,192,191113,1,0,0:0:0:0:
384,192,191230,1,0,0:0:0:0:
76,192,191347,1,0,0:0:0:0:
384,192,191465,1,0,0:0:0:0:
230,192,191582,1,0,0:0:0:0:
486,192,191699,1,0,0:0:0:0:
230,192,191816,1,0,0:0:0:0:
486,192,191933,1,0,0:0:0:0:
128,192,192168,1,0,0:0:0:0:
435,192,192285,1,0,0:0:0:0:
179,192,192519,1,0,0:0:0:0:
332,192,192636,1,0,0:0:0:0:
179,192,192754,1,0,0:0:0:0:
384,192,192871,1,0,0:0:0:0:
128,192,192988,1,0,0:0:0:0:
384,192,193105,1,0,0:0:0:0:
25,192,193340,1,0,0:0:0:0:
230,192,193340,1,0,0:0:0:0:
486,192,193691,1,0,0:0:0:0:
384,192,193808,1,0,0:0:0:0:
281,192,193925,1,0,0:0:0:0:
486,192,194043,1,0,0:0:0:0:
384,192,194160,1,0,0:0:0:0:
435,192,194511,1,0,0:0:0:0:
332,192,194629,1,0,0:0:0:0:
486,192,194746,1,0,0:0:0:0:
332,192,194863,1,0,0:0:0:0:
435,192,194980,1,0,0:0:0:0:
384,192,195097,1,0,0:0:0:0:
281,192,195215,1,0,0:0:0:0:
179,192,195215,1,0,0:0:0:0:
76,192,195215,1,0,0:0:0:0:
230,192,195683,1,0,0:0:0:0:
128,192,195683,1,0,0:0:0:0:
435,192,195918,1,0,0:0:0:0:
486,192,196035,1,0,0:0:0:0:
435,192,196152,1,0,0:0:0:0:
179,192,196152,1,0,0:0:0:0:
76,192,196269,1,0,0:0:0:0:
179,192,196386,1,0,0:0:0:0:
281,192,196504,1,0,0:0:0:0:
384,192,196621,1,0,0:0:0:0:
128,192,196738,1,0,0:0:0:0:
384,192,196855,1,0,0:0:0:0:
179,192,196972,1,0,0:0:0:0:
179,192,198496,1,0,0:0:0:0:
281,192,198613,1,0,0:0:0:0:
384,192,198730,1,0,0:0:0:0:
230,192,198965,5,0,0:0:0:0:
435,192,198965,1,0,0:0:0:0:
76,192,198965,1,0,0:0:0:0:
486,192,198965,1,0,0:0:0:0:
25,192,198965,1,0,0:0:0:0:
332,192,198965,1,0,0:0:0:0:
179,192,199082,1,0,0:0:0:0:
281,192,199082,1,0,0:0:0:0:
384,192,199199,1,0,0:0:0:0:
128,192,199199,1,0,0:0:0:0:
332,192,199316,1,0,0:0:0:0:
435,192,199316,1,0,0:0:0:0:
281,192,199433,1,0,0:0:0:0:
230,192,199433,1,0,0:0:0:0:
76,192,199433,1,0,0:0:0:0:
179,192,199433,1,0,0:0:0:0:
128,192,199550,1,0,0:0:0:0:
384,192,199550,1,0,0:0:0:0:
486,192,199668,1,0,0:0:0:0:
435,192,199668,1,0,0:0:0:0:
230,192,199668,1,0,0:0:0:0:
25,192,199668,1,0,0:0:0:0:
332,192,199785,1,0,0:0:0:0:
281,192,199785,1,0,0:0:0:0:
179,192,199785,1,0,0:0:0:0:
128,192,199785,1,0,0:0:0:0:
384,192,199902,1,0,0:0:0:0:
76,192,200019,1,0,0:0:0:0:
332,192,200136,1,0,0:0:0:0:
128,192,200254,1,0,0:0:0:0:
281,192,200371,1,0,0:0:0:0:
230,192,200371,1,0,0:0:0:0:
435,192,200371,1,0,0:0:0:0:
25,192,200371,1,0,0:0:0:0:
76,192,200371,1,0,0:0:0:0:
179,192,200488,1,0,0:0:0:0:
486,192,200488,1,0,0:0:0:0:
384,192,200605,1,0,0:0:0:0:
128,192,200605,1,0,0:0:0:0:
332,192,200722,1,0,0:0:0:0:
76,192,200722,1,0,0:0:0:0:
435,192,200840,1,0,0:0:0:0:
486,192,200840,1,0,0:0:0:0:
281,192,200840,1,0,0:0:0:0:
230,192,200840,1,0,0:0:0:0:
179,192,200840,1,0,0:0:0:0:
128,192,200957,1,0,0:0:0:0:
384,192,201074,1,0,0:0:0:0:
179,192,201074,1,0,0:0:0:0:
281,192,201191,1,0,0:0:0:0:
76,192,201191,1,0,0:0:0:0:
25,192,201308,1,0,0:0:0:0:
230,192,201308,1,0,0:0:0:0:
332,192,201308,1,0,0:0:0:0:
435,192,201308,1,0,0:0:0:0:
128,192,201308,1,0,0:0:0:0:
179,192,201425,1,0,0:0:0:0:
384,192,201543,1,0,0:0:0:0:
281,192,201543,1,0,0:0:0:0:
230,192,201660,1,0,0:0:0:0:
76,192,201660,1,0,0:0:0:0:
179,192,201777,1,0,0:0:0:0:
332,192,201777,1,0,0:0:0:0:
486,192,201777,1,0,0:0:0:0:
435,192,201777,1,0,0:0:0:0:
281,192,201894,1,0,0:0:0:0:
230,192,201894,1,0,0:0:0:0:
128,192,201894,1,0,0:0:0:0:
384,192,202011,1,0,0:0:0:0:
25,192,202011,1,0,0:0:0:0:
179,192,202129,1,0,0:0:0:0:
332,192,202246,1,0,0:0:0:0:
25,192,202246,1,0,0:0:0:0:
230,192,202246,1,0,0:0:0:0:
486,192,202246,1,0,0:0:0:0:
435,192,202246,1,0,0:0:0:0:
128,192,202363,1,0,0:0:0:0:
179,192,202480,1,0,0:0:0:0:
384,192,202480,1,0,0:0:0:0:
281,192,202480,1,0,0:0:0:0:
76,192,202597,1,0,0:0:0:0:
230,192,202597,1,0,0:0:0:0:
332,192,202715,1,0,0:0:0:0:
486,192,202715,1,0,0:0:0:0:
179,192,202715,1,0,0:0:0:0:
281,192,202715,1,0,0:0:0:0:
25,192,202715,1,0,0:0:0:0:
384,192,202949,1,0,0:0:0:0:
230,192,202949,1,0,0:0:0:0:
128,192,202949,1,0,0:0:0:0:
179,192,203066,1,0,0:0:0:0:
281,192,203066,1,0,0:0:0:0:
435,192,203066,1,0,0:0:0:0:
76,192,203066,1,0,0:0:0:0:
25,192,203183,1,0,0:0:0:0:
384,192,203300,1,0,0:0:0:0:
332,192,203418,1,0,0:0:0:0:
281,192,203418,1,0,0:0:0:0:
128,192,203418,1,0,0:0:0:0:
230,192,203535,1,0,0:0:0:0:
179,192,203535,1,0,0:0:0:0:
25,192,203535,1,0,0:0:0:0:
435,192,203535,1,0,0:0:0:0:
486,192,203535,1,0,0:0:0:0:
332,192,203652,1,0,0:0:0:0:
76,192,203769,1,0,0:0:0:0:
230,192,203886,1,0,0:0:0:0:
384,192,203886,1,0,0:0:0:0:
128,192,204004,1,0,0:0:0:0:
281,192,204121,1,0,0:0:0:0:
179,192,204121,1,0,0:0:0:0:
435,192,204121,1,0,0:0:0:0:
332,192,204238,1,0,0:0:0:0:
128,192,204238,1,0,0:0:0:0:
25,192,204238,1,0,0:0:0:0:
230,192,204355,1,0,0:0:0:0:
76,192,204355,1,0,0:0:0:0:
384,192,204355,1,0,0:0:0:0:
179,192,204472,1,0,0:0:0:0:
128,192,204590,1,0,0:0:0:0:
76,192,204590,1,0,0:0:0:0:
230,192,204590,1,0,0:0:0:0:
281,192,204590,1,0,0:0:0:0:
384,192,204590,1,0,0:0:0:0:
435,192,204590,1,0,0:0:0:0:
25,192,204824,1,0,0:0:0:0:
230,192,204824,1,0,0:0:0:0:
435,192,204824,1,0,0:0:0:0:
332,192,204824,1,0,0:0:0:0:
486,192,204941,1,0,0:0:0:0:
384,192,204941,1,0,0:0:0:0:
128,192,204941,1,0,0:0:0:0:
281,192,205058,1,0,0:0:0:0:
179,192,205058,1,0,0:0:0:0:
76,192,205058,1,0,0:0:0:0:
435,192,205175,1,0,0:0:0:0:
128,192,205293,1,0,0:0:0:0:
25,192,205293,1,0,0:0:0:0:
384,192,205293,1,0,0:0:0:0:
230,192,205410,1,0,0:0:0:0:
76,192,205410,1,0,0:0:0:0:
281,192,205410,1,0,0:0:0:0:
486,192,205410,1,0,0:0:0:0:
179,192,205527,1,0,0:0:0:0:
128,192,205527,1,0,0:0:0:0:
332,192,205527,1,0,0:0:0:0:
76,192,205644,1,0,0:0:0:0:
230,192,205644,1,0,0:0:0:0:
435,192,205644,1,0,0:0:0:0:
281,192,205644,1,0,0:0:0:0:
332,192,205761,1,0,0:0:0:0:
179,192,205761,1,0,0:0:0:0:
384,192,205996,1,0,0:0:0:0:
281,192,205996,1,0,0:0:0:0:
230,192,205996,1,0,0:0:0:0:
128,192,205996,1,0,0:0:0:0:
76,192,206113,1,0,0:0:0:0:
332,192,206230,1,0,0:0:0:0:
486,192,206230,1,0,0:0:0:0:
179,192,206230,1,0,0:0:0:0:
25,192,206230,1,0,0:0:0:0:
230,192,206347,1,0,0:0:0:0:
384,192,206347,1,0,0:0:0:0:
179,192,206465,1,0,0:0:0:0:
435,192,206465,1,0,0:0:0:0:
25,192,206465,1,0,0:0:0:0:
281,192,206465,1,0,0:0:0:0:
486,192,206465,1,0,0:0:0:0:
128,192,206582,1,0,0:0:0:0:
179,192,206699,1,0,0:0:0:0:
76,192,206816,1,0,0:0:0:0:
230,192,206816,1,0,0:0:0:0:
384,192,206816,1,0,0:0:0:0:
179,192,206933,1,0,0:0:0:0:
332,192,206933,1,0,0:0:0:0:
435,192,206933,1,0,0:0:0:0:
486,192,206933,1,0,0:0:0:0:
281,192,207050,1,0,0:0:0:0:
128,192,207050,1,0,0:0:0:0:
25,192,207050,1,0,0:0:0:0:
435,192,207168,1,0,0:0:0:0:
332,192,207168,1,0,0:0:0:0:
179,192,207168,1,0,0:0:0:0:
384,192,207285,1,0,0:0:0:0:
230,192,207285,1,0,0:0:0:0:
281,192,207285,1,0,0:0:0:0:
76,192,207285,1,0,0:0:0:0:
128,192,207402,1,0,0:0:0:0:
332,192,207519,1,0,0:0:0:0:
486,192,207519,1,0,0:0:0:0:
179,192,207636,1,0,0:0:0:0:
25,192,207636,1,0,0:0:0:0:
384,192,207754,1,0,0:0:0:0:
281,192,207754,1,0,0:0:0:0:
332,192,207871,1,0,0:0:0:0:
230,192,207871,1,0,0:0:0:0:
128,192,207871,1,0,0:0:0:0:
76,192,207871,1,0,0:0:0:0:
179,192,207988,1,0,0:0:0:0:
281,192,207988,1,0,0:0:0:0:
435,192,207988,1,0,0:0:0:0:
486,192,208105,1,0,0:0:0:0:
384,192,208105,1,0,0:0:0:0:
230,192,208105,1,0,0:0:0:0:
486,192,208340,1,0,0:0:0:0:
281,192,208340,1,0,0:0:0:0:
384,192,208340,1,0,0:0:0:0:
179,192,208340,1,0,0:0:0:0:
25,192,208340,1,0,0:0:0:0:
435,192,208574,1,0,0:0:0:0:
281,192,208574,1,0,0:0:0:0:
179,192,208574,1,0,0:0:0:0:
76,192,208574,1,0,0:0:0:0:
230,192,208691,1,0,0:0:0:0:
128,192,208808,1,0,0:0:0:0:
384,192,208808,1,0,0:0:0:0:
332,192,208808,1,0,0:0:0:0:
486,192,208808,1,0,0:0:0:0:
435,192,209043,1,0,0:0:0:0:
281,192,209043,1,0,0:0:0:0:
179,192,209043,1,0,0:0:0:0:
76,192,209043,1,0,0:0:0:0:
384,192,209160,1,0,0:0:0:0:
332,192,209160,1,0,0:0:0:0:
281,192,209160,1,0,0:0:0:0:
128,192,209160,1,0,0:0:0:0:
230,192,209160,1,0,0:0:0:0:
25,192,209277,1,0,0:0:0:0:
332,192,209394,1,0,0:0:0:0:
281,192,209394,1,0,0:0:0:0:
384,192,209394,1,0,0:0:0:0:
179,192,209394,1,0,0:0:0:0:
76,192,209511,1,0,0:0:0:0:
230,192,209511,1,0,0:0:0:0:
128,192,209629,1,0,0:0:0:0:
486,192,209746,1,0,0:0:0:0:
435,192,209746,1,0,0:0:0:0:
332,192,209746,1,0,0:0:0:0:
179,192,209746,1,0,0:0:0:0:
384,192,209863,1,0,0:0:0:0:
332,192,209980,1,0,0:0:0:0:
281,192,209980,1,0,0:0:0:0:
230,192,209980,1,0,0:0:0:0:
25,192,209980,1,0,0:0:0:0:
435,192,210097,1,0,0:0:0:0:
332,192,210215,1,0,0:0:0:0:
281,192,210215,1,0,0:0:0:0:
486,192,210215,1,0,0:0:0:0:
76,192,210215,1,0,0:0:0:0:
179,192,210215,1,0,0:0:0:0:
230,192,210332,1,0,0:0:0:0:
25,192,210449,1,0,0:0:0:0:
179,192,210449,1,0,0:0:0:0:
384,192,210449,1,0,0:0:0:0:
332,192,210449,1,0,0:0:0:0:
128,192,210566,1,0,0:0:0:0:
230,192,210683,1,0,0:0:0:0:
435,192,210683,1,0,0:0:0:0:
281,192,210683,1,0,0:0:0:0:
76,192,210683,1,0,0:0:0:0:
332,192,210918,1,0,0:0:0:0:
435,192,210918,1,0,0:0:0:0:
25,192,210918,1,0,0:0:0:0:
128,192,210918,1,0,0:0:0:0:
230,192,210918,1,0,0:0:0:0:
281,192,211035,1,0,0:0:0:0:
486,192,211152,1,0,0:0:0:0:
384,192,211152,1,0,0:0:0:0:
179,192,211152,1,0,0:0:0:0:
25,192,211152,1,0,0:0:0:0:
128,192,211269,1,0,0:0:0:0:
281,192,211386,1,0,0:0:0:0:
76,192,211504,1,0,0:0:0:0:
435,192,211621,1,0,0:0:0:0:
332,192,211621,1,0,0:0:0:0:
281,192,211621,1,0,0:0:0:0:
179,192,211621,1,0,0:0:0:0:
128,192,211621,1,0,0:0:0:0:
230,192,211738,1,0,0:0:0:0:
25,192,211738,1,0,0:0:0:0:
384,192,211855,1,0,0:0:0:0:
486,192,211855,1,0,0:0:0:0:
128,192,211855,1,0,0:0:0:0:
179,192,211972,1,0,0:0:0:0:
128,192,212090,1,0,0:0:0:0:
25,192,212090,1,0,0:0:0:0:
281,192,212090,1,0,0:0:0:0:
435,192,212090,1,0,0:0:0:0:
332,192,212207,1,0,0:0:0:0:
230,192,212207,1,0,0:0:0:0:
76,192,212324,1,0,0:0:0:0:
179,192,212324,1,0,0:0:0:0:
384,192,212324,1,0,0:0:0:0:
230,192,212441,1,0,0:0:0:0:
486,192,212441,1,0,0:0:0:0:
179,192,212558,1,0,0:0:0:0:
25,192,212558,1,0,0:0:0:0:
435,192,212558,1,0,0:0:0:0:
230,192,212675,1,0,0:0:0:0:
128,192,212675,1,0,0:0:0:0:
332,192,212675,1,0,0:0:0:0:
76,192,212793,1,0,0:0:0:0:
384,192,212793,1,0,0:0:0:0:
179,192,212910,1,0,0:0:0:0:
281,192,212910,1,0,0:0:0:0:
435,192,212910,1,0,0:0:0:0:
76,192,213027,1,0,0:0:0:0:
486,192,213027,1,0,0:0:0:0:
25,192,213144,1,0,0:0:0:0:
128,192,213144,1,0,0:0:0:0:
384,192,213144,1,0,0:0:0:0:
281,192,213144,1,0,0:0:0:0:
179,192,213261,1,0,0:0:0:0:
76,192,213379,1,0,0:0:0:0:
332,192,213496,1,0,0:0:0:0:
128,192,213496,1,0,0:0:0:0:
230,192,213496,1,0,0:0:0:0:
281,192,213613,1,0,0:0:0:0:
179,192,213613,1,0,0:0:0:0:
384,192,213613,1,0,0:0:0:0:
230,192,213730,1,0,0:0:0:0:
332,192,213730,1,0,0:0:0:0:
486,192,213730,1,0,0:0:0:0:
25,192,213730,1,0,0:0:0:0:
179,192,213847,1,0,0:0:0:0:
281,192,213965,5,0,0:0:0:0:
332,192,213965,1,0,0:0:0:0:
128,192,213965,1,0,0:0:0:0:
486,192,213965,1,0,0:0:0:0:
435,192,213965,1,0,0:0:0:0:
25,192,213965,1,0,0:0:0:0:
76,192,214082,1,0,0:0:0:0:
230,192,214082,1,0,0:0:0:0:
384,192,214199,1,0,0:0:0:0:
128,192,214199,1,0,0:0:0:0:
76,192,214316,1,0,0:0:0:0:
179,192,214316,1,0,0:0:0:0:
435,192,214433,1,0,0:0:0:0:
332,192,214433,1,0,0:0:0:0:
25,192,214433,1,0,0:0:0:0:
230,192,214433,1,0,0:0:0:0:
128,192,214550,1,0,0:0:0:0:
384,192,214550,1,0,0:0:0:0:
281,192,214668,1,0,0:0:0:0:
486,192,214668,1,0,0:0:0:0:
25,192,214668,1,0,0:0:0:0:
76,192,214668,1,0,0:0:0:0:
332,192,214785,1,0,0:0:0:0:
384,192,214785,1,0,0:0:0:0:
179,192,214785,1,0,0:0:0:0:
230,192,214785,1,0,0:0:0:0:
128,192,214902,1,0,0:0:0:0:
435,192,215019,1,0,0:0:0:0:
179,192,215136,1,0,0:0:0:0:
384,192,215254,1,0,0:0:0:0:
486,192,215371,1,0,0:0:0:0:
435,192,215371,1,0,0:0:0:0:
76,192,215371,1,0,0:0:0:0:
230,192,215371,1,0,0:0:0:0:
281,192,215371,1,0,0:0:0:0:
25,192,215488,1,0,0:0:0:0:
332,192,215488,1,0,0:0:0:0:
384,192,215605,1,0,0:0:0:0:
128,192,215605,1,0,0:0:0:0:
435,192,215722,1,0,0:0:0:0:
179,192,215722,1,0,0:0:0:0:
281,192,215840,1,0,0:0:0:0:
332,192,215840,1,0,0:0:0:0:
230,192,215840,1,0,0:0:0:0:
76,192,215840,1,0,0:0:0:0:
25,192,215840,1,0,0:0:0:0:
384,192,215957,1,0,0:0:0:0:
332,192,216074,1,0,0:0:0:0:
128,192,216074,1,0,0:0:0:0:
435,192,216191,1,0,0:0:0:0:
230,192,216191,1,0,0:0:0:0:
76,192,216308,1,0,0:0:0:0:
384,192,216308,1,0,0:0:0:0:
179,192,216308,1,0,0:0:0:0:
486,192,216308,1,0,0:0:0:0:
281,192,216308,1,0,0:0:0:0:
332,192,216425,1,0,0:0:0:0:
230,192,216543,1,0,0:0:0:0:
128,192,216543,1,0,0:0:0:0:
435,192,216660,1,0,0:0:0:0:
281,192,216660,1,0,0:0:0:0:
25,192,216777,1,0,0:0:0:0:
332,192,216777,1,0,0:0:0:0:
179,192,216777,1,0,0:0:0:0:
76,192,216836,1,0,0:0:0:0:
384,192,216894,1,0,0:0:0:0:
281,192,216894,1,0,0:0:0:0:
230,192,216894,1,0,0:0:0:0:
179,192,216953,1,0,0:0:0:0:
486,192,217011,1,0,0:0:0:0:
128,192,217011,1,0,0:0:0:0:
230,192,217129,1,0,0:0:0:0:
384,192,217129,1,0,0:0:0:0:
281,192,217187,1,0,0:0:0:0:
25,192,217246,1,0,0:0:0:0:
76,192,217246,1,0,0:0:0:0:
179,192,217246,1,0,0:0:0:0:
332,192,217246,1,0,0:0:0:0:
435,192,217246,1,0,0:0:0:0:
384,192,217363,1,0,0:0:0:0:
230,192,217480,1,0,0:0:0:0:
128,192,217480,1,0,0:0:0:0:
332,192,217480,1,0,0:0:0:0:
281,192,217597,1,0,0:0:0:0:
435,192,217597,1,0,0:0:0:0:
230,192,217715,1,0,0:0:0:0:
486,192,217715,1,0,0:0:0:0:
332,192,217715,1,0,0:0:0:0:
179,192,217715,1,0,0:0:0:0:
25,192,217715,1,0,0:0:0:0:
384,192,217949,1,0,0:0:0:0:
281,192,217949,1,0,0:0:0:0:
128,192,217949,1,0,0:0:0:0:
76,192,218066,1,0,0:0:0:0:
435,192,218066,1,0,0:0:0:0:
332,192,218066,1,0,0:0:0:0:
230,192,218066,1,0,0:0:0:0:
486,192,218183,1,0,0:0:0:0:
128,192,218300,1,0,0:0:0:0:
384,192,218418,1,0,0:0:0:0:
230,192,218418,1,0,0:0:0:0:
179,192,218418,1,0,0:0:0:0:
76,192,218535,1,0,0:0:0:0:
25,192,218535,1,0,0:0:0:0:
486,192,218535,1,0,0:0:0:0:
281,192,218535,1,0,0:0:0:0:
332,192,218535,1,0,0:0:0:0:
179,192,218652,1,0,0:0:0:0:
435,192,218769,1,0,0:0:0:0:
128,192,218886,1,0,0:0:0:0:
281,192,218886,1,0,0:0:0:0:
384,192,219004,1,0,0:0:0:0:
76,192,219121,1,0,0:0:0:0:
332,192,219121,1,0,0:0:0:0:
230,192,219121,1,0,0:0:0:0:
486,192,219238,1,0,0:0:0:0:
384,192,219238,1,0,0:0:0:0:
179,192,219238,1,0,0:0:0:0:
128,192,219355,1,0,0:0:0:0:
435,192,219355,1,0,0:0:0:0:
281,192,219355,1,0,0:0:0:0:
332,192,219472,1,0,0:0:0:0:
230,192,219590,1,0,0:0:0:0:
128,192,219590,1,0,0:0:0:0:
76,192,219590,1,0,0:0:0:0:
384,192,219590,1,0,0:0:0:0:
435,192,219590,1,0,0:0:0:0:
281,192,219590,1,0,0:0:0:0:
76,192,219824,1,0,0:0:0:0:
179,192,219824,1,0,0:0:0:0:
486,192,219824,1,0,0:0:0:0:
281,192,219824,1,0,0:0:0:0:
384,192,219941,1,0,0:0:0:0:
128,192,219941,1,0,0:0:0:0:
25,192,219941,1,0,0:0:0:0:
435,192,220058,1,0,0:0:0:0:
332,192,220058,1,0,0:0:0:0:
230,192,220058,1,0,0:0:0:0:
76,192,220175,1,0,0:0:0:0:
128,192,220293,1,0,0:0:0:0:
486,192,220293,1,0,0:0:0:0:
384,192,220293,1,0,0:0:0:0:
230,192,220410,1,0,0:0:0:0:
25,192,220410,1,0,0:0:0:0:
281,192,220410,1,0,0:0:0:0:
435,192,220410,1,0,0:0:0:0:
179,192,220527,1,0,0:0:0:0:
384,192,220527,1,0,0:0:0:0:
332,192,220527,1,0,0:0:0:0:
76,192,220644,1,0,0:0:0:0:
230,192,220644,1,0,0:0:0:0:
435,192,220644,1,0,0:0:0:0:
281,192,220644,1,0,0:0:0:0:
332,192,220761,1,0,0:0:0:0:
179,192,220761,1,0,0:0:0:0:
281,192,220996,1,0,0:0:0:0:
384,192,220996,1,0,0:0:0:0:
128,192,220996,1,0,0:0:0:0:
230,192,220996,1,0,0:0:0:0:
435,192,221113,1,0,0:0:0:0:
332,192,221230,1,0,0:0:0:0:
486,192,221230,1,0,0:0:0:0:
179,192,221230,1,0,0:0:0:0:
25,192,221230,1,0,0:0:0:0:
128,192,221347,1,0,0:0:0:0:
281,192,221347,1,0,0:0:0:0:
230,192,221465,1,0,0:0:0:0:
25,192,221465,1,0,0:0:0:0:
486,192,221465,1,0,0:0:0:0:
332,192,221465,1,0,0:0:0:0:
435,192,221465,1,0,0:0:0:0:
384,192,221582,1,0,0:0:0:0:
332,192,221699,1,0,0:0:0:0:
128,192,221816,1,0,0:0:0:0:
281,192,221816,1,0,0:0:0:0:
435,192,221816,1,0,0:0:0:0:
76,192,221933,1,0,0:0:0:0:
25,192,221933,1,0,0:0:0:0:
332,192,221933,1,0,0:0:0:0:
179,192,221933,1,0,0:0:0:0:
486,192,222050,1,0,0:0:0:0:
384,192,222050,1,0,0:0:0:0:
230,192,222050,1,0,0:0:0:0:
332,192,222168,1,0,0:0:0:0:
179,192,222168,1,0,0:0:0:0:
76,192,222168,1,0,0:0:0:0:
230,192,222285,1,0,0:0:0:0:
435,192,222285,1,0,0:0:0:0:
128,192,222285,1,0,0:0:0:0:
281,192,222285,1,0,0:0:0:0:
384,192,222402,1,0,0:0:0:0:
25,192,222519,1,0,0:0:0:0:
179,192,222519,1,0,0:0:0:0:
486,192,222636,1,0,0:0:0:0:
332,192,222636,1,0,0:0:0:0:
230,192,222754,1,0,0:0:0:0:
128,192,222754,1,0,0:0:0:0:
384,192,222871,1,0,0:0:0:0:
435,192,222871,1,0,0:0:0:0:
179,192,222871,1,0,0:0:0:0:
281,192,222871,1,0,0:0:0:0:
76,192,222988,1,0,0:0:0:0:
230,192,222988,1,0,0:0:0:0:
332,192,222988,1,0,0:0:0:0:
281,192,223105,1,0,0:0:0:0:
128,192,223105,1,0,0:0:0:0:
25,192,223105,1,0,0:0:0:0:
179,192,223340,1,0,0:0:0:0:
25,192,223340,1,0,0:0:0:0:
384,192,223340,1,0,0:0:0:0:
486,192,223340,1,0,0:0:0:0:
281,192,223340,1,0,0:0:0:0:
332,192,223574,1,0,0:0:0:0:
435,192,223574,1,0,0:0:0:0:
76,192,223574,1,0,0:0:0:0:
230,192,223574,1,0,0:0:0:0:
281,192,223691,1,0,0:0:0:0:
179,192,223808,1,0,0:0:0:0:
25,192,223808,1,0,0:0:0:0:
384,192,223808,1,0,0:0:0:0:
128,192,223808,1,0,0:0:0:0:
332,192,224043,1,0,0:0:0:0:
435,192,224043,1,0,0:0:0:0:
76,192,224043,1,0,0:0:0:0:
230,192,224043,1,0,0:0:0:0:
384,192,224160,1,0,0:0:0:0:
281,192,224160,1,0,0:0:0:0:
230,192,224160,1,0,0:0:0:0:
128,192,224160,1,0,0:0:0:0:
179,192,224160,1,0,0:0:0:0:
486,192,224277,1,0,0:0:0:0:
128,192,224394,1,0,0:0:0:0:
332,192,224394,1,0,0:0:0:0:
179,192,224394,1,0,0:0:0:0:
230,192,224394,1,0,0:0:0:0:
281,192,224511,1,0,0:0:0:0:
435,192,224511,1,0,0:0:0:0:
384,192,224629,1,0,0:0:0:0:
179,192,224746,1,0,0:0:0:0:
332,192,224746,1,0,0:0:0:0:
25,192,224746,1,0,0:0:0:0:
76,192,224746,1,0,0:0:0:0:
128,192,224863,1,0,0:0:0:0:
281,192,224980,1,0,0:0:0:0:
486,192,224980,1,0,0:0:0:0:
179,192,224980,1,0,0:0:0:0:
230,192,224980,1,0,0:0:0:0:
76,192,225097,1,0,0:0:0:0:
435,192,225215,1,0,0:0:0:0:
332,192,225215,1,0,0:0:0:0:
25,192,225215,1,0,0:0:0:0:
179,192,225215,1,0,0:0:0:0:
230,192,225215,1,0,0:0:0:0:
281,192,225332,1,0,0:0:0:0:
128,192,225449,1,0,0:0:0:0:
179,192,225449,1,0,0:0:0:0:
486,192,225449,1,0,0:0:0:0:
332,192,225449,1,0,0:0:0:0:
384,192,225566,1,0,0:0:0:0:
230,192,225683,1,0,0:0:0:0:
435,192,225683,1,0,0:0:0:0:
281,192,225683,1,0,0:0:0:0:
76,192,225683,1,0,0:0:0:0:
384,192,225918,1,0,0:0:0:0:
281,192,225918,1,0,0:0:0:0:
486,192,225918,1,0,0:0:0:0:
179,192,225918,1,0,0:0:0:0:
76,192,225918,1,0,0:0:0:0:
230,192,226035,1,0,0:0:0:0:
332,192,226152,1,0,0:0:0:0:
486,192,226152,1,0,0:0:0:0:
25,192,226152,1,0,0:0:0:0:
128,192,226152,1,0,0:0:0:0:
384,192,226269,1,0,0:0:0:0:
230,192,226386,1,0,0:0:0:0:
435,192,226504,1,0,0:0:0:0:
332,192,226621,1,0,0:0:0:0:
384,192,226621,1,0,0:0:0:0:
230,192,226621,1,0,0:0:0:0:
76,192,226621,1,0,0:0:0:0:
179,192,226621,1,0,0:0:0:0:
486,192,226738,1,0,0:0:0:0:
281,192,226738,1,0,0:0:0:0:
384,192,226855,1,0,0:0:0:0:
25,192,226855,1,0,0:0:0:0:
128,192,226855,1,0,0:0:0:0:
332,192,226972,1,0,0:0:0:0:
230,192,227090,1,0,0:0:0:0:
76,192,227090,1,0,0:0:0:0:
384,192,227090,1,0,0:0:0:0:
486,192,227090,1,0,0:0:0:0:
128,192,227324,1,0,0:0:0:0:
486,192,227441,1,0,0:0:0:0:
384,192,227441,1,0,0:0:0:0:
25,192,227441,1,0,0:0:0:0:
281,192,227441,1,0,0:0:0:0:
179,192,227441,1,0,0:0:0:0:
435,192,227793,5,0,0:0:0:0:
25,192,227793,1,0,0:0:0:0:
332,192,227793,1,0,0:0:0:0:
230,192,227793,1,0,0:0:0:0:
128,192,227793,1,0,0:0:0:0:
486,192,228027,5,0,0:0:0:0:
332,192,228027,1,0,0:0:0:0:
230,192,228027,1,0,0:0:0:0:
76,192,228027,1,0,0:0:0:0:
281,192,228027,1,0,0:0:0:0:
128,192,228144,1,0,0:0:0:0:
179,192,228144,1,0,0:0:0:0:
332,192,228261,1,0,0:0:0:0:
435,192,228261,1,0,0:0:0:0:
25,192,228261,1,0,0:0:0:0:
230,192,228261,1,0,0:0:0:0:
76,192,228261,1,0,0:0:0:0:
179,192,228379,1,0,0:0:0:0:
281,192,228496,1,0,0:0:0:0:
384,192,228496,1,0,0:0:0:0:
486,192,228496,1,0,0:0:0:0:
128,192,228613,1,0,0:0:0:0:
230,192,228613,1,0,0:0:0:0:
25,192,228730,1,0,0:0:0:0:
281,192,228730,1,0,0:0:0:0:
179,192,228730,1,0,0:0:0:0:
435,192,228730,1,0,0:0:0:0:
128,192,228965,1,0,0:0:0:0:
76,192,228965,1,0,0:0:0:0:
230,192,228965,1,0,0:0:0:0:
332,192,228965,1,0,0:0:0:0:
384,192,228965,1,0,0:0:0:0:
435,192,229433,1,0,0:0:0:0:
486,192,229433,1,0,0:0:0:0:
281,192,229433,1,0,0:0:0:0:
230,192,229668,1,0,0:0:0:0:
179,192,229668,1,0,0:0:0:0:
76,192,229785,1,0,0:0:0:0:
25,192,229785,1,0,0:0:0:0:
281,192,229785,1,0,0:0:0:0:
332,192,229785,1,0,0:0:0:0:
435,192,229785,1,0,0:0:0:0:
179,192,229902,1,0,0:0:0:0:
384,192,230019,1,0,0:0:0:0:
179,192,230136,1,0,0:0:0:0:
384,192,230254,1,0,0:0:0:0:
486,192,230371,1,0,0:0:0:0:
281,192,230371,1,0,0:0:0:0:
76,192,230371,1,0,0:0:0:0:
128,192,230371,1,0,0:0:0:0:
230,192,230371,1,0,0:0:0:0:
179,192,230605,1,0,0:0:0:0:
25,192,230605,1,0,0:0:0:0:
384,192,230605,1,0,0:0:0:0:
435,192,230605,1,0,0:0:0:0:
25,192,230840,1,0,0:0:0:0:
230,192,230840,1,0,0:0:0:0:
76,192,230840,1,0,0:0:0:0:
384,192,230840,1,0,0:0:0:0:
332,192,230840,1,0,0:0:0:0:
179,192,230957,1,0,0:0:0:0:
281,192,231074,1,0,0:0:0:0:
486,192,231308,1,0,0:0:0:0:
435,192,231308,1,0,0:0:0:0:
281,192,231308,1,0,0:0:0:0:
179,192,231308,1,0,0:0:0:0:
76,192,231308,1,0,0:0:0:0:
230,192,231543,1,0,0:0:0:0:
128,192,231543,1,0,0:0:0:0:
332,192,231543,1,0,0:0:0:0:
25,192,231660,1,0,0:0:0:0:
128,192,231660,1,0,0:0:0:0:
281,192,231660,1,0,0:0:0:0:
384,192,231660,1,0,0:0:0:0:
76,192,231894,1,0,0:0:0:0:
25,192,231894,1,0,0:0:0:0:
128,192,231894,1,0,0:0:0:0:
332,192,231894,1,0,0:0:0:0:
281,192,231894,1,0,0:0:0:0:
486,192,231894,1,0,0:0:0:0:
384,192,232011,1,0,0:0:0:0:
76,192,232129,1,0,0:0:0:0:
230,192,232246,1,0,0:0:0:0:
179,192,232246,1,0,0:0:0:0:
128,192,232246,1,0,0:0:0:0:
486,192,232246,1,0,0:0:0:0:
384,192,232246,1,0,0:0:0:0:
332,192,232597,1,0,0:0:0:0:
281,192,232597,1,0,0:0:0:0:
435,192,232597,1,0,0:0:0:0:
128,192,232715,1,0,0:0:0:0:
25,192,232715,1,0,0:0:0:0:
179,192,232715,1,0,0:0:0:0:
384,192,232832,1,0,0:0:0:0:
76,192,232949,1,0,0:0:0:0:
281,192,233183,1,0,0:0:0:0:
230,192,233183,1,0,0:0:0:0:
332,192,233183,1,0,0:0:0:0:
486,192,233183,1,0,0:0:0:0:
128,192,233183,1,0,0:0:0:0:
179,192,233418,1,0,0:0:0:0:
230,192,233535,1,0,0:0:0:0:
25,192,233535,1,0,0:0:0:0:
76,192,233535,1,0,0:0:0:0:
384,192,233535,1,0,0:0:0:0:
486,192,233535,1,0,0:0:0:0:
281,192,233535,1,0,0:0:0:0:
332,192,233652,1,0,0:0:0:0:
128,192,233769,1,0,0:0:0:0:
332,192,233886,1,0,0:0:0:0:
179,192,234004,1,0,0:0:0:0:
435,192,234121,1,0,0:0:0:0:
486,192,234121,1,0,0:0:0:0:
281,192,234121,1,0,0:0:0:0:
179,192,234238,1,0,0:0:0:0:
435,192,234355,1,0,0:0:0:0:
332,192,234355,1,0,0:0:0:0:
281,192,234355,1,0,0:0:0:0:
25,192,234472,1,0,0:0:0:0:
281,192,234590,1,0,0:0:0:0:
179,192,234590,1,0,0:0:0:0:
230,192,234590,1,0,0:0:0:0:
25,192,234707,1,0,0:0:0:0:
332,192,234824,1,0,0:0:0:0:
76,192,234941,1,0,0:0:0:0:
435,192,235058,1,0,0:0:0:0:
281,192,235058,1,0,0:0:0:0:
179,192,235058,1,0,0:0:0:0:
76,192,235175,1,0,0:0:0:0:
332,192,235293,1,0,0:0:0:0:
230,192,235293,1,0,0:0:0:0:
281,192,235410,1,0,0:0:0:0:
384,192,235410,1,0,0:0:0:0:
25,192,235410,1,0,0:0:0:0:
76,192,235410,1,0,0:0:0:0:
486,192,235410,1,0,0:0:0:0:
179,192,235527,1,0,0:0:0:0:
128,192,235644,1,0,0:0:0:0:
332,192,235644,1,0,0:0:0:0:
281,192,235644,1,0,0:0:0:0:
230,192,235996,1,0,0:0:0:0:
25,192,235996,1,0,0:0:0:0:
281,192,235996,1,0,0:0:0:0:
486,192,235996,1,0,0:0:0:0:
179,192,235996,1,0,0:0:0:0:
435,192,235996,1,0,0:0:0:0:
384,192,236230,1,0,0:0:0:0:
435,192,236230,1,0,0:0:0:0:
128,192,236230,1,0,0:0:0:0:
76,192,236230,1,0,0:0:0:0:
384,192,236347,1,0,0:0:0:0:
332,192,236347,1,0,0:0:0:0:
230,192,236347,1,0,0:0:0:0:
179,192,236347,1,0,0:0:0:0:
