osu file format v14

[General]
AudioFilename: shining glow.mp3
AudioLeadIn: 0
PreviewTime: 60001
Countdown: 0
SampleSet: Normal
StackLeniency: 0.7
Mode: 1
LetterboxInBreaks: 0
WidescreenStoryboard: 1

[Editor]
DistanceSpacing: 0.9
BeatDivisor: 2
GridSize: 32
TimelineZoom: 1.8

[Metadata]
Title:Shining glow (Cut Ver.)
TitleUnicode:Shining glow (Cut Ver.)
Artist:Sekiya Naru (CV: Ueda Reina)
ArtistUnicode:関谷なる (CV: 上田麗奈)
Creator:realy0_
Version:_Vex's Futsuu
Source:ハナヤマタ よさこいLIVE!
Tags:version short hanayamata yosakoi song series live madhouse flowers insert 挿入歌 characters anime video game japanese pop j-pop jpop roger ][ -GH- ][ ][_-GH-_][ faputa _vex
BeatmapID:2584969
BeatmapSetID:1235951

[Difficulty]
HPDrainRate:6.5
CircleSize:2
OverallDifficulty:4
ApproachRate:10
SliderMultiplier:1.4
SliderTickRate:1

[Events]
//Background and Video events
0,0,"naru cute.jpg",0,0
//Break Periods
//Storyboard Layer 0 (Background)
//Storyboard Layer 1 (Fail)
//Storyboard Layer 2 (Pass)
//Storyboard Layer 3 (Foreground)
//Storyboard Layer 4 (Overlay)
//Storyboard Sound Samples

[TimingPoints]
-83,340.909090909091,4,1,0,65,1,8
-83,-108.108108108108,4,1,0,65,0,8
1280,340.909090909091,4,1,0,65,1,0
1280,-108.108108108108,4,1,0,65,0,8
27189,-108.108108108108,4,1,0,75,0,0
38098,-108.108108108108,4,1,0,65,0,0
59916,-108.108108108108,4,1,0,90,0,0
61280,-108.108108108108,4,1,0,90,0,1
85825,-108.108108108108,4,1,0,65,0,0
87870,-108.108108108108,4,1,0,75,0,0
88552,-108.108108108108,4,1,0,90,0,1
110370,-108.108108108108,4,1,0,75,0,0
115825,-108.108108108108,4,1,0,85,0,0
137643,-108.108108108108,4,1,0,75,0,0
140370,-108.108108108108,4,1,0,65,0,0
151280,-108.108108108108,4,1,0,75,0,0
162189,-108.108108108108,4,1,0,90,0,1
186734,-108.108108108108,4,1,0,65,0,0
191507,-108.108108108108,4,1,0,75,0,0
192189,-108.108108108108,4,1,0,90,0,1
197643,-108.108108108108,4,1,0,90,0,0
200200,-108.108108108108,4,1,0,90,0,0
200370,-108.108108108108,4,1,0,40,0,0

[HitObjects]
256,128,598,5,0,0:0:0:0:
256,128,939,1,0,0:0:0:0:
256,128,1280,1,8,0:0:0:0:
256,128,2473,1,0,0:0:0:0:
256,128,2643,1,8,0:0:0:0:
256,128,2984,1,8,0:0:0:0:
256,128,3155,1,0,0:0:0:0:
256,128,3495,1,0,0:0:0:0:
256,128,3836,1,8,0:0:0:0:
256,128,5030,1,0,0:0:0:0:
256,128,5200,1,8,0:0:0:0:
256,128,5541,1,0,0:0:0:0:
256,128,5882,1,8,0:0:0:0:
256,128,6734,1,8,0:0:0:0:
256,128,8098,1,8,0:0:0:0:
256,128,9120,1,0,0:0:0:0:
256,128,9461,1,8,0:0:0:0:
256,128,9802,1,8,0:0:0:0:
256,128,10143,1,8,0:0:0:0:
256,128,10314,1,0,0:0:0:0:
256,128,10825,1,8,0:0:0:0:
256,128,11336,1,8,0:0:0:0:
256,128,11507,1,8,0:0:0:0:
256,128,12018,1,0,0:0:0:0:
256,128,12359,1,8,0:0:0:0:
256,128,12700,1,0,0:0:0:0:
256,128,12870,1,8,0:0:0:0:
256,128,13041,1,0,0:0:0:0:
256,128,13552,1,0,0:0:0:0:
256,128,14064,1,0,0:0:0:0:
256,128,14234,1,0,0:0:0:0:
256,128,14745,1,8,0:0:0:0:
256,128,15086,1,8,0:0:0:0:
256,128,15427,1,0,0:0:0:0:
256,128,15598,1,8,0:0:0:0:
256,128,16280,1,12,0:0:0:0:
256,128,16620,1,0,0:0:0:0:
256,128,16791,1,8,0:0:0:0:
256,128,16961,1,0,0:0:0:0:
256,128,17132,1,8,0:0:0:0:
256,128,17473,1,8,0:0:0:0:
256,128,17984,1,0,0:0:0:0:
256,128,18155,1,0,0:0:0:0:
256,128,18325,1,8,0:0:0:0:
256,128,18495,1,0,0:0:0:0:
256,128,18836,1,8,0:0:0:0:
256,128,19859,1,0,0:0:0:0:
256,128,20030,1,0,0:0:0:0:
256,128,20200,1,8,0:0:0:0:
256,128,20541,1,8,0:0:0:0:
256,128,20882,1,8,0:0:0:0:
256,128,21393,1,8,0:0:0:0:
256,128,21734,1,0,0:0:0:0:
256,128,22075,1,0,0:0:0:0:
256,128,22245,1,8,0:0:0:0:
256,128,22927,1,8,0:0:0:0:
256,128,23268,1,0,0:0:0:0:
256,128,23609,1,8,0:0:0:0:
256,128,23780,1,8,0:0:0:0:
256,128,24120,1,0,0:0:0:0:
256,128,24291,1,0,0:0:0:0:
256,128,24461,1,0,0:0:0:0:
256,128,24802,1,0,0:0:0:0:
256,128,24973,1,0,0:0:0:0:
256,128,25825,1,0,0:0:0:0:
256,128,25995,1,8,0:0:0:0:
256,128,26336,1,0,0:0:0:0:
256,128,26507,1,0,0:0:0:0:
256,128,26677,1,0,0:0:0:0:
256,128,26848,1,8,0:0:0:0:
256,128,27189,1,4,0:0:0:0:
256,128,27530,1,8,0:0:0:0:
256,128,27700,1,8,0:0:0:0:
256,128,27870,1,0,0:0:0:0:
256,128,28041,1,0,0:0:0:0:
256,128,28382,1,8,0:0:0:0:
256,128,28893,1,0,0:0:0:0:
256,128,29064,1,8,0:0:0:0:
256,128,29234,1,0,0:0:0:0:
256,128,29405,1,8,0:0:0:0:
256,128,29745,1,8,0:0:0:0:
256,128,30768,1,8,0:0:0:0:
256,128,30939,1,8,0:0:0:0:
256,128,31109,1,0,0:0:0:0:
256,128,31450,1,8,0:0:0:0:
256,128,31791,1,8,0:0:0:0:
256,128,32132,1,0,0:0:0:0:
256,128,32302,1,8,0:0:0:0:
256,128,32643,1,0,0:0:0:0:
256,128,33836,1,8,0:0:0:0:
256,128,34177,1,8,0:0:0:0:
256,128,34348,1,0,0:0:0:0:
256,128,34518,1,0,0:0:0:0:
256,128,34689,1,8,0:0:0:0:
256,128,35030,1,0,0:0:0:0:
256,128,35370,1,8,0:0:0:0:
256,128,36223,1,0,0:0:0:0:
256,128,36393,1,0,0:0:0:0:
256,128,36564,1,8,0:0:0:0:
256,128,36905,1,0,0:0:0:0:
256,128,37075,1,0,0:0:0:0:
256,128,37245,1,0,0:0:0:0:
256,128,37416,1,0,0:0:0:0:
256,128,37757,1,8,0:0:0:0:
256,128,38098,1,4,0:0:0:0:
256,128,38439,1,8,0:0:0:0:
256,128,38780,1,8,0:0:0:0:
256,128,39120,1,8,0:0:0:0:
256,128,39291,1,8,0:0:0:0:
256,128,39802,1,0,0:0:0:0:
256,128,40143,1,0,0:0:0:0:
256,128,40484,1,0,0:0:0:0:
256,128,40825,1,8,0:0:0:0:
256,128,41848,1,0,0:0:0:0:
256,128,42018,1,8,0:0:0:0:
256,128,43893,1,8,0:0:0:0:
256,128,44234,1,8,0:0:0:0:
256,128,44575,1,0,0:0:0:0:
256,128,44745,1,8,0:0:0:0:
256,128,45257,1,8,0:0:0:0:
256,128,45598,1,0,0:0:0:0:
256,128,45939,1,0,0:0:0:0:
256,128,46280,1,8,0:0:0:0:
256,128,46961,1,0,0:0:0:0:
256,128,47643,1,8,0:0:0:0:
256,128,48666,1,0,0:0:0:0:
256,128,48836,1,0,0:0:0:0:
256,128,49007,1,8,0:0:0:0:
256,128,50030,1,8,0:0:0:0:
256,128,50200,1,0,0:0:0:0:
256,128,50370,1,8,0:0:0:0:
256,128,51393,1,0,0:0:0:0:
256,128,51564,1,0,0:0:0:0:
256,128,51734,1,8,0:0:0:0:
256,128,52416,1,0,0:0:0:0:
256,128,53609,1,0,0:0:0:0:
256,128,53780,1,8,0:0:0:0:
256,128,54120,1,0,0:0:0:0:
256,128,54291,1,0,0:0:0:0:
256,128,54461,1,8,0:0:0:0:
256,128,55484,1,8,0:0:0:0:
256,128,55655,1,0,0:0:0:0:
256,128,57018,1,0,0:0:0:0:
256,128,57189,1,8,0:0:0:0:
256,128,58211,1,8,0:0:0:0:
256,128,58382,1,0,0:0:0:0:
256,192,58552,8,0,59916,0:0:0:0:
256,128,60598,5,8,0:0:0:0:
256,128,60939,1,0,0:0:0:0:
256,128,61280,1,12,0:0:0:0:
256,128,61961,1,8,0:0:0:0:
256,128,62302,1,8,0:0:0:0:
256,128,62473,1,0,0:0:0:0:
256,128,62643,1,0,0:0:0:0:
256,128,62984,1,8,0:0:0:0:
256,128,63155,1,8,0:0:0:0:
256,128,63495,1,0,0:0:0:0:
256,128,63836,1,8,0:0:0:0:
256,128,64007,1,0,0:0:0:0:
256,128,64348,1,8,0:0:0:0:
256,128,65030,1,8,0:0:0:0:
256,128,65200,1,8,0:0:0:0:
221,151,65370,1,0,0:0:0:0:
256,128,65711,1,8,0:0:0:0:
256,128,65882,1,0,0:0:0:0:
256,128,66223,1,8,0:0:0:0:
256,128,66564,1,0,0:0:0:0:
256,128,66734,1,8,0:0:0:0:
256,128,67075,1,8,0:0:0:0:
256,128,67757,1,8,0:0:0:0:
256,128,68098,1,0,0:0:0:0:
256,128,68439,1,0,0:0:0:0:
256,128,68780,1,8,0:0:0:0:
256,128,69120,1,0,0:0:0:0:
256,128,69461,1,8,0:0:0:0:
256,128,70143,1,0,0:0:0:0:
256,128,70484,1,0,0:0:0:0:
256,128,70655,1,8,0:0:0:0:
256,128,70995,1,0,0:0:0:0:
256,128,71166,1,0,0:0:0:0:
256,128,71336,1,8,0:0:0:0:
256,128,71848,1,8,0:0:0:0:
256,128,72018,1,0,0:0:0:0:
256,128,72189,1,12,0:0:0:0:
256,128,72870,1,0,0:0:0:0:
256,128,73041,1,0,0:0:0:0:
256,128,73211,1,8,0:0:0:0:
256,128,73382,1,0,0:0:0:0:
256,128,73552,1,8,0:0:0:0:
256,128,73893,1,8,0:0:0:0:
256,128,74064,1,0,0:0:0:0:
256,128,74405,1,8,0:0:0:0:
256,128,74745,1,0,0:0:0:0:
256,128,74916,1,0,0:0:0:0:
256,128,75257,1,8,0:0:0:0:
256,128,75939,1,8,0:0:0:0:
256,128,76109,1,8,0:0:0:0:
256,128,76450,1,0,0:0:0:0:
256,128,76791,1,8,0:0:0:0:
256,128,76961,1,8,0:0:0:0:
256,128,77302,1,0,0:0:0:0:
256,128,77473,1,8,0:0:0:0:
256,128,77643,1,0,0:0:0:0:
256,128,77984,1,8,0:0:0:0:
256,128,78325,1,0,0:0:0:0:
256,128,78666,1,8,0:0:0:0:
256,128,79007,1,8,0:0:0:0:
256,128,79689,1,0,0:0:0:0:
256,128,79859,1,0,0:0:0:0:
256,128,80030,1,8,0:0:0:0:
256,128,80200,1,0,0:0:0:0:
256,128,80370,1,8,0:0:0:0:
256,192,80541,12,8,82416,0:0:0:0:
256,128,82927,5,0,0:0:0:0:
256,128,83098,1,8,0:0:0:0:
256,128,83439,1,0,0:0:0:0:
256,128,83609,1,8,0:0:0:0:
256,128,83950,1,8,0:0:0:0:
256,128,84291,1,0,0:0:0:0:
160,128,84461,2,0,B|224:256|224:256|288:128|288:128|256:192|256:192|350:315,1,453.249998270989
256,128,85825,1,4,0:0:0:0:
256,128,87018,1,0,0:0:0:0:
256,128,87189,1,0,0:0:0:0:
256,128,87530,1,8,0:0:0:0:
256,128,87870,1,4,0:0:0:0:
256,128,88041,1,12,0:0:0:0:
256,128,88552,1,4,0:0:0:0:
256,128,88893,1,0,0:0:0:0:
256,128,89234,1,0,0:0:0:0:
256,128,89405,1,8,0:0:0:0:
256,128,89575,1,0,0:0:0:0:
256,128,89916,1,8,0:0:0:0:
256,128,90598,1,8,0:0:0:0:
256,128,90768,1,0,0:0:0:0:
256,128,90939,1,8,0:0:0:0:
256,128,91280,1,0,0:0:0:0:
256,128,91620,1,8,0:0:0:0:
256,128,91961,1,0,0:0:0:0:
256,128,92302,1,8,0:0:0:0:
256,128,92473,1,0,0:0:0:0:
256,128,92643,1,0,0:0:0:0:
256,128,92984,1,8,0:0:0:0:
256,128,93325,1,0,0:0:0:0:
256,128,93495,1,8,0:0:0:0:
256,128,94007,1,0,0:0:0:0:
256,128,94348,1,0,0:0:0:0:
256,128,94689,1,0,0:0:0:0:
256,128,94859,1,8,0:0:0:0:
256,128,95030,1,0,0:0:0:0:
256,128,95370,1,8,0:0:0:0:
256,128,96052,1,8,0:0:0:0:
256,128,96223,1,8,0:0:0:0:
256,128,96393,1,0,0:0:0:0:
256,128,96734,1,8,0:0:0:0:
256,128,97075,1,8,0:0:0:0:
256,128,97416,1,8,0:0:0:0:
256,128,97586,1,0,0:0:0:0:
256,128,97757,1,8,0:0:0:0:
256,128,98098,1,8,0:0:0:0:
256,128,98780,1,0,0:0:0:0:
256,128,99120,1,8,0:0:0:0:
256,128,99291,1,8,0:0:0:0:
256,128,99461,1,0,0:0:0:0:
256,128,99802,1,0,0:0:0:0:
256,128,100143,1,0,0:0:0:0:
256,128,100314,1,8,0:0:0:0:
256,128,100655,1,8,0:0:0:0:
256,128,101336,1,0,0:0:0:0:
256,128,101848,1,8,0:0:0:0:
256,128,102189,1,8,0:0:0:0:
256,128,102530,1,8,0:0:0:0:
256,128,102700,1,0,0:0:0:0:
256,128,102870,1,0,0:0:0:0:
256,128,103041,1,8,0:0:0:0:
256,128,103382,1,8,0:0:0:0:
256,128,104064,1,0,0:0:0:0:
256,128,104575,1,8,0:0:0:0:
256,128,104745,1,0,0:0:0:0:
256,128,104916,1,8,0:0:0:0:
256,128,105427,1,0,0:0:0:0:
256,128,105598,1,8,0:0:0:0:
256,128,105939,1,0,0:0:0:0:
256,128,106280,1,8,0:0:0:0:
256,128,106791,1,8,0:0:0:0:
256,128,106961,1,0,0:0:0:0:
256,128,107302,1,8,0:0:0:0:
256,128,107473,1,0,0:0:0:0:
256,128,107643,1,8,0:0:0:0:
256,128,108155,1,8,0:0:0:0:
256,128,108325,1,0,0:0:0:0:
256,128,108666,1,0,0:0:0:0:
256,128,109007,1,8,0:0:0:0:
256,128,109518,1,8,0:0:0:0:
256,128,109689,1,8,0:0:0:0:
256,128,110030,1,0,0:0:0:0:
256,128,110370,1,12,0:0:0:0:
256,128,110711,1,8,0:0:0:0:
256,128,111393,1,0,0:0:0:0:
256,128,111734,1,8,0:0:0:0:
256,128,112075,1,0,0:0:0:0:
256,128,112416,1,8,0:0:0:0:
256,128,112757,1,8,0:0:0:0:
256,128,112927,1,0,0:0:0:0:
256,128,113098,1,8,0:0:0:0:
256,128,113439,1,8,0:0:0:0:
256,128,113780,1,0,0:0:0:0:
256,128,114120,1,8,0:0:0:0:
256,128,114291,1,0,0:0:0:0:
256,128,114632,1,0,0:0:0:0:
256,128,114802,1,0,0:0:0:0:
256,128,115143,1,8,0:0:0:0:
256,128,115314,1,8,0:0:0:0:
256,128,115484,1,0,0:0:0:0:
256,128,115655,1,8,0:0:0:0:
256,128,115995,1,8,0:0:0:0:
256,128,116848,1,8,0:0:0:0:
256,128,117018,1,0,0:0:0:0:
256,128,118382,1,0,0:0:0:0:
256,128,118552,1,8,0:0:0:0:
256,128,119405,1,8,0:0:0:0:
256,128,119745,1,0,0:0:0:0:
256,128,120598,1,8,0:0:0:0:
256,128,121280,1,0,0:0:0:0:
256,128,121791,1,0,0:0:0:0:
256,128,121961,1,0,0:0:0:0:
256,128,122132,1,8,0:0:0:0:
256,128,122473,1,8,0:0:0:0:
256,128,123325,1,8,0:0:0:0:
256,128,123581,1,8,0:0:0:0:
256,128,123836,1,8,0:0:0:0:
256,128,124007,1,0,0:0:0:0:
256,128,124518,1,8,0:0:0:0:
256,128,125030,1,0,0:0:0:0:
256,128,126052,1,8,0:0:0:0:
256,128,126223,1,0,0:0:0:0:
256,128,126393,1,8,0:0:0:0:
256,128,126564,1,8,0:0:0:0:
256,128,127075,1,8,0:0:0:0:
256,128,127245,1,0,0:0:0:0:
256,128,127928,1,0,0:0:0:0:
256,128,128098,1,0,0:0:0:0:
256,128,128269,1,0,0:0:0:0:
256,128,128439,1,8,0:0:0:0:
256,128,129120,1,8,0:0:0:0:
256,128,129461,1,0,0:0:0:0:
256,128,129802,1,8,0:0:0:0:
256,128,129973,1,0,0:0:0:0:
256,128,130314,1,8,0:0:0:0:
256,128,130655,1,0,0:0:0:0:
256,128,130995,1,8,0:0:0:0:
256,128,131336,1,0,0:0:0:0:
256,128,131677,1,8,0:0:0:0:
256,128,132018,1,8,0:0:0:0:
256,128,132189,1,0,0:0:0:0:
256,128,133041,1,0,0:0:0:0:
256,128,133382,1,0,0:0:0:0:
256,128,133552,1,8,0:0:0:0:
256,128,133893,1,8,0:0:0:0:
256,128,134063,1,0,0:0:0:0:
256,128,134405,1,0,0:0:0:0:
256,128,134575,1,0,0:0:0:0:
256,128,134745,1,0,0:0:0:0:
256,128,134916,1,0,0:0:0:0:
256,128,135257,1,0,0:0:0:0:
256,128,135427,1,0,0:0:0:0:
256,128,135598,1,8,0:0:0:0:
256,128,135939,1,0,0:0:0:0:
256,128,136109,1,8,0:0:0:0:
256,128,136450,1,8,0:0:0:0:
256,128,136791,1,0,0:0:0:0:
256,192,137643,12,0,139348,0:0:0:0:
256,128,139689,5,0,0:0:0:0:
256,128,140030,1,8,0:0:0:0:
256,128,140370,1,0,0:0:0:0:
256,128,141564,1,0,0:0:0:0:
256,128,141735,1,8,0:0:0:0:
256,128,142075,1,8,0:0:0:0:
256,128,142245,1,0,0:0:0:0:
256,128,142586,1,8,0:0:0:0:
256,128,142927,1,8,0:0:0:0:
256,128,144120,1,0,0:0:0:0:
256,128,144291,1,8,0:0:0:0:
256,128,144802,1,8,0:0:0:0:
256,128,144973,1,0,0:0:0:0:
256,128,145314,1,8,0:0:0:0:
256,128,145655,1,0,0:0:0:0:
256,128,146848,1,0,0:0:0:0:
256,128,147189,1,8,0:0:0:0:
256,128,147530,1,8,0:0:0:0:
256,128,147870,1,0,0:0:0:0:
256,128,148211,1,0,0:0:0:0:
256,128,148552,1,8,0:0:0:0:
256,128,149064,1,8,0:0:0:0:
256,128,149234,1,8,0:0:0:0:
256,128,149916,1,8,0:0:0:0:
256,128,150598,1,0,0:0:0:0:
256,128,150939,1,0,0:0:0:0:
256,128,151109,1,0,0:0:0:0:
256,128,151280,1,8,0:0:0:0:
256,128,152302,1,0,0:0:0:0:
256,128,152643,1,8,0:0:0:0:
256,128,152984,1,0,0:0:0:0:
256,128,153155,1,8,0:0:0:0:
256,128,153495,1,0,0:0:0:0:
256,128,153836,1,8,0:0:0:0:
256,128,155030,1,8,0:0:0:0:
256,128,155200,1,8,0:0:0:0:
256,128,155541,1,8,0:0:0:0:
256,128,155882,1,0,0:0:0:0:
256,128,157075,1,0,0:0:0:0:
256,128,157416,1,8,0:0:0:0:
256,128,157757,1,8,0:0:0:0:
256,128,158098,1,0,0:0:0:0:
256,128,158609,1,0,0:0:0:0:
256,128,158780,1,8,0:0:0:0:
256,128,159461,1,8,0:0:0:0:
256,128,160143,1,0,0:0:0:0:
256,128,160825,1,8,0:0:0:0:
256,128,162189,1,4,0:0:0:0:
256,128,162530,1,8,0:0:0:0:
256,128,162870,1,0,0:0:0:0:
256,128,163041,1,0,0:0:0:0:
256,128,163211,1,8,0:0:0:0:
256,128,163382,1,0,0:0:0:0:
256,128,163552,1,8,0:0:0:0:
256,128,163893,1,8,0:0:0:0:
256,128,164064,1,8,0:0:0:0:
256,128,164405,1,8,0:0:0:0:
256,128,164745,1,0,0:0:0:0:
256,128,164916,1,0,0:0:0:0:
256,128,165257,1,8,0:0:0:0:
256,128,165939,1,8,0:0:0:0:
256,128,166109,1,8,0:0:0:0:
256,128,166620,1,8,0:0:0:0:
256,128,166791,1,0,0:0:0:0:
256,128,167132,1,8,0:0:0:0:
256,128,167473,1,0,0:0:0:0:
256,128,167643,1,8,0:0:0:0:
256,128,167984,1,8,0:0:0:0:
256,128,168666,1,8,0:0:0:0:
256,128,169007,1,8,0:0:0:0:
256,128,169348,1,8,0:0:0:0:
256,128,169689,1,0,0:0:0:0:
256,128,170030,1,8,0:0:0:0:
256,128,170370,1,0,0:0:0:0:
256,128,171052,1,0,0:0:0:0:
256,128,171393,1,0,0:0:0:0:
256,128,171564,1,8,0:0:0:0:
256,128,171905,1,0,0:0:0:0:
256,128,172075,1,0,0:0:0:0:
256,128,172245,1,8,0:0:0:0:
256,128,172757,1,8,0:0:0:0:
256,128,172927,1,0,0:0:0:0:
256,128,173098,1,8,0:0:0:0:
256,128,173439,1,8,0:0:0:0:
256,128,173780,1,0,0:0:0:0:
256,128,173950,1,0,0:0:0:0:
256,128,174120,1,8,0:0:0:0:
256,128,174291,1,0,0:0:0:0:
256,128,174461,1,8,0:0:0:0:
256,128,174802,1,8,0:0:0:0:
256,128,174973,1,0,0:0:0:0:
256,128,175314,1,8,0:0:0:0:
256,128,175655,1,0,0:0:0:0:
256,128,176166,1,8,0:0:0:0:
256,128,176848,1,0,0:0:0:0:
256,128,177018,1,8,0:0:0:0:
256,128,177359,1,8,0:0:0:0:
256,128,177700,1,0,0:0:0:0:
256,128,177871,1,8,0:0:0:0:
256,128,178212,1,8,0:0:0:0:
256,128,178382,1,8,0:0:0:0:
256,128,178552,1,0,0:0:0:0:
256,128,178893,1,0,0:0:0:0:
256,128,179234,1,8,0:0:0:0:
256,128,179575,1,8,0:0:0:0:
256,128,179916,1,0,0:0:0:0:
256,128,180598,1,0,0:0:0:0:
256,128,180768,1,0,0:0:0:0:
256,128,180939,1,8,0:0:0:0:
256,128,181109,1,0,0:0:0:0:
256,128,181280,1,8,0:0:0:0:
256,192,181450,12,0,183495,0:0:0:0:
256,128,183836,5,0,0:0:0:0:
256,128,184007,1,8,0:0:0:0:
256,128,184348,1,8,0:0:0:0:
256,128,184518,1,0,0:0:0:0:
256,128,184859,1,8,0:0:0:0:
256,128,185200,1,0,0:0:0:0:
160,128,185370,2,0,B|224:256|224:256|288:128|288:128|256:192|256:192|333:294,1,453.249998270989
256,128,186734,1,4,0:0:0:0:
256,128,189120,1,0,0:0:0:0:
256,128,189291,1,0,0:0:0:0:
256,128,189461,1,8,0:0:0:0:
256,128,190484,1,0,0:0:0:0:
256,128,190825,1,8,0:0:0:0:
256,128,191166,1,8,0:0:0:0:
256,128,191507,1,8,0:0:0:0:
256,128,191677,1,0,0:0:0:0:
256,128,192189,1,4,0:0:0:0:
256,128,192530,1,8,0:0:0:0:
256,128,192870,1,0,0:0:0:0:
256,128,193041,1,0,0:0:0:0:
256,128,193211,1,8,0:0:0:0:
256,128,193893,1,8,0:0:0:0:
256,128,194234,1,0,0:0:0:0:
256,128,194575,1,8,0:0:0:0:
256,128,194745,1,8,0:0:0:0:
256,128,194916,1,0,0:0:0:0:
256,128,195257,1,0,0:0:0:0:
256,128,195598,1,8,0:0:0:0:
256,128,195939,1,8,0:0:0:0:
256,128,196280,1,0,0:0:0:0:
256,128,196450,1,8,0:0:0:0:
256,128,196791,1,0,0:0:0:0:
256,128,197132,1,8,0:0:0:0:
256,128,197302,1,0,0:0:0:0:
256,128,197473,1,0,0:0:0:0:
256,128,197643,1,8,0:0:0:0:
256,128,198155,1,12,0:0:0:0:
256,128,198495,1,12,0:0:0:0:
256,128,198836,1,4,0:0:0:0:
256,128,199518,1,0,0:0:0:0:
256,128,199689,1,8,0:0:0:0:
256,128,199859,1,8,0:0:0:0:
256,128,200200,1,12,0:0:0:0:
256,192,200370,12,0,204802,0:0:0:0:
