osu file format v14

[General]
AudioFilename: shining glow.mp3
AudioLeadIn: 0
PreviewTime: 60001
Countdown: 0
SampleSet: Normal
StackLeniency: 0.7
Mode: 1
LetterboxInBreaks: 0
WidescreenStoryboard: 0

[Editor]
Bookmarks: 1280,10825,16280,27189,38098,57189,61280,72189,85825,88552,99461,115825,126734,137643,140370,151280,162189,173098,186734,192189,204802
DistanceSpacing: 0.9
BeatDivisor: 4
GridSize: 32
TimelineZoom: 2.4

[Metadata]
Title:Shining glow (Cut Ver.)
TitleUnicode:Shining glow (Cut Ver.)
Artist:Sekiya Naru (CV: Ueda Reina)
ArtistUnicode:関谷なる (CV: 上田麗奈)
Creator:realy0_
Version:Roger's Blooming Oni
Source:ハナヤマタ よさこいLIVE!
Tags:version short hanayamata yosakoi song series live madhouse flowers insert 挿入歌 characters anime video game japanese pop j-pop jpop roger ][ -GH- ][ ][_-GH-_][ faputa _vex
BeatmapID:2591491
BeatmapSetID:1235951

[Difficulty]
HPDrainRate:6
CircleSize:2
OverallDifficulty:6
ApproachRate:0
SliderMultiplier:1.4
SliderTickRate:1

[Events]
//Background and Video events
0,0,"naru cute.jpg",0,0
//Break Periods
//Storyboard Layer 0 (Background)
//Storyboard Layer 1 (Fail)
//Storyboard Layer 2 (Pass)
//Storyboard Layer 3 (Foreground)
//Storyboard Layer 4 (Overlay)
//Storyboard Sound Samples

[TimingPoints]
-83,340.909090909091,4,1,0,60,1,8
-83,-111.111111111111,4,1,0,60,0,8
1280,340.909090909091,4,1,0,70,1,0
1280,-111.111111111111,4,1,0,70,0,0
9461,-111.111111111111,4,1,0,50,0,0
10740,-111.111111111111,4,1,0,70,0,0
10825,-100,4,1,0,75,0,0
27189,-100,4,1,0,80,0,0
38183,-125,4,1,0,80,0,0
57274,-125,4,1,0,60,0,0
59831,-125,4,1,0,80,0,0
59916,-100,4,1,0,80,0,0
61280,-95.2380952380952,4,1,0,90,0,1
70655,-95.2380952380952,4,1,0,90,0,0
72189,-95.2380952380952,4,1,0,90,0,1
85825,-95.2380952380952,4,1,0,80,0,0
85910,-111.111111111111,4,1,0,70,0,0
87785,-111.111111111111,4,1,0,75,0,0
88552,-100,4,1,0,85,0,0
115825,-100,4,1,0,85,0,1
137643,-100,4,1,0,75,0,0
137728,-100,4,1,0,50,0,0
139007,-111.111111111111,4,1,0,50,0,0
140285,-111.111111111111,4,1,0,65,0,0
140370,-125,4,1,0,70,0,0
151280,-108.108108108108,4,1,0,75,0,0
162103,-108.108108108108,4,1,0,80,0,0
162189,-95.2380952380952,4,1,0,90,0,1
171564,-95.2380952380952,4,1,0,90,0,0
173098,-95.2380952380952,4,1,0,90,0,1
186734,-95.2380952380952,4,1,0,80,0,0
186819,-111.111111111111,4,1,0,70,0,0
191422,-111.111111111111,4,1,0,75,0,0
192189,-100,4,1,0,85,0,0
200285,-100,4,1,0,60,0,0
201734,-100,4,1,0,50,0,0
203098,-100,4,1,0,40,0,0
204120,-100,4,1,0,30,0,0
204461,-100,4,1,0,20,0,0
204802,-100,4,1,0,10,0,0

[HitObjects]
32,352,1280,5,0,0:0:0:0:
32,352,1620,1,8,0:0:0:0:
32,352,1961,1,8,0:0:0:0:
32,352,2302,1,8,0:0:0:0:
32,352,2473,1,8,0:0:0:0:
32,352,2643,1,0,0:0:0:0:
32,352,2984,1,8,0:0:0:0:
32,352,3155,1,8,0:0:0:0:
32,352,3495,1,8,0:0:0:0:
32,352,3836,1,8,0:0:0:0:
32,352,4007,1,0,0:0:0:0:
32,352,4348,1,8,0:0:0:0:
32,352,4689,1,8,0:0:0:0:
32,352,5030,1,8,0:0:0:0:
32,352,5200,1,8,0:0:0:0:
32,352,5370,1,0,0:0:0:0:
32,352,5541,1,8,0:0:0:0:
32,352,5882,1,8,0:0:0:0:
32,352,6052,1,8,0:0:0:0:
32,352,6223,1,0,0:0:0:0:
32,352,6393,1,0,0:0:0:0:
32,352,6734,1,0,0:0:0:0:
32,352,7416,1,8,0:0:0:0:
32,352,8098,1,8,0:0:0:0:
32,352,8439,1,0,0:0:0:0:
32,352,8780,1,8,0:0:0:0:
32,352,8950,1,0,0:0:0:0:
32,352,9120,1,8,0:0:0:0:
256,192,9461,8,0,10655,0:0:0:0:
32,352,10825,5,0,0:0:0:0:
32,352,11166,1,0,0:0:0:0:
32,352,11336,1,8,0:0:0:0:
32,352,11507,1,0,0:0:0:0:
32,352,11848,1,0,0:0:0:0:
32,352,12018,1,8,0:0:0:0:
32,352,12359,1,8,0:0:0:0:
32,352,12700,1,8,0:0:0:0:
32,352,12870,1,0,0:0:0:0:
32,352,13041,1,8,0:0:0:0:
32,352,13126,1,8,0:0:0:0:
32,352,13211,1,0,0:0:0:0:
32,352,13382,1,0,0:0:0:0:
32,352,13552,1,8,0:0:0:0:
32,352,13893,1,8,0:0:0:0:
32,352,14064,1,0,0:0:0:0:
32,352,14234,1,8,0:0:0:0:
32,352,14575,1,8,0:0:0:0:
32,352,14745,1,0,0:0:0:0:
32,352,15086,1,0,0:0:0:0:
32,352,15257,1,8,0:0:0:0:
32,352,15342,1,8,0:0:0:0:
32,352,15427,1,0,0:0:0:0:
32,352,15512,1,0,0:0:0:0:
32,352,15598,1,8,0:0:0:0:
32,352,15768,1,0,0:0:0:0:
32,352,15939,1,8,0:0:0:0:
32,352,16109,1,8,0:0:0:0:
32,352,16280,1,4,0:0:0:0:
32,352,16620,1,8,0:0:0:0:
32,352,16791,1,8,0:0:0:0:
32,352,16961,1,0,0:0:0:0:
32,352,17132,1,8,0:0:0:0:
32,352,17473,1,8,0:0:0:0:
32,352,17643,1,0,0:0:0:0:
32,352,17984,1,0,0:0:0:0:
32,352,18155,1,0,0:0:0:0:
32,352,18325,1,8,0:0:0:0:
32,352,18495,1,0,0:0:0:0:
32,352,18836,1,0,0:0:0:0:
32,352,19007,1,8,0:0:0:0:
32,352,19348,1,0,0:0:0:0:
32,352,19689,1,8,0:0:0:0:
32,352,19859,1,0,0:0:0:0:
32,352,20030,1,0,0:0:0:0:
32,352,20200,1,8,0:0:0:0:
32,352,20541,1,8,0:0:0:0:
32,352,20711,1,0,0:0:0:0:
32,352,20882,1,8,0:0:0:0:
32,352,21052,1,0,0:0:0:0:
32,352,21393,1,8,0:0:0:0:
32,352,21734,1,0,0:0:0:0:
32,352,22075,1,8,0:0:0:0:
32,352,22245,1,0,0:0:0:0:
32,352,22586,1,0,0:0:0:0:
32,352,22757,1,0,0:0:0:0:
32,352,22927,1,8,0:0:0:0:
32,352,23268,1,8,0:0:0:0:
32,352,23439,1,8,0:0:0:0:
32,352,23609,1,0,0:0:0:0:
32,352,23780,1,0,0:0:0:0:
32,352,23950,1,8,0:0:0:0:
32,352,24120,1,8,0:0:0:0:
32,352,24291,1,0,0:0:0:0:
32,352,24461,1,8,0:0:0:0:
32,352,24802,1,0,0:0:0:0:
32,352,24973,1,8,0:0:0:0:
32,352,25143,1,0,0:0:0:0:
32,352,25484,1,8,0:0:0:0:
32,352,25655,1,8,0:0:0:0:
32,352,25825,1,0,0:0:0:0:
32,352,25995,1,8,0:0:0:0:
32,352,26336,1,0,0:0:0:0:
32,352,26422,1,0,0:0:0:0:
32,352,26507,1,0,0:0:0:0:
32,352,26677,1,0,0:0:0:0:
32,352,26848,1,8,0:0:0:0:
32,352,27189,1,4,0:0:0:0:
32,352,27530,1,8,0:0:0:0:
32,352,27700,1,8,0:0:0:0:
32,352,27785,1,8,0:0:0:0:
32,352,27870,1,0,0:0:0:0:
32,352,28041,1,8,0:0:0:0:
32,352,28382,1,8,0:0:0:0:
32,352,28552,1,0,0:0:0:0:
32,352,28723,1,8,0:0:0:0:
32,352,28893,1,8,0:0:0:0:
32,352,29064,1,0,0:0:0:0:
32,352,29149,1,0,0:0:0:0:
32,352,29234,1,0,0:0:0:0:
32,352,29405,1,8,0:0:0:0:
32,352,29745,1,8,0:0:0:0:
32,352,29831,1,8,0:0:0:0:
32,352,29916,1,0,0:0:0:0:
32,352,30086,1,0,0:0:0:0:
32,352,30257,1,8,0:0:0:0:
32,352,30427,1,0,0:0:0:0:
32,352,30768,1,0,0:0:0:0:
32,352,30939,1,8,0:0:0:0:
32,352,31109,1,0,0:0:0:0:
32,352,31194,1,0,0:0:0:0:
32,352,31280,1,8,0:0:0:0:
32,352,31450,1,0,0:0:0:0:
32,352,31620,1,8,0:0:0:0:
32,352,31791,1,0,0:0:0:0:
32,352,31876,1,8,0:0:0:0:
32,352,31961,1,0,0:0:0:0:
32,352,32132,1,0,0:0:0:0:
32,352,32302,1,8,0:0:0:0:
32,352,32473,1,8,0:0:0:0:
32,352,32558,1,8,0:0:0:0:
32,352,32643,1,0,0:0:0:0:
32,352,32814,1,0,0:0:0:0:
32,352,32984,1,8,0:0:0:0:
32,352,33155,1,0,0:0:0:0:
32,352,33495,1,8,0:0:0:0:
32,352,33666,1,0,0:0:0:0:
32,352,33836,1,8,0:0:0:0:
32,352,33922,1,8,0:0:0:0:
32,352,34007,1,8,0:0:0:0:
32,352,34177,1,0,0:0:0:0:
32,352,34348,1,8,0:0:0:0:
32,352,34518,1,0,0:0:0:0:
32,352,34603,1,0,0:0:0:0:
32,352,34689,1,8,0:0:0:0:
32,352,34859,1,8,0:0:0:0:
32,352,35030,1,0,0:0:0:0:
32,352,35200,1,8,0:0:0:0:
32,352,35285,1,8,0:0:0:0:
32,352,35370,1,0,0:0:0:0:
32,352,35711,1,0,0:0:0:0:
32,352,36052,1,8,0:0:0:0:
32,352,36223,1,0,0:0:0:0:
32,352,36308,1,0,0:0:0:0:
32,352,36393,1,0,0:0:0:0:
32,352,36564,1,12,0:0:0:0:
32,352,36905,1,8,0:0:0:0:
32,352,37075,1,0,0:0:0:0:
32,352,37245,1,0,0:0:0:0:
32,352,37416,1,8,0:0:0:0:
32,352,37586,1,8,0:0:0:0:
32,352,37757,1,0,0:0:0:0:
32,352,38098,1,4,0:0:0:0:
32,352,38439,1,0,0:0:0:0:
32,352,38780,1,8,0:0:0:0:
32,352,39120,1,8,0:0:0:0:
32,352,39291,1,0,0:0:0:0:
32,352,39802,1,0,0:0:0:0:
32,352,39973,1,0,0:0:0:0:
32,352,40143,1,8,0:0:0:0:
32,352,40484,1,8,0:0:0:0:
32,352,40825,1,0,0:0:0:0:
32,352,41507,1,8,0:0:0:0:
32,352,41848,1,0,0:0:0:0:
32,352,42018,1,0,0:0:0:0:
32,352,42359,1,8,0:0:0:0:
32,352,42530,1,0,0:0:0:0:
32,352,42700,1,0,0:0:0:0:
32,352,42870,1,8,0:0:0:0:
32,352,43041,1,0,0:0:0:0:
32,352,43552,1,0,0:0:0:0:
32,352,43893,1,0,0:0:0:0:
32,352,44234,1,8,0:0:0:0:
32,352,44575,1,8,0:0:0:0:
32,352,44745,1,0,0:0:0:0:
32,352,45257,1,0,0:0:0:0:
32,352,45427,1,8,0:0:0:0:
32,352,45598,1,8,0:0:0:0:
32,352,45939,1,8,0:0:0:0:
32,352,46280,1,0,0:0:0:0:
32,352,46961,1,8,0:0:0:0:
32,352,47473,1,0,0:0:0:0:
32,352,47643,1,8,0:0:0:0:
32,352,47984,1,0,0:0:0:0:
32,352,48155,1,0,0:0:0:0:
32,352,48325,1,8,0:0:0:0:
32,352,48495,1,0,0:0:0:0:
32,352,48666,1,8,0:0:0:0:
32,352,48836,1,8,0:0:0:0:
32,352,49007,1,4,0:0:0:0:
32,352,49689,1,8,0:0:0:0:
32,352,50030,1,0,0:0:0:0:
32,352,50200,1,0,0:0:0:0:
32,352,50370,1,8,0:0:0:0:
32,352,50541,1,0,0:0:0:0:
32,352,50882,1,8,0:0:0:0:
32,352,51052,1,8,0:0:0:0:
32,352,51393,1,0,0:0:0:0:
32,352,51564,1,8,0:0:0:0:
32,352,51734,1,0,0:0:0:0:
32,352,52245,1,0,0:0:0:0:
32,352,52416,1,8,0:0:0:0:
32,352,52927,1,0,0:0:0:0:
32,352,53268,1,8,0:0:0:0:
32,352,53439,1,0,0:0:0:0:
32,352,53609,1,0,0:0:0:0:
32,352,53780,1,8,0:0:0:0:
32,352,53950,1,0,0:0:0:0:
32,352,54120,1,8,0:0:0:0:
32,352,54291,1,8,0:0:0:0:
32,352,54461,1,0,0:0:0:0:
32,352,55143,1,8,0:0:0:0:
32,352,55484,1,0,0:0:0:0:
32,352,55655,1,8,0:0:0:0:
32,352,55995,1,0,0:0:0:0:
32,352,56166,1,0,0:0:0:0:
32,352,56336,1,8,0:0:0:0:
32,352,56677,1,0,0:0:0:0:
32,352,56848,1,8,0:0:0:0:
32,352,57018,1,8,0:0:0:0:
32,352,57189,1,4,0:0:0:0:
256,192,57359,8,0,59745,0:0:0:0:
32,352,59916,5,0,0:0:0:0:
32,352,60086,1,0,0:0:0:0:
32,352,60172,1,0,0:0:0:0:
32,352,60257,1,8,0:0:0:0:
32,352,60427,1,0,0:0:0:0:
32,352,60512,1,8,0:0:0:0:
32,352,60598,1,0,0:0:0:0:
32,352,60683,1,8,0:0:0:0:
32,352,60768,1,0,0:0:0:0:
32,352,60939,1,8,0:0:0:0:
32,352,61109,1,8,0:0:0:0:
32,352,61194,1,8,0:0:0:0:
32,352,61280,1,4,0:0:0:0:
32,352,61620,1,8,0:0:0:0:
32,352,61876,1,8,0:0:0:0:
32,352,61961,1,0,0:0:0:0:
32,352,62132,1,0,0:0:0:0:
32,352,62302,1,8,0:0:0:0:
32,352,62473,1,0,0:0:0:0:
32,352,62558,1,0,0:0:0:0:
32,352,62643,1,8,0:0:0:0:
32,352,62814,1,0,0:0:0:0:
32,352,62984,1,8,0:0:0:0:
32,352,63069,1,0,0:0:0:0:
32,352,63155,1,8,0:0:0:0:
32,352,63240,1,8,0:0:0:0:
32,352,63325,1,0,0:0:0:0:
32,352,63495,1,0,0:0:0:0:
32,352,63666,1,8,0:0:0:0:
32,352,63836,1,0,0:0:0:0:
32,352,63922,1,8,0:0:0:0:
32,352,64007,1,0,0:0:0:0:
32,352,64348,1,8,0:0:0:0:
32,352,64603,1,8,0:0:0:0:
32,352,64689,1,0,0:0:0:0:
32,352,64859,1,0,0:0:0:0:
32,352,65030,1,8,0:0:0:0:
32,352,65115,1,0,0:0:0:0:
32,352,65200,1,8,0:0:0:0:
32,352,65370,1,0,0:0:0:0:
32,352,65541,1,0,0:0:0:0:
32,352,65626,1,0,0:0:0:0:
32,352,65711,1,8,0:0:0:0:
32,352,65882,1,8,0:0:0:0:
32,352,65967,1,8,0:0:0:0:
32,352,66052,1,0,0:0:0:0:
32,352,66137,1,0,0:0:0:0:
32,352,66223,1,0,0:0:0:0:
32,352,66393,1,8,0:0:0:0:
32,352,66564,1,0,0:0:0:0:
32,352,66649,1,0,0:0:0:0:
32,352,66734,1,8,0:0:0:0:
32,352,67075,1,8,0:0:0:0:
32,352,67331,1,8,0:0:0:0:
32,352,67416,1,0,0:0:0:0:
32,352,67586,1,0,0:0:0:0:
32,352,67757,1,8,0:0:0:0:
32,352,67842,1,8,0:0:0:0:
32,352,67927,1,0,0:0:0:0:
32,352,68012,1,0,0:0:0:0:
32,352,68098,1,8,0:0:0:0:
32,352,68268,1,0,0:0:0:0:
32,352,68439,1,8,0:0:0:0:
32,352,68524,1,0,0:0:0:0:
32,352,68609,1,8,0:0:0:0:
32,352,68694,1,8,0:0:0:0:
32,352,68780,1,0,0:0:0:0:
32,352,68950,1,0,0:0:0:0:
32,352,69035,1,0,0:0:0:0:
32,352,69120,1,8,0:0:0:0:
32,352,69291,1,0,0:0:0:0:
32,352,69461,1,12,0:0:0:0:
32,352,69802,1,8,0:0:0:0:
32,352,69973,1,8,0:0:0:0:
32,352,70058,1,8,0:0:0:0:
32,352,70143,1,0,0:0:0:0:
32,352,70228,1,0,0:0:0:0:
32,352,70314,1,0,0:0:0:0:
32,352,70484,1,8,0:0:0:0:
32,352,70655,1,4,0:0:0:0:
32,352,70995,1,0,0:0:0:0:
32,352,71166,1,8,0:0:0:0:
32,352,71336,1,12,0:0:0:0:
32,352,71677,1,0,0:0:0:0:
32,352,71848,1,8,0:0:0:0:
32,352,71933,1,8,0:0:0:0:
32,352,72018,1,0,0:0:0:0:
32,352,72189,1,4,0:0:0:0:
32,352,72530,1,8,0:0:0:0:
32,352,72785,1,8,0:0:0:0:
32,352,72870,1,0,0:0:0:0:
32,352,73041,1,0,0:0:0:0:
32,352,73211,1,8,0:0:0:0:
32,352,73382,1,0,0:0:0:0:
32,352,73467,1,0,0:0:0:0:
32,352,73552,1,8,0:0:0:0:
32,352,73723,1,0,0:0:0:0:
32,352,73893,1,8,0:0:0:0:
32,352,73978,1,8,0:0:0:0:
32,352,74064,1,0,0:0:0:0:
32,352,74149,1,8,0:0:0:0:
32,352,74234,1,0,0:0:0:0:
32,352,74405,1,0,0:0:0:0:
32,352,74575,1,8,0:0:0:0:
32,352,74745,1,0,0:0:0:0:
32,352,74831,1,0,0:0:0:0:
32,352,74916,1,0,0:0:0:0:
32,352,75257,1,8,0:0:0:0:
32,352,75512,1,8,0:0:0:0:
32,352,75598,1,0,0:0:0:0:
32,352,75768,1,0,0:0:0:0:
32,352,75939,1,8,0:0:0:0:
32,352,76024,1,0,0:0:0:0:
32,352,76109,1,8,0:0:0:0:
32,352,76280,1,0,0:0:0:0:
32,352,76450,1,8,0:0:0:0:
32,352,76535,1,0,0:0:0:0:
32,352,76620,1,8,0:0:0:0:
32,352,76706,1,8,0:0:0:0:
32,352,76791,1,0,0:0:0:0:
32,352,76876,1,0,0:0:0:0:
32,352,76961,1,8,0:0:0:0:
32,352,77132,1,0,0:0:0:0:
32,352,77217,1,0,0:0:0:0:
32,352,77302,1,8,0:0:0:0:
32,352,77473,1,8,0:0:0:0:
32,352,77643,1,4,0:0:0:0:
32,352,77984,1,8,0:0:0:0:
32,352,78155,1,0,0:0:0:0:
32,352,78240,1,8,0:0:0:0:
32,352,78325,1,0,0:0:0:0:
32,352,78495,1,0,0:0:0:0:
32,352,78666,1,8,0:0:0:0:
32,352,78751,1,8,0:0:0:0:
32,352,78836,1,0,0:0:0:0:
32,352,78922,1,0,0:0:0:0:
32,352,79007,1,8,0:0:0:0:
32,352,79177,1,0,0:0:0:0:
32,352,79348,1,8,0:0:0:0:
32,352,79518,1,8,0:0:0:0:
32,352,79603,1,8,0:0:0:0:
32,352,79689,1,0,0:0:0:0:
32,352,79859,1,0,0:0:0:0:
32,352,79944,1,0,0:0:0:0:
32,352,80030,1,8,0:0:0:0:
32,352,80115,1,0,0:0:0:0:
32,352,80200,1,8,0:0:0:0:
32,352,80285,1,8,0:0:0:0:
32,352,80370,1,0,0:0:0:0:
32,352,80711,1,8,0:0:0:0:
32,352,80967,1,8,0:0:0:0:
32,352,81052,1,0,0:0:0:0:
32,352,81223,1,0,0:0:0:0:
32,352,81393,1,8,0:0:0:0:
32,352,81564,1,8,0:0:0:0:
32,352,81649,1,8,0:0:0:0:
32,352,81734,1,0,0:0:0:0:
32,352,81905,1,0,0:0:0:0:
32,352,81990,1,0,0:0:0:0:
32,352,82075,1,8,0:0:0:0:
32,352,82245,1,0,0:0:0:0:
32,352,82331,1,0,0:0:0:0:
32,352,82416,1,8,0:0:0:0:
32,352,82501,1,8,0:0:0:0:
32,352,82586,1,0,0:0:0:0:
32,352,82757,1,8,0:0:0:0:
32,352,82927,1,0,0:0:0:0:
32,352,83098,1,12,0:0:0:0:
32,352,83268,1,0,0:0:0:0:
32,352,83353,1,0,0:0:0:0:
32,352,83439,1,8,0:0:0:0:
32,352,83609,1,4,0:0:0:0:
32,352,83950,1,4,0:0:0:0:
32,352,84291,1,12,0:0:0:0:
32,352,84632,1,0,0:0:0:0:
32,352,84802,1,8,0:0:0:0:
32,352,84973,1,8,0:0:0:0:
32,352,85058,1,8,0:0:0:0:
32,352,85143,1,0,0:0:0:0:
32,352,85314,1,0,0:0:0:0:
32,352,85399,1,0,0:0:0:0:
32,352,85484,1,8,0:0:0:0:
32,352,85655,1,0,0:0:0:0:
32,352,85825,1,4,0:0:0:0:
32,352,87018,1,8,0:0:0:0:
32,352,87189,1,8,0:0:0:0:
32,352,87530,1,8,0:0:0:0:
32,352,87870,1,4,0:0:0:0:
32,352,88041,1,4,0:0:0:0:
32,352,88211,1,8,0:0:0:0:
32,352,88297,1,0,0:0:0:0:
32,352,88382,1,0,0:0:0:0:
32,352,88552,1,12,0:0:0:0:
32,352,88893,1,8,0:0:0:0:
32,352,89149,1,0,0:0:0:0:
32,352,89234,1,8,0:0:0:0:
32,352,89405,1,0,0:0:0:0:
32,352,89575,1,8,0:0:0:0:
32,352,89745,1,0,0:0:0:0:
32,352,89831,1,0,0:0:0:0:
32,352,89916,1,8,0:0:0:0:
32,352,90172,1,0,0:0:0:0:
32,352,90257,1,8,0:0:0:0:
32,352,90427,1,0,0:0:0:0:
32,352,90598,1,8,0:0:0:0:
32,352,90683,1,8,0:0:0:0:
32,352,90768,1,0,0:0:0:0:
32,352,90939,1,8,0:0:0:0:
32,352,91109,1,0,0:0:0:0:
32,352,91194,1,0,0:0:0:0:
32,352,91280,1,8,0:0:0:0:
32,352,91620,1,8,0:0:0:0:
32,352,91876,1,0,0:0:0:0:
32,352,91961,1,8,0:0:0:0:
32,352,92132,1,0,0:0:0:0:
32,352,92302,1,8,0:0:0:0:
32,352,92473,1,0,0:0:0:0:
32,352,92558,1,0,0:0:0:0:
32,352,92643,1,8,0:0:0:0:
32,352,92728,1,8,0:0:0:0:
32,352,92814,1,0,0:0:0:0:
32,352,92984,1,8,0:0:0:0:
32,352,93155,1,0,0:0:0:0:
32,352,93240,1,0,0:0:0:0:
32,352,93325,1,8,0:0:0:0:
32,352,93495,1,8,0:0:0:0:
32,352,93581,1,0,0:0:0:0:
32,352,93666,1,8,0:0:0:0:
32,352,93751,1,8,0:0:0:0:
32,352,93836,1,0,0:0:0:0:
32,352,93922,1,0,0:0:0:0:
32,352,94007,1,8,0:0:0:0:
32,352,94348,1,8,0:0:0:0:
32,352,94603,1,0,0:0:0:0:
32,352,94689,1,8,0:0:0:0:
32,352,94859,1,0,0:0:0:0:
32,352,95030,1,8,0:0:0:0:
32,352,95200,1,0,0:0:0:0:
32,352,95285,1,0,0:0:0:0:
32,352,95370,1,8,0:0:0:0:
32,352,95626,1,0,0:0:0:0:
32,352,95711,1,8,0:0:0:0:
32,352,95882,1,0,0:0:0:0:
32,352,96052,1,8,0:0:0:0:
32,352,96137,1,8,0:0:0:0:
32,352,96223,1,0,0:0:0:0:
32,352,96393,1,8,0:0:0:0:
32,352,96564,1,0,0:0:0:0:
32,352,96649,1,0,0:0:0:0:
32,352,96734,1,8,0:0:0:0:
32,352,97075,1,8,0:0:0:0:
32,352,97331,1,0,0:0:0:0:
32,352,97416,1,8,0:0:0:0:
32,352,97586,1,0,0:0:0:0:
32,352,97757,1,8,0:0:0:0:
32,352,97927,1,8,0:0:0:0:
32,352,98012,1,8,0:0:0:0:
32,352,98098,1,8,0:0:0:0:
32,352,98268,1,0,0:0:0:0:
32,352,98439,1,8,0:0:0:0:
32,352,98609,1,8,0:0:0:0:
32,352,98694,1,0,0:0:0:0:
32,352,98780,1,8,0:0:0:0:
32,352,98950,1,0,0:0:0:0:
32,352,99035,1,0,0:0:0:0:
32,352,99120,1,8,0:0:0:0:
32,352,99206,1,8,0:0:0:0:
32,352,99291,1,0,0:0:0:0:
32,352,99376,1,0,0:0:0:0:
32,352,99461,1,8,0:0:0:0:
32,352,99802,1,8,0:0:0:0:
32,352,99973,1,0,0:0:0:0:
32,352,100058,1,0,0:0:0:0:
32,352,100143,1,8,0:0:0:0:
32,352,100228,1,0,0:0:0:0:
32,352,100314,1,8,0:0:0:0:
32,352,100484,1,0,0:0:0:0:
32,352,100655,1,8,0:0:0:0:
32,352,100740,1,8,0:0:0:0:
32,352,100825,1,0,0:0:0:0:
32,352,100995,1,0,0:0:0:0:
32,352,101166,1,8,0:0:0:0:
32,352,101336,1,0,0:0:0:0:
32,352,101422,1,8,0:0:0:0:
32,352,101507,1,0,0:0:0:0:
32,352,101677,1,0,0:0:0:0:
32,352,101762,1,0,0:0:0:0:
32,352,101848,1,8,0:0:0:0:
32,352,102018,1,0,0:0:0:0:
32,352,102189,1,8,0:0:0:0:
32,352,102530,1,8,0:0:0:0:
32,352,102700,1,0,0:0:0:0:
32,352,102785,1,0,0:0:0:0:
32,352,102870,1,8,0:0:0:0:
32,352,102956,1,0,0:0:0:0:
32,352,103041,1,8,0:0:0:0:
32,352,103211,1,0,0:0:0:0:
32,352,103382,1,8,0:0:0:0:
32,352,103467,1,8,0:0:0:0:
32,352,103552,1,0,0:0:0:0:
32,352,103723,1,0,0:0:0:0:
32,352,103893,1,8,0:0:0:0:
32,352,104064,1,0,0:0:0:0:
32,352,104149,1,0,0:0:0:0:
32,352,104234,1,8,0:0:0:0:
32,352,104319,1,8,0:0:0:0:
32,352,104405,1,0,0:0:0:0:
32,352,104575,1,8,0:0:0:0:
32,352,104745,1,0,0:0:0:0:
32,352,104831,1,0,0:0:0:0:
32,352,104916,1,8,0:0:0:0:
32,352,105257,1,8,0:0:0:0:
32,352,105427,1,0,0:0:0:0:
32,352,105598,1,8,0:0:0:0:
32,352,105683,1,8,0:0:0:0:
32,352,105768,1,0,0:0:0:0:
32,352,105853,1,0,0:0:0:0:
32,352,105939,1,8,0:0:0:0:
32,352,106109,1,0,0:0:0:0:
32,352,106280,1,0,0:0:0:0:
32,352,106365,1,0,0:0:0:0:
32,352,106450,1,0,0:0:0:0:
32,352,106620,1,8,0:0:0:0:
32,352,106791,1,8,0:0:0:0:
32,352,106876,1,8,0:0:0:0:
32,352,106961,1,0,0:0:0:0:
32,352,107047,1,0,0:0:0:0:
32,352,107132,1,0,0:0:0:0:
32,352,107302,1,8,0:0:0:0:
32,352,107473,1,0,0:0:0:0:
32,352,107558,1,0,0:0:0:0:
32,352,107643,1,8,0:0:0:0:
32,352,107984,1,8,0:0:0:0:
32,352,108155,1,0,0:0:0:0:
32,352,108325,1,8,0:0:0:0:
32,352,108410,1,8,0:0:0:0:
32,352,108495,1,0,0:0:0:0:
32,352,108581,1,0,0:0:0:0:
32,352,108666,1,8,0:0:0:0:
32,352,108836,1,0,0:0:0:0:
32,352,109007,1,0,0:0:0:0:
32,352,109092,1,0,0:0:0:0:
32,352,109177,1,0,0:0:0:0:
32,352,109348,1,8,0:0:0:0:
32,352,109518,1,0,0:0:0:0:
32,352,109603,1,0,0:0:0:0:
32,352,109689,1,8,0:0:0:0:
32,352,109774,1,8,0:0:0:0:
32,352,109859,1,0,0:0:0:0:
32,352,110030,1,8,0:0:0:0:
32,352,110200,1,0,0:0:0:0:
32,352,110370,1,4,0:0:0:0:
32,352,110711,1,8,0:0:0:0:
32,352,110882,1,8,0:0:0:0:
32,352,110967,1,8,0:0:0:0:
32,352,111052,1,0,0:0:0:0:
32,352,111223,1,0,0:0:0:0:
32,352,111393,1,8,0:0:0:0:
32,352,111564,1,0,0:0:0:0:
32,352,111649,1,0,0:0:0:0:
32,352,111734,1,8,0:0:0:0:
32,352,111905,1,0,0:0:0:0:
32,352,112075,1,8,0:0:0:0:
32,352,112245,1,0,0:0:0:0:
32,352,112331,1,0,0:0:0:0:
32,352,112416,1,8,0:0:0:0:
32,352,112501,1,8,0:0:0:0:
32,352,112586,1,0,0:0:0:0:
32,352,112757,1,8,0:0:0:0:
32,352,112927,1,0,0:0:0:0:
32,352,113098,1,12,0:0:0:0:
32,352,113439,1,8,0:0:0:0:
32,352,113694,1,0,0:0:0:0:
32,352,113780,1,0,0:0:0:0:
32,352,113950,1,0,0:0:0:0:
32,352,114120,1,8,0:0:0:0:
32,352,114291,1,4,0:0:0:0:
32,352,114632,1,0,0:0:0:0:
32,352,114802,1,0,0:0:0:0:
32,352,114973,1,0,0:0:0:0:
32,352,115143,1,8,0:0:0:0:
32,352,115228,1,8,0:0:0:0:
32,352,115314,1,0,0:0:0:0:
32,352,115399,1,0,0:0:0:0:
32,352,115484,1,8,0:0:0:0:
32,352,115655,1,8,0:0:0:0:
32,352,115740,1,8,0:0:0:0:
32,352,115825,1,4,0:0:0:0:
32,352,116166,1,8,0:0:0:0:
32,352,116422,1,8,0:0:0:0:
32,352,116507,1,0,0:0:0:0:
32,352,116677,1,0,0:0:0:0:
32,352,116762,1,0,0:0:0:0:
32,352,116848,1,8,0:0:0:0:
32,352,116933,1,0,0:0:0:0:
32,352,117018,1,8,0:0:0:0:
32,352,117189,1,0,0:0:0:0:
32,352,117359,1,0,0:0:0:0:
32,352,117530,1,8,0:0:0:0:
32,352,117700,1,0,0:0:0:0:
32,352,117785,1,8,0:0:0:0:
32,352,117870,1,0,0:0:0:0:
32,352,118041,1,0,0:0:0:0:
32,352,118211,1,8,0:0:0:0:
32,352,118382,1,0,0:0:0:0:
32,352,118467,1,0,0:0:0:0:
32,352,118552,1,8,0:0:0:0:
32,352,118893,1,8,0:0:0:0:
32,352,119149,1,8,0:0:0:0:
32,352,119234,1,0,0:0:0:0:
32,352,119405,1,0,0:0:0:0:
32,352,119490,1,0,0:0:0:0:
32,352,119575,1,8,0:0:0:0:
32,352,119745,1,8,0:0:0:0:
32,352,119831,1,8,0:0:0:0:
32,352,119916,1,0,0:0:0:0:
32,352,120086,1,0,0:0:0:0:
32,352,120257,1,8,0:0:0:0:
32,352,120427,1,8,0:0:0:0:
32,352,120512,1,8,0:0:0:0:
32,352,120598,1,0,0:0:0:0:
32,352,120683,1,0,0:0:0:0:
32,352,120768,1,0,0:0:0:0:
32,352,120939,1,8,0:0:0:0:
32,352,121109,1,0,0:0:0:0:
32,352,121194,1,0,0:0:0:0:
32,352,121280,1,8,0:0:0:0:
32,352,121620,1,8,0:0:0:0:
32,352,121791,1,8,0:0:0:0:
32,352,121876,1,8,0:0:0:0:
32,352,121961,1,0,0:0:0:0:
32,352,122132,1,0,0:0:0:0:
32,352,122302,1,8,0:0:0:0:
32,352,122473,1,0,0:0:0:0:
32,352,122558,1,0,0:0:0:0:
32,352,122643,1,8,0:0:0:0:
32,352,122728,1,8,0:0:0:0:
32,352,122814,1,0,0:0:0:0:
32,352,122984,1,8,0:0:0:0:
32,352,123155,1,8,0:0:0:0:
32,352,123240,1,8,0:0:0:0:
32,352,123325,1,0,0:0:0:0:
32,352,123495,1,0,0:0:0:0:
32,352,123581,1,8,0:0:0:0:
32,352,123666,1,0,0:0:0:0:
32,352,123751,1,0,0:0:0:0:
32,352,123836,1,8,0:0:0:0:
32,352,124007,1,4,0:0:0:0:
32,352,124348,1,8,0:0:0:0:
32,352,124518,1,8,0:0:0:0:
32,352,124603,1,0,0:0:0:0:
32,352,124689,1,8,0:0:0:0:
32,352,124859,1,0,0:0:0:0:
32,352,124944,1,0,0:0:0:0:
32,352,125030,1,8,0:0:0:0:
32,352,125115,1,8,0:0:0:0:
32,352,125200,1,0,0:0:0:0:
32,352,125370,1,0,0:0:0:0:
32,352,125541,1,0,0:0:0:0:
32,352,125711,1,8,0:0:0:0:
32,352,125882,1,8,0:0:0:0:
32,352,125967,1,8,0:0:0:0:
32,352,126052,1,0,0:0:0:0:
32,352,126223,1,0,0:0:0:0:
32,352,126308,1,0,0:0:0:0:
32,352,126393,1,8,0:0:0:0:
32,352,126478,1,0,0:0:0:0:
32,352,126564,1,8,0:0:0:0:
32,352,126649,1,8,0:0:0:0:
32,352,126734,1,0,0:0:0:0:
32,352,127075,1,8,0:0:0:0:
32,352,127245,1,0,0:0:0:0:
32,352,127331,1,8,0:0:0:0:
32,352,127416,1,0,0:0:0:0:
32,352,127586,1,0,0:0:0:0:
32,352,127757,1,8,0:0:0:0:
32,352,127927,1,8,0:0:0:0:
32,352,128012,1,8,0:0:0:0:
32,352,128098,1,0,0:0:0:0:
32,352,128183,1,0,0:0:0:0:
32,352,128268,1,0,0:0:0:0:
32,352,128439,1,8,0:0:0:0:
32,352,128524,1,0,0:0:0:0:
32,352,128609,1,8,0:0:0:0:
32,352,128780,1,0,0:0:0:0:
32,352,128950,1,0,0:0:0:0:
32,352,129035,1,0,0:0:0:0:
32,352,129120,1,8,0:0:0:0:
32,352,129291,1,8,0:0:0:0:
32,352,129376,1,8,0:0:0:0:
32,352,129461,1,0,0:0:0:0:
32,352,129632,1,0,0:0:0:0:
32,352,129717,1,0,0:0:0:0:
32,352,129802,1,8,0:0:0:0:
32,352,129887,1,0,0:0:0:0:
32,352,129973,1,8,0:0:0:0:
32,352,130143,1,0,0:0:0:0:
32,352,130314,1,8,0:0:0:0:
32,352,130399,1,8,0:0:0:0:
32,352,130484,1,0,0:0:0:0:
32,352,130655,1,0,0:0:0:0:
32,352,130740,1,8,0:0:0:0:
32,352,130825,1,0,0:0:0:0:
32,352,130995,1,0,0:0:0:0:
32,352,131166,1,8,0:0:0:0:
32,352,131336,1,0,0:0:0:0:
32,352,131422,1,0,0:0:0:0:
32,352,131507,1,8,0:0:0:0:
32,352,131592,1,8,0:0:0:0:
32,352,131677,1,0,0:0:0:0:
32,352,131762,1,0,0:0:0:0:
32,352,131848,1,8,0:0:0:0:
32,352,132018,1,0,0:0:0:0:
32,352,132189,1,4,0:0:0:0:
32,352,132530,1,8,0:0:0:0:
32,352,132785,1,8,0:0:0:0:
32,352,132870,1,0,0:0:0:0:
32,352,133041,1,8,0:0:0:0:
32,352,133126,1,0,0:0:0:0:
32,352,133211,1,8,0:0:0:0:
32,352,133382,1,8,0:0:0:0:
32,352,133467,1,8,0:0:0:0:
32,352,133552,1,0,0:0:0:0:
32,352,133723,1,0,0:0:0:0:
32,352,133808,1,8,0:0:0:0:
32,352,133893,1,0,0:0:0:0:
32,352,133978,1,0,0:0:0:0:
32,352,134064,1,8,0:0:0:0:
32,352,134234,1,0,0:0:0:0:
32,352,134405,1,8,0:0:0:0:
32,352,134490,1,0,0:0:0:0:
32,352,134575,1,8,0:0:0:0:
32,352,134660,1,8,0:0:0:0:
32,352,134745,1,0,0:0:0:0:
32,352,134831,1,0,0:0:0:0:
32,352,134916,1,8,0:0:0:0:
32,352,135086,1,0,0:0:0:0:
32,352,135257,1,8,0:0:0:0:
32,352,135427,1,8,0:0:0:0:
32,352,135512,1,8,0:0:0:0:
32,352,135598,1,0,0:0:0:0:
32,352,135768,1,0,0:0:0:0:
32,352,135853,1,0,0:0:0:0:
32,352,135939,1,8,0:0:0:0:
32,352,136024,1,0,0:0:0:0:
32,352,136109,1,8,0:0:0:0:
32,352,136280,1,0,0:0:0:0:
32,352,136450,1,0,0:0:0:0:
32,352,136535,1,0,0:0:0:0:
32,352,136620,1,8,0:0:0:0:
32,352,136791,1,8,0:0:0:0:
32,352,136876,1,8,0:0:0:0:
32,352,136961,1,0,0:0:0:0:
32,352,137047,1,8,0:0:0:0:
32,352,137132,1,0,0:0:0:0:
32,352,137217,1,0,0:0:0:0:
32,352,137302,1,8,0:0:0:0:
32,352,137473,1,0,0:0:0:0:
32,352,137643,1,12,0:0:0:0:
256,192,137814,8,0,140200,0:0:0:0:
32,352,140370,5,0,0:0:0:0:
32,352,141734,1,8,0:0:0:0:
32,352,142416,1,8,0:0:0:0:
32,352,143098,1,0,0:0:0:0:
32,352,144461,1,0,0:0:0:0:
32,352,145143,1,8,0:0:0:0:
32,352,145825,1,0,0:0:0:0:
32,352,147189,1,8,0:0:0:0:
32,352,147870,1,8,0:0:0:0:
32,352,148552,1,0,0:0:0:0:
32,352,149234,1,0,0:0:0:0:
32,352,149916,1,8,0:0:0:0:
32,352,150598,1,0,0:0:0:0:
32,352,150768,1,0,0:0:0:0:
32,352,150853,1,0,0:0:0:0:
32,352,150939,1,8,0:0:0:0:
32,352,151109,1,0,0:0:0:0:
32,352,151280,1,12,0:0:0:0:
32,352,151620,1,0,0:0:0:0:
32,352,151961,1,0,0:0:0:0:
32,352,152302,1,0,0:0:0:0:
32,352,152473,1,8,0:0:0:0:
32,352,152643,1,8,0:0:0:0:
32,352,152984,1,8,0:0:0:0:
32,352,153155,1,0,0:0:0:0:
32,352,153495,1,0,0:0:0:0:
32,352,153836,1,0,0:0:0:0:
32,352,154007,1,8,0:0:0:0:
32,352,154348,1,0,0:0:0:0:
32,352,154689,1,0,0:0:0:0:
32,352,155030,1,0,0:0:0:0:
32,352,155200,1,8,0:0:0:0:
32,352,155541,1,8,0:0:0:0:
32,352,155882,1,0,0:0:0:0:
32,352,156223,1,0,0:0:0:0:
32,352,156393,1,8,0:0:0:0:
32,352,156564,1,8,0:0:0:0:
32,352,156734,1,0,0:0:0:0:
32,352,157075,1,8,0:0:0:0:
32,352,157416,1,0,0:0:0:0:
32,352,157586,1,0,0:0:0:0:
32,352,157757,1,8,0:0:0:0:
32,352,158098,1,0,0:0:0:0:
32,352,158439,1,8,0:0:0:0:
32,352,158609,1,8,0:0:0:0:
32,352,158780,1,0,0:0:0:0:
32,352,159120,1,8,0:0:0:0:
32,352,159461,1,0,0:0:0:0:
32,352,159802,1,8,0:0:0:0:
32,352,159973,1,0,0:0:0:0:
32,352,160143,1,8,0:0:0:0:
32,352,160484,1,0,0:0:0:0:
32,352,160655,1,8,0:0:0:0:
32,352,160825,1,0,0:0:0:0:
32,352,161507,1,8,0:0:0:0:
32,352,161677,1,0,0:0:0:0:
32,352,161762,1,0,0:0:0:0:
32,352,161848,1,8,0:0:0:0:
32,352,161933,1,8,0:0:0:0:
32,352,162018,1,8,0:0:0:0:
32,352,162189,1,4,0:0:0:0:
32,352,162529,1,8,0:0:0:0:
32,352,162785,1,8,0:0:0:0:
32,352,162870,1,0,0:0:0:0:
32,352,163041,1,0,0:0:0:0:
32,352,163211,1,8,0:0:0:0:
32,352,163382,1,0,0:0:0:0:
32,352,163467,1,0,0:0:0:0:
32,352,163552,1,8,0:0:0:0:
32,352,163723,1,0,0:0:0:0:
32,352,163893,1,8,0:0:0:0:
32,352,163978,1,0,0:0:0:0:
32,352,164064,1,8,0:0:0:0:
32,352,164149,1,8,0:0:0:0:
32,352,164234,1,0,0:0:0:0:
32,352,164404,1,0,0:0:0:0:
32,352,164575,1,8,0:0:0:0:
32,352,164745,1,0,0:0:0:0:
32,352,164831,1,8,0:0:0:0:
32,352,164916,1,0,0:0:0:0:
32,352,165257,1,8,0:0:0:0:
32,352,165512,1,8,0:0:0:0:
32,352,165598,1,0,0:0:0:0:
32,352,165768,1,0,0:0:0:0:
32,352,165939,1,8,0:0:0:0:
32,352,166024,1,0,0:0:0:0:
32,352,166109,1,8,0:0:0:0:
32,352,166279,1,0,0:0:0:0:
32,352,166450,1,0,0:0:0:0:
32,352,166535,1,0,0:0:0:0:
32,352,166620,1,8,0:0:0:0:
32,352,166791,1,8,0:0:0:0:
32,352,166876,1,8,0:0:0:0:
32,352,166961,1,0,0:0:0:0:
32,352,167046,1,0,0:0:0:0:
32,352,167132,1,0,0:0:0:0:
32,352,167302,1,8,0:0:0:0:
32,352,167473,1,0,0:0:0:0:
32,352,167558,1,0,0:0:0:0:
32,352,167643,1,8,0:0:0:0:
32,352,167984,1,8,0:0:0:0:
32,352,168240,1,8,0:0:0:0:
32,352,168325,1,0,0:0:0:0:
32,352,168495,1,0,0:0:0:0:
32,352,168666,1,8,0:0:0:0:
32,352,168751,1,8,0:0:0:0:
32,352,168836,1,0,0:0:0:0:
32,352,168921,1,0,0:0:0:0:
32,352,169007,1,8,0:0:0:0:
32,352,169177,1,0,0:0:0:0:
32,352,169348,1,8,0:0:0:0:
32,352,169433,1,0,0:0:0:0:
32,352,169518,1,8,0:0:0:0:
32,352,169603,1,8,0:0:0:0:
32,352,169689,1,0,0:0:0:0:
32,352,169859,1,0,0:0:0:0:
32,352,169944,1,0,0:0:0:0:
32,352,170029,1,8,0:0:0:0:
32,352,170200,1,0,0:0:0:0:
32,352,170370,1,12,0:0:0:0:
32,352,170711,1,8,0:0:0:0:
32,352,170882,1,8,0:0:0:0:
32,352,170967,1,8,0:0:0:0:
32,352,171052,1,0,0:0:0:0:
32,352,171137,1,0,0:0:0:0:
32,352,171223,1,0,0:0:0:0:
32,352,171393,1,8,0:0:0:0:
32,352,171564,1,4,0:0:0:0:
32,352,171905,1,0,0:0:0:0:
32,352,172075,1,8,0:0:0:0:
32,352,172245,1,12,0:0:0:0:
32,352,172586,1,0,0:0:0:0:
32,352,172757,1,8,0:0:0:0:
32,352,172842,1,8,0:0:0:0:
32,352,172927,1,0,0:0:0:0:
32,352,173098,1,4,0:0:0:0:
32,352,173439,1,8,0:0:0:0:
32,352,173694,1,8,0:0:0:0:
32,352,173780,1,0,0:0:0:0:
32,352,173950,1,0,0:0:0:0:
32,352,174120,1,8,0:0:0:0:
32,352,174291,1,0,0:0:0:0:
32,352,174376,1,0,0:0:0:0:
32,352,174461,1,8,0:0:0:0:
32,352,174632,1,0,0:0:0:0:
32,352,174802,1,8,0:0:0:0:
32,352,174887,1,8,0:0:0:0:
32,352,174973,1,0,0:0:0:0:
32,352,175058,1,8,0:0:0:0:
32,352,175143,1,0,0:0:0:0:
32,352,175314,1,0,0:0:0:0:
32,352,175484,1,8,0:0:0:0:
32,352,175655,1,0,0:0:0:0:
32,352,175740,1,0,0:0:0:0:
32,352,175825,1,0,0:0:0:0:
32,352,176166,1,8,0:0:0:0:
32,352,176422,1,8,0:0:0:0:
32,352,176507,1,0,0:0:0:0:
32,352,176677,1,0,0:0:0:0:
32,352,176848,1,8,0:0:0:0:
32,352,176933,1,0,0:0:0:0:
32,352,177018,1,8,0:0:0:0:
32,352,177189,1,0,0:0:0:0:
32,352,177359,1,8,0:0:0:0:
32,352,177444,1,0,0:0:0:0:
32,352,177530,1,8,0:0:0:0:
32,352,177615,1,8,0:0:0:0:
32,352,177700,1,0,0:0:0:0:
32,352,177785,1,0,0:0:0:0:
32,352,177870,1,8,0:0:0:0:
32,352,178041,1,0,0:0:0:0:
32,352,178126,1,0,0:0:0:0:
32,352,178211,1,8,0:0:0:0:
32,352,178382,1,8,0:0:0:0:
32,352,178552,1,4,0:0:0:0:
32,352,178893,1,8,0:0:0:0:
32,352,179064,1,0,0:0:0:0:
32,352,179149,1,8,0:0:0:0:
32,352,179234,1,0,0:0:0:0:
32,352,179405,1,0,0:0:0:0:
32,352,179575,1,8,0:0:0:0:
32,352,179660,1,8,0:0:0:0:
32,352,179745,1,0,0:0:0:0:
32,352,179831,1,0,0:0:0:0:
32,352,179916,1,8,0:0:0:0:
32,352,180086,1,0,0:0:0:0:
32,352,180257,1,8,0:0:0:0:
32,352,180427,1,8,0:0:0:0:
32,352,180512,1,8,0:0:0:0:
32,352,180598,1,0,0:0:0:0:
32,352,180768,1,0,0:0:0:0:
32,352,180853,1,0,0:0:0:0:
32,352,180939,1,8,0:0:0:0:
32,352,181024,1,0,0:0:0:0:
32,352,181109,1,8,0:0:0:0:
32,352,181194,1,8,0:0:0:0:
32,352,181280,1,0,0:0:0:0:
32,352,181620,1,8,0:0:0:0:
32,352,181876,1,8,0:0:0:0:
32,352,181961,1,0,0:0:0:0:
32,352,182132,1,0,0:0:0:0:
32,352,182302,1,8,0:0:0:0:
32,352,182473,1,8,0:0:0:0:
32,352,182558,1,8,0:0:0:0:
32,352,182643,1,0,0:0:0:0:
32,352,182814,1,0,0:0:0:0:
32,352,182899,1,0,0:0:0:0:
32,352,182984,1,8,0:0:0:0:
32,352,183155,1,0,0:0:0:0:
32,352,183240,1,0,0:0:0:0:
32,352,183325,1,8,0:0:0:0:
32,352,183410,1,8,0:0:0:0:
32,352,183495,1,0,0:0:0:0:
32,352,183666,1,8,0:0:0:0:
32,352,183836,1,0,0:0:0:0:
32,352,184007,1,12,0:0:0:0:
32,352,184177,1,0,0:0:0:0:
32,352,184262,1,0,0:0:0:0:
32,352,184348,1,8,0:0:0:0:
32,352,184518,1,4,0:0:0:0:
32,352,184859,1,4,0:0:0:0:
32,352,185200,1,12,0:0:0:0:
32,352,185541,1,0,0:0:0:0:
32,352,185711,1,8,0:0:0:0:
32,352,185882,1,0,0:0:0:0:
32,352,185967,1,0,0:0:0:0:
32,352,186052,1,0,0:0:0:0:
32,352,186223,1,8,0:0:0:0:
32,352,186308,1,0,0:0:0:0:
32,352,186393,1,8,0:0:0:0:
32,352,186564,1,0,0:0:0:0:
32,352,186734,1,4,0:0:0:0:
32,352,189120,1,8,0:0:0:0:
32,352,189291,1,0,0:0:0:0:
32,352,189376,1,0,0:0:0:0:
32,352,189461,1,8,0:0:0:0:
32,352,190484,1,0,0:0:0:0:
32,352,190825,1,8,0:0:0:0:
32,352,191166,1,8,0:0:0:0:
32,352,191507,1,4,0:0:0:0:
32,352,191677,1,4,0:0:0:0:
32,352,191848,1,8,0:0:0:0:
32,352,191933,1,8,0:0:0:0:
32,352,192018,1,0,0:0:0:0:
32,352,192189,1,4,0:0:0:0:
32,352,192530,1,8,0:0:0:0:
32,352,192700,1,0,0:0:0:0:
32,352,192785,1,0,0:0:0:0:
32,352,192870,1,8,0:0:0:0:
32,352,192956,1,8,0:0:0:0:
32,352,193041,1,0,0:0:0:0:
32,352,193211,1,8,0:0:0:0:
32,352,193382,1,0,0:0:0:0:
32,352,193467,1,0,0:0:0:0:
32,352,193552,1,8,0:0:0:0:
32,352,193893,1,8,0:0:0:0:
32,352,194064,1,0,0:0:0:0:
32,352,194149,1,0,0:0:0:0:
32,352,194234,1,8,0:0:0:0:
32,352,194405,1,0,0:0:0:0:
32,352,194575,1,8,0:0:0:0:
32,352,194660,1,8,0:0:0:0:
32,352,194745,1,0,0:0:0:0:
32,352,194831,1,0,0:0:0:0:
32,352,194916,1,0,0:0:0:0:
32,352,195257,1,8,0:0:0:0:
32,352,195512,1,0,0:0:0:0:
32,352,195598,1,8,0:0:0:0:
32,352,195768,1,0,0:0:0:0:
32,352,195939,1,8,0:0:0:0:
32,352,196109,1,0,0:0:0:0:
32,352,196194,1,0,0:0:0:0:
32,352,196280,1,8,0:0:0:0:
32,352,196365,1,8,0:0:0:0:
32,352,196450,1,0,0:0:0:0:
32,352,196620,1,8,0:0:0:0:
32,352,196791,1,0,0:0:0:0:
32,352,196876,1,0,0:0:0:0:
32,352,196961,1,8,0:0:0:0:
32,352,197132,1,8,0:0:0:0:
32,352,197217,1,0,0:0:0:0:
32,352,197302,1,8,0:0:0:0:
32,352,197387,1,0,0:0:0:0:
32,352,197473,1,0,0:0:0:0:
32,352,197643,1,4,0:0:0:0:
32,352,197984,1,0,0:0:0:0:
32,352,198155,1,12,0:0:0:0:
32,352,198495,1,12,0:0:0:0:
32,352,198836,1,4,0:0:0:0:
32,352,199348,1,8,0:0:0:0:
32,352,199518,1,0,0:0:0:0:
32,352,199603,1,0,0:0:0:0:
32,352,199689,1,8,0:0:0:0:
32,352,199774,1,0,0:0:0:0:
32,352,199859,1,8,0:0:0:0:
32,352,200030,1,0,0:0:0:0:
32,352,200200,1,4,0:0:0:0:
256,192,200370,8,0,204802,0:0:0:0:
