osu file format v14

[General]
AudioFilename: audio.mp3
AudioLeadIn: 0
PreviewTime: 55519
Countdown: 0
SampleSet: Soft
StackLeniency: 0.3
Mode: 0
LetterboxInBreaks: 0
WidescreenStoryboard: 0

[Editor]
Bookmarks: 9177,10153,11128,12104,13080,14055,15031,16006,16982,17958,18933,19909,20884,21860,22836,23811,24787,25763,26738,27714,28689,29665,30641,31616,32592,33567,34543,35519,36494,37470,38445,39421,40397,41372,42348,43324,44299,45275,46250,47226,48202,49177,50153,51128,52104,53080,54055,55031,56006,56982,57958,58933,59909,60884,61860,62836,63811,64787,65763,66738,67714,68689,69665,70641,71616,72592,73567,74543,75519,76494,77470,78445,79421,80397,81372,82348,83324,84299,85275,86250,87226
DistanceSpacing: 1.5
BeatDivisor: 1
GridSize: 4
TimelineZoom: 1

[Metadata]
Title:felt
TitleUnicode:felt
Artist:Seizi Kimura
ArtistUnicode:木村世治
Creator:Prophecy
Version:Normal
Source:DRAMAtical Murder
Tags:ED Noiz ending dmmd TV Size yaoi boys love bl nitro chiral seiji
BeatmapID:973856
BeatmapSetID:448489

[Difficulty]
HPDrainRate:4
CircleSize:3
OverallDifficulty:4
ApproachRate:5
SliderMultiplier:1.3
SliderTickRate:2

[Events]
//Background and Video events
0,0,"113957004737f5f2f3o.jpg",0,0
Video,0,"ED (2).avi"
//Break Periods
//Storyboard Layer 0 (Background)
//Storyboard Layer 1 (Fail)
//Storyboard Layer 2 (Pass)
//Storyboard Layer 3 (Foreground)
//Storyboard Sound Samples

[TimingPoints]
885,487.80487804878,4,2,1,70,1,0
39909,-100,4,2,1,70,0,0
55519,-100,4,2,1,70,0,1
70884,-100,4,2,1,70,0,0
71128,-100,4,2,1,70,0,1
86738,-100,4,2,1,70,0,0

[Colours]
Combo1 : 172,255,214
Combo2 : 0,0,255
Combo3 : 128,128,255
Combo4 : 0,217,217

[HitObjects]
480,196,8689,6,0,P|488:228|468:312,2,97.5,0|0|0,0:0|0:0|0:0,0:0:0:0:
408,132,9665,2,0,P|316:116|260:140,1,130,0|8,0:0|0:0,0:0:0:0:
128,244,10641,6,0,P|144:296|132:352,2,97.5,0|0|0,0:0|0:0|0:0,0:0:0:0:
48,188,11616,2,0,P|36:144|44:100,1,65
112,60,12104,2,0,P|144:72|192:68,1,65,8|0,0:0|0:0,0:0:0:0:
268,40,12592,2,0,P|328:28|388:44,2,97.5,0|0|0,0:0|0:0|0:0,0:0:0:0:
160,204,13811,2,0,L|152:284,1,65,0|8,0:0|0:0,0:0:0:0:
324,356,14543,38,0,P|384:320|408:240,1,130,0|8,0:0|0:0,0:0:0:0:
460,184,15275,1,0,0:0:0:0:
460,184,15519,2,0,P|412:168|328:208,1,130,0|8,0:0|0:0,0:0:0:0:
260,140,16250,1,0,0:0:0:0:
180,196,16494,6,0,P|144:164|72:148,2,97.5,0|0|0,0:0|0:0|0:0,0:0:0:0:
216,288,17470,2,0,B|260:288|260:288|288:296|288:296|368:284,1,130,0|8,0:0|0:0,0:0:0:0:
384,96,18445,38,0,P|420:64|492:48,2,97.5,0|0|0,0:0|0:0|0:0,0:0:0:0:
300,148,19421,2,0,P|276:100|280:60,1,65
188,44,19909,2,0,L|108:40,1,65,8|0,0:0|0:0,0:0:0:0:
52,108,20397,6,0,P|44:164|72:240,1,130,0|8,0:0|0:0,0:0:0:0:
44,328,21129,2,0,P|112:320|164:252,1,130,0|0,0:0|0:0,0:0:0:0:
236,232,21860,1,8,0:0:0:0:
368,88,22348,38,0,L|224:76,1,130,0|8,0:0|0:0,0:0:0:0:
156,24,23080,2,0,L|26:34,1,130,0|0,0:0|0:0,0:0:0:0:
8,132,23811,2,0,P|4:176|12:208,1,65,8|0,0:0|0:0,0:0:0:0:
92,248,24299,6,0,L|236:236,1,130,0|8,0:0|0:0,0:0:0:0:
308,284,25031,2,0,P|364:328|444:320,1,130,0|0,0:0|0:0,0:0:0:0:
396,236,25763,2,0,L|396:140,1,65,8|0,0:0|0:0,0:0:0:0:
324,104,26250,38,0,P|280:88|184:108,1,130,0|8,0:0|0:0,0:0:0:0:
104,84,26982,2,0,P|108:140|184:192,1,130,0|0,0:0|0:0,0:0:0:0:
224,264,27714,2,0,P|228:296|216:344,1,65,8|0,0:0|0:0,0:0:0:0:
128,292,28202,6,0,P|88:316|16:316,2,97.5,0|0|0,0:0|0:0|0:0,0:0:0:0:
60,224,29177,2,0,P|40:156|56:84,1,130,0|8,0:0|0:0,0:0:0:0:
240,52,30153,38,0,P|280:36|368:56,1,130,0|8,0:0|0:0,0:0:0:0:
444,108,30885,2,0,P|428:160|456:240,1,130,0|0,0:0|0:0,0:0:0:0:
488,320,31616,2,0,L|400:332,1,65,8|0,0:0|0:0,0:0:0:0:
332,292,32104,6,0,P|272:312|192:288,1,130,0|8,0:0|0:0,0:0:0:0:
120,336,32836,1,0,0:0:0:0:
120,336,33080,2,0,P|108:292|164:204,1,130,0|8,0:0|0:0,0:0:0:0:
128,24,34055,2,0,P|76:60|0:72,2,130,0|8|0,0:0|0:0|0:0,0:0:0:0:
215,67,35275,1,0,0:0:0:0:
308,104,35519,2,0,P|340:128|392:136,1,65,8|0,0:0|0:0,0:0:0:0:
440,200,36007,38,0,P|416:224|408:344,1,130,0|8,0:0|0:0,0:0:0:0:
300,336,36738,2,0,P|295:272|257:220,1,130,0|0,0:0|0:0,0:0:0:0:
159,208,37470,2,0,P|127:200|93:210,1,65,8|0,0:0|0:0,0:0:0:0:
60,124,37958,6,0,P|136:104|200:124,1,130,0|8,0:0|0:0,0:0:0:0:
264,60,38689,2,0,P|304:80|392:64,1,130,0|0,0:0|0:0,0:0:0:0:
468,120,39421,2,0,P|456:160|460:208,1,65,8|0,0:0|0:0,0:0:0:0:
500,272,39909,38,0,P|436:280|368:232,1,130,4|8,0:0|0:0,0:0:0:0:
292,212,40641,2,0,P|236:243|172:234,1,130,0|0,0:0|0:0,0:0:0:0:
220,148,41372,1,8,0:0:0:0:
352,20,41860,6,0,L|420:24,1,65
504,72,42348,2,0,P|468:108|376:116,1,130,8|0,0:0|0:0,0:0:0:0:
448,308,43324,2,0,P|436:360|440:396,1,65,8|0,0:0|0:0,0:0:0:0:
340,360,43811,38,0,P|336:304|276:232,1,130,0|8,0:0|0:0,0:0:0:0:
208,196,44543,2,0,P|128:220|76:192,1,130,0|0,0:0|0:0,0:0:0:0:
4,152,45275,2,0,P|40:120|72:108,1,65,8|0,0:0|0:0,0:0:0:0:
116,36,45763,6,0,P|168:52|244:28,1,130,0|8,0:0|0:0,0:0:0:0:
332,64,46494,2,0,B|324:152|324:152|332:204,1,130,0|0,0:0|0:0,0:0:0:0:
384,276,47226,1,8,0:0:0:0:
208,348,47714,38,0,P|176:324|72:328,1,130,4|8,0:0|0:0,0:0:0:0:
8,264,48446,2,0,P|-12:216|24:124,1,130,0|0,0:0|0:0,0:0:0:0:
84,84,49177,2,0,L|168:80,1,65,8|0,0:0|0:0,0:0:0:0:
228,136,49665,6,0,P|264:176|360:176,1,130,0|8,0:0|0:0,0:0:0:0:
428,152,50397,2,0,L|428:288,1,130,0|0,0:0|0:0,0:0:0:0:
352,340,51128,1,8,0:0:0:0:
160,356,51616,38,0,P|128:324|28:320,1,130,0|8,0:0|0:0,0:0:0:0:
48,216,52348,2,0,P|111:213|161:172,1,130,0|0,0:0|0:0,0:0:0:0:
180,76,53080,1,8,0:0:0:0:
360,152,53568,6,0,P|392:196|492:212,1,130,0|8,0:0|0:0,0:0:0:0:
340,372,54543,2,0,L|264:376,1,65
236,284,55031,2,0,L|171:280,1,65,8|0,0:0|0:0,0:0:0:0:
92,340,55519,6,0,P|76:284|120:204,1,130,4|8,0:0|0:0,0:0:0:0:
192,148,56250,1,0,0:0:0:0:
192,148,56494,2,0,B|284:148|284:148|328:168,1,130,0|8,0:0|0:0,0:0:0:0:
411,133,57226,2,0,B|411:225|411:225|391:277,2,130,0|0|0,0:0|0:0|0:0,0:0:0:0:
343,63,58445,2,0,P|272:40|192:72,1,130,0|8,0:0|0:0,0:0:0:0:
69,177,59421,6,0,P|53:245|101:313,1,130,0|8,0:0|0:0,0:0:0:0:
152,231,60153,2,0,P|208:215|288:235,1,130,0|0,0:0|0:0,0:0:0:0:
344,158,60885,2,0,P|332:114|336:82,1,65,8|0,0:0|0:0,0:0:0:0:
384,11,61372,38,0,P|340:-5|248:27,1,130,0|8,0:0|0:0,0:0:0:0:
179,68,62104,2,0,P|191:108|167:204,1,130,0|0,0:0|0:0,0:0:0:0:
107,264,62836,2,0,P|91:308|99:348,1,65,8|0,0:0|0:0,0:0:0:0:
189,325,63324,6,0,B|225:313|257:325|257:325|289:341|329:321,1,130,4|8,0:0|0:0,0:0:0:0:
399,277,64055,1,0,0:0:0:0:
438,187,64299,2,0,P|458:130|422:47,1,130,0|8,0:0|0:0,0:0:0:0:
342,44,65031,38,0,P|286:56|206:40,2,130
413,110,66250,1,0,0:0:0:0:
413,110,66494,2,0,L|413:182,1,65,0|8,0:0|0:0,0:0:0:0:
302,335,67226,6,0,P|246:319|174:347,1,130,0|8,0:0|0:0,0:0:0:0:
83,324,67958,2,0,P|59:276|99:192,1,130
146,134,68689,1,8,0:0:0:0:
331,195,69177,38,0,P|387:211|475:183,2,130,0|8|0,0:0|0:0|0:0,0:0:0:0:
233,170,70397,1,0,0:0:0:0:
233,170,70641,2,0,L|108:167,1,65,8|0,0:0|0:0,0:0:0:0:
75,200,71128,6,0,P|67:244|115:332,1,130,4|8,0:0|0:0,0:0:0:0:
197,321,71860,1,0,0:0:0:0:
197,321,72104,2,0,P|233:309|329:321,1,130,0|8,0:0|0:0,0:0:0:0:
413,283,72836,38,0,B|433:219|433:219|413:135,1,130,0|0,0:0|0:0,0:0:0:0:
340,98,73567,1,8,0:0:0:0:
340,98,73811,2,0,P|268:122|196:98,1,130,0|0,0:0|0:0,0:0:0:0:
128,69,74543,1,8,0:0:0:0:
71,255,75031,6,0,P|127:295|203:295,1,130,0|8,0:0|0:0,0:0:0:0:
268,246,75763,2,0,L|268:390,1,130,0|0,0:0|0:0,0:0:0:0:
358,340,76494,1,8,0:0:0:0:
429,274,76738,1,0,0:0:0:0:
475,184,76982,38,0,P|500:136|463:44,1,130,0|8,0:0|0:0,0:0:0:0:
400,120,77714,2,0,P|348:136|268:100,1,130
188,76,78445,1,8,0:0:0:0:
100,47,78933,6,0,L|36:39,1,65,4|0,0:0|0:0,0:0:0:0:
65,134,79421,2,0,L|-7:138,1,65,8|0,0:0|0:0,0:0:0:0:
0,235,79909,2,0,P|4:291|76:343,1,130,0|8,0:0|0:0,0:0:0:0:
152,348,80641,1,0,0:0:0:0:
152,348,80885,38,0,P|232:312|288:328,1,130,0|8,0:0|0:0,0:0:0:0:
360,276,81616,2,0,P|336:224|372:148,1,130,0|0,0:0|0:0,0:0:0:0:
312,72,82348,2,0,P|272:72|228:52,1,65,8|0,0:0|0:0,0:0:0:0:
156,28,82836,6,0,B|156:124|156:124|172:172,1,130,0|8,0:0|0:0,0:0:0:0:
116,236,83567,2,0,B|156:252|156:252|243:248,1,130,0|0,0:0|0:0,0:0:0:0:
304,172,84299,1,8,0:0:0:0:
392,212,84543,1,0,0:0:0:0:
456,136,84787,38,0,P|480:68|384:64,1,195,0|0,0:0|0:0,0:0:0:0:
292,28,85763,2,0,P|256:40|212:40,1,65,4|0,0:0|0:0,0:0:0:0:
152,104,86250,2,0,P|160:136|136:240,1,130,8|0,0:0|0:0,0:0:0:0:
