osu file format v14

[General]
AudioFilename: audio.mp3
AudioLeadIn: 0
PreviewTime: 55519
Countdown: 0
SampleSet: Soft
StackLeniency: 0.7
Mode: 0
LetterboxInBreaks: 0
WidescreenStoryboard: 1

[Editor]
Bookmarks: 9177,10153,11128,12104,13080,14055,15031,16006,16982,17958,18933,19909,20884,21860,22836,23811,24787,25763,26738,27714,28689,29665,30641,31616,32592,33567,34543,35519,36494,37470,38445,39421,40397,41372,42348,43324,44299,45275,46250,47226,48202,49177,50153,51128,52104,53080,54055,55031,56006,56982,57958,58933,59909,60884,61860,62836,63811,64787,65763,66738,67714,68689,69665,70641,71616,72592,73567,74543,75519,76494,77470,78445,79421,80397,81372,82348,83324,84299,85275,86250,87226
DistanceSpacing: 1
BeatDivisor: 4
GridSize: 4
TimelineZoom: 0.7999998

[Metadata]
Title:felt
TitleUnicode:felt
Artist:Seizi Kimura
ArtistUnicode:木村世治
Creator:Prophecy
Version:Hard
Source:DRAMAtical Murder
Tags:ED Noiz ending dmmd TV Size yaoi boys love bl nitro chiral seiji
BeatmapID:1407382
BeatmapSetID:448489

[Difficulty]
HPDrainRate:4
CircleSize:4
OverallDifficulty:4
ApproachRate:6
SliderMultiplier:1.74999990463257
SliderTickRate:1

[Events]
//Background and Video events
0,0,"113957004737f5f2f3o.jpg",0,0
Video,0,"ED (2).avi"
//Break Periods
//Storyboard Layer 0 (Background)
//Storyboard Layer 1 (Fail)
//Storyboard Layer 2 (Pass)
//Storyboard Layer 3 (Foreground)
//Storyboard Sound Samples

[TimingPoints]
885,487.80487804878,4,2,1,70,1,0
39909,-100,4,2,1,70,0,0
42348,-100,4,2,1,70,0,0
42592,-100,4,2,1,70,0,0
55519,-100,4,2,1,70,0,1
70884,-100,4,2,1,70,0,0
71128,-100,4,2,1,70,0,1
86738,-100,4,2,1,70,0,0

[Colours]
Combo1 : 172,255,214
Combo2 : 0,0,255
Combo3 : 128,128,255
Combo4 : 0,217,217

[HitObjects]
152,72,8689,6,0,P|103:49|19:88,2,131.249992847443,4|0|0,0:0|0:0|0:0,0:0:0:0:
95,138,9665,2,0,P|150:157|209:135,1,87.4999952316285
260,115,10153,1,8,0:0:0:0:
347,110,10397,1,0,0:0:0:0:
415,56,10641,6,0,P|438:106|406:177,2,131.249992847443,0|0|0,0:0|0:0|0:0,0:0:0:0:
327,51,11616,2,0,L|209:59,1,87.4999952316285
189,134,12104,1,8,0:0:0:0:
174,150,12226,1,0,0:0:0:0:
159,166,12348,1,0,0:0:0:0:
198,244,12592,38,0,P|128:256|68:188,2,131.249992847443,0|0|0,0:0|0:0|0:0,0:0:0:0:
284,226,13568,2,0,L|385:198,1,87.4999952316285
440,157,14055,1,8,0:0:0:0:
264,89,14543,6,0,P|193:68|128:83,1,131.249992847443
131,99,15031,2,0,P|73:113|25:111,1,87.4999952316285,8|0,0:0|0:0,0:0:0:0:
23,198,15519,1,0,0:0:0:0:
89,255,15763,1,0,0:0:0:0:
150,317,16006,1,8,0:0:0:0:
171,321,16129,1,0,0:0:0:0:
192,322,16250,1,0,0:0:0:0:
275,295,16494,38,0,P|339:282|416:303,1,131.249992847443
416,312,16982,2,0,P|467:320|520:310,1,87.4999952316285,8|0,0:0|0:0,0:0:0:0:
508,227,17470,2,0,P|511:182|493:138,1,87.4999952316285
414,110,17958,1,8,0:0:0:0:
332,141,18202,1,0,0:0:0:0:
255,182,18445,6,0,P|239:269|199:305,1,131.249992847443
193,311,18933,1,8,0:0:0:0:
105,307,19177,2,0,P|89:248|112:196,2,87.4999952316285,0|0|0,0:0|0:0|0:0,0:0:0:0:
172,250,19909,1,8,0:0:0:0:
185,232,20031,1,0,0:0:0:0:
198,214,20153,1,0,0:0:0:0:
233,134,20397,38,0,P|162:136|98:125,1,131.249992847443
85,112,20884,2,0,P|71:68|78:25,1,87.4999952316285,8|0,0:0|0:0,0:0:0:0:
164,18,21372,1,0,0:0:0:0:
247,43,21616,1,0,0:0:0:0:
334,34,21860,1,8,0:0:0:0:
378,109,22104,1,0,0:0:0:0:
428,180,22348,6,0,P|370:190|318:183,1,87.4999952316285,0|0,0:0|0:0,0:0:0:0:
320,192,22714,2,0,P|281:185|233:192,1,87.4999952316285
214,201,23080,1,0,0:0:0:0:
127,189,23324,1,0,0:0:0:0:
51,144,23568,1,0,0:0:0:0:
89,65,23811,2,0,L|74:0,2,43.7499976158143,8|0|0,0:0|0:0|0:0,0:0:0:0:
176,76,24299,38,0,P|237:60|316:71,1,131.249992847443
323,78,24787,2,0,P|327:125|311:170,1,87.4999952316285,8|0,0:0|0:0,0:0:0:0:
246,218,25275,1,0,0:0:0:0:
163,247,25519,1,0,0:0:0:0:
81,214,25763,2,0,L|97:91,1,87.4999952316285,8|0,0:0|0:0,0:0:0:0:
98,39,26250,6,0,P|163:23|248:55,1,131.249992847443
242,50,26738,2,0,L|352:35,1,87.4999952316285,8|0,0:0|0:0,0:0:0:0:
406,78,27226,1,0,0:0:0:0:
424,163,27470,1,0,0:0:0:0:
367,229,27714,1,8,0:0:0:0:
346,236,27836,1,0,0:0:0:0:
325,244,27958,1,0,0:0:0:0:
254,295,28202,38,0,P|191:316|132:291,1,131.249992847443
125,271,28689,2,0,L|121:170,1,87.4999952316285,8|0,0:0|0:0,0:0:0:0:
83,104,29177,1,0,0:0:0:0:
166,76,29421,1,0,0:0:0:0:
251,59,29665,1,8,0:0:0:0:
267,66,29787,1,0,0:0:0:0:
287,74,29909,1,0,0:0:0:0:
368,105,30153,6,0,P|340:163|359:224,1,131.249992847443
368,244,30641,2,0,P|370:290|347:323,1,87.4999952316285,8|0,0:0|0:0,0:0:0:0:
259,333,31129,2,0,L|166:339,1,87.4999952316285
108,278,31616,2,0,L|36:266,2,43.7499976158143,8|0|0,0:0|0:0|0:0,0:0:0:0:
172,218,32104,38,0,P|266:225|314:193,1,131.249992847443
311,193,32592,2,0,P|323:118|307:70,1,87.4999952316285,8|0,0:0|0:0,0:0:0:0:
246,60,33080,2,0,P|202:51|156:60,1,87.4999952316285
98,120,33567,1,8,0:0:0:0:
64,291,34055,6,0,P|131:296|211:282,1,131.249992847443,0|8,0:0|0:0,0:0:0:0:
206,268,34543,2,0,P|214:212|203:162,1,87.4999952316285,0|0,0:0|0:0,0:0:0:0:
156,112,35031,1,0,0:0:0:0:
78,153,35275,1,0,0:0:0:0:
46,234,35519,1,8,0:0:0:0:
66,242,35641,1,8,0:0:0:0:
86,250,35763,1,0,0:0:0:0:
132,323,36006,38,0,L|272:299,1,131.249992847443
283,296,36494,1,8,0:0:0:0:
294,209,36738,2,0,P|378:174|466:193,1,174.999990463257,0|0,0:0|0:0,0:0:0:0:
438,274,37470,1,8,0:0:0:0:
418,278,37592,1,0,0:0:0:0:
398,282,37714,1,0,0:0:0:0:
314,307,37958,6,0,L|176:283,1,131.249992847443
165,273,38446,2,0,P|149:228|165:169,1,87.4999952316285,8|0,0:0|0:0,0:0:0:0:
92,127,38933,1,0,0:0:0:0:
92,127,39055,1,0,0:0:0:0:
92,127,39177,1,0,0:0:0:0:
152,63,39421,2,0,L|232:48,2,43.7499976158143,8|0|0,0:0|0:0|0:0,0:0:0:0:
192,141,39909,38,0,P|257:159|333:133,1,131.249992847443,4|8,0:0|0:0,0:0:0:0:
334,129,40397,2,0,L|337:10,1,87.5
249,26,40885,2,0,L|132:33,1,87.4999952316285
89,81,41372,1,8,0:0:0:0:
220,196,41860,6,0,P|167:233|102:236,1,131.25,0|8,0:0|0:0,0:0:0:0:
91,255,42348,2,0,P|83:295|99:339,1,87.4999952316285
185,346,42836,2,0,L|301:340,1,87.4999952316285
359,334,43324,1,8,0:0:0:0:
405,259,43568,1,0,0:0:0:0:
450,333,43811,38,0,P|493:270|457:188,1,131.249992847443,0|8,0:0|0:0,0:0:0:0:
471,201,44299,2,0,P|468:141|483:104,1,87.5
478,27,44787,1,0,0:0:0:0:
391,37,45031,1,0,0:0:0:0:
304,47,45275,1,8,0:0:0:0:
216,38,45519,1,0,0:0:0:0:
130,57,45763,6,0,P|108:98|125:166,1,87.4999952316285
127,150,46129,2,0,P|135:198|107:260,1,87.4999952316285,8|0,0:0|0:0,0:0:0:0:
115,254,46494,1,0,0:0:0:0:
180,311,46738,2,0,L|285:304,1,87.5
343,260,47226,1,8,0:0:0:0:
410,209,47470,1,8,0:0:0:0:
429,199,47592,1,8,0:0:0:0:
443,182,47714,38,0,P|450:143|432:85,1,87.5
429,76,48080,1,8,0:0:0:0:
412,61,48202,1,0,0:0:0:0:
325,49,48446,1,0,0:0:0:0:
241,72,48689,2,0,P|176:79|127:68,1,87.5
71,47,49177,1,8,0:0:0:0:
61,134,49421,1,0,0:0:0:0:
12,206,49665,6,0,P|-8:267|15:336,1,131.249992847443,0|8,0:0|0:0,0:0:0:0:
32,328,50153,2,0,P|90:321|149:313,1,87.4999952316285
206,316,50641,1,0,0:0:0:0:
293,317,50885,1,0,0:0:0:0:
368,272,51129,1,8,0:0:0:0:
422,204,51372,1,0,0:0:0:0:
365,136,51616,38,0,L|205:116,1,131.25,0|8,0:0|0:0,0:0:0:0:
216,131,52104,2,0,P|121:141|97:126,1,87.5
45,156,52592,1,0,0:0:0:0:
38,243,52836,1,0,0:0:0:0:
115,284,53080,6,0,P|181:274|250:285,1,131.249992847443,8|0,0:0|0:0,0:0:0:0:
263,293,53568,2,0,P|313:305|355:289,1,87.4999952316285
363,280,53933,2,0,P|373:215|353:153,1,131.249992847443,8|0,0:0|0:0,0:0:0:0:
312,75,54543,1,8,0:0:0:0:
251,137,54787,1,0,0:0:0:0:
165,154,55031,2,0,L|148:88,2,43.7499976158143,8|8|0,0:0|0:0|0:0,0:0:0:0:
195,236,55519,6,0,B|130:257|47:216,1,131.249992847443,4|0,0:0|0:0,0:0:0:0:
53,207,56006,2,0,B|43:112,1,87.4999952316285,8|0,0:0|0:0,0:0:0:0:
100,52,56494,1,0,0:0:0:0:
175,96,56738,1,0,0:0:0:0:
257,66,56982,1,8,0:0:0:0:
334,107,57226,2,0,L|445:114,1,87.4999952316285
470,187,57714,5,0,0:0:0:0:
482,205,57836,1,0,0:0:0:0:
487,226,57958,2,0,P|496:274|463:329,1,87.4999952316285,8|0,0:0|0:0,0:0:0:0:
418,368,58446,2,0,P|398:329|428:257,1,87.4999952316285
387,204,58933,1,8,0:0:0:0:
392,182,59055,1,0,0:0:0:0:
397,160,59177,1,0,0:0:0:0:
318,120,59421,38,0,P|256:106|187:126,1,131.249992847443
171,132,59909,2,0,L|135:242,1,87.4999952316285,8|0,0:0|0:0,0:0:0:0:
68,261,60397,1,0,0:0:0:0:
122,329,60641,1,0,0:0:0:0:
206,307,60884,2,0,P|247:319|290:313,1,87.4999952316285,8|0,0:0|0:0,0:0:0:0:
355,252,61372,5,0,0:0:0:0:
421,195,61616,1,0,0:0:0:0:
436,210,61738,1,0,0:0:0:0:
447,228,61860,2,0,P|449:288|426:334,1,87.5,8|0,0:0|0:0,0:0:0:0:
358,347,62348,2,0,P|314:341|276:320,1,87.5
208,264,62836,1,8,0:0:0:0:
269,201,63080,1,0,0:0:0:0:
253,114,63324,38,0,B|195:88|124:114,1,131.249992847443,4|0,0:0|0:0,0:0:0:0:
106,124,63811,2,0,L|-11:128,1,87.4999952316285,8|0,0:0|0:0,0:0:0:0:
4,213,64299,2,0,L|126:206,1,87.4999952316285
170,169,64787,1,8,0:0:0:0:
172,256,65031,1,0,0:0:0:0:
244,207,65275,6,0,P|308:230|376:217,1,131.249992847443
387,207,65763,2,0,L|400:96,1,87.5,8|0,0:0|0:0,0:0:0:0:
340,65,66250,2,0,P|295:54|226:63,1,87.4999952316285
169,78,66738,1,8,0:0:0:0:
88,111,66982,1,0,0:0:0:0:
85,132,67104,1,8,0:0:0:0:
80,153,67226,38,0,P|68:203|82:249,1,87.4999952316285
89,254,67592,1,0,0:0:0:0:
103,270,67714,2,0,P|143:284|220:274,1,87.4999952316285,8|0,0:0|0:0,0:0:0:0:
234,209,68202,1,0,0:0:0:0:
283,281,68446,1,0,0:0:0:0:
334,210,68689,2,0,P|392:202|444:224,1,87.4999952316285,8|0,0:0|0:0,0:0:0:0:
470,280,69177,5,0,0:0:0:0:
406,340,69421,1,0,0:0:0:0:
385,346,69543,1,0,0:0:0:0:
363,347,69665,2,0,L|243:342,2,87.5,8|0|0,0:0|0:0|0:0,0:0:0:0:
388,262,70397,1,0,0:0:0:0:
316,213,70641,1,8,0:0:0:0:
295,205,70763,1,8,0:0:0:0:
274,197,70885,1,0,0:0:0:0:
219,128,71129,37,4,0:0:0:0:
170,200,71372,1,0,0:0:0:0:
152,213,71494,1,0,0:0:0:0:
134,225,71616,2,0,P|56:227|21:202,1,87.5,8|0,0:0|0:0,0:0:0:0:
25,139,72104,1,0,0:0:0:0:
82,72,72348,1,0,0:0:0:0:
168,59,72592,1,8,0:0:0:0:
200,140,72836,6,0,P|278:155|371:132,1,174.999990463257
391,128,73446,1,0,0:0:0:0:
412,133,73568,2,0,L|423:238,1,87.5,8|0,0:0|0:0,0:0:0:0:
454,300,74055,1,0,0:0:0:0:
385,353,74299,1,0,0:0:0:0:
306,313,74543,1,8,0:0:0:0:
285,309,74665,1,0,0:0:0:0:
265,305,74787,1,0,0:0:0:0:
188,268,75031,38,0,P|160:216|193:125,1,131.249992847443
195,148,75519,2,0,P|234:154|283:148,1,87.4999952316285,8|0,0:0|0:0,0:0:0:0:
369,150,76007,1,0,0:0:0:0:
416,77,76250,1,0,0:0:0:0:
330,59,76494,2,0,P|276:66|225:44,1,87.4999952316285,8|0,0:0|0:0,0:0:0:0:
165,92,76982,6,0,L|157:223,1,131.25
175,234,77470,2,0,L|263:228,1,87.5,8|0,0:0|0:0,0:0:0:0:
339,269,77958,2,0,P|350:226|338:175,1,87.4999952316285
265,141,78445,1,8,0:0:0:0:
177,148,78689,1,0,0:0:0:0:
112,207,78933,38,0,P|50:210|12:167,2,87.4999952316285,0|0|8,0:0|0:0|0:0,0:0:0:0:
177,148,79665,1,0,0:0:0:0:
140,68,79909,2,0,P|191:61|228:76,2,87.4999952316285,0|0|8,0:0|0:0|0:0,0:0:0:0:
78,129,80641,1,0,0:0:0:0:
151,176,80885,6,0,L|300:170,1,131.249992847443
292,190,81372,2,0,L|308:298,1,87.4999952316285,8|0,0:0|0:0,0:0:0:0:
255,349,81860,1,0,0:0:0:0:
179,305,82104,1,0,0:0:0:0:
91,297,82348,1,8,0:0:0:0:
55,214,82592,1,0,0:0:0:0:
47,193,82714,1,0,0:0:0:0:
44,171,82836,38,0,P|46:123|78:79,1,87.4999952316285
86,82,83202,1,0,0:0:0:0:
107,77,83324,2,0,P|155:67|214:86,1,87.4999952316285,8|0,0:0|0:0,0:0:0:0:
240,147,83811,2,0,P|196:159|150:141,2,87.4999952316285,0|0|8,0:0|0:0|0:0,0:0:0:0:
320,111,84543,1,0,0:0:0:0:
392,159,84787,6,0,L|376:297,1,131.25
362,306,85275,2,0,P|302:326|265:312,1,87.5,8|0,0:0|0:0,0:0:0:0:
232,247,85763,2,0,P|189:237|148:251,1,87.5,4|0,0:0|0:0,0:0:0:0:
71,290,86250,2,0,L|23:284,4,43.7499976158143,8|8|8|8|0,0:0|0:0|0:0|0:0|0:0,0:0:0:0:
