osu file format v14

[General]
AudioFilename: audio.mp3
AudioLeadIn: 0
PreviewTime: 115834
Countdown: 0
SampleSet: None
StackLeniency: 0.7
Mode: 3
LetterboxInBreaks: 0
SpecialStyle: 0
WidescreenStoryboard: 0

[Editor]
Bookmarks: 43179,61640,70871,80102,153948
DistanceSpacing: 1.2
BeatDivisor: 4
GridSize: 4
TimelineZoom: 2.699999

[Metadata]
Title:Deus ex Machina
TitleUnicode:Deus ex Machina
Artist:Seiryu x BlackY
ArtistUnicode:青龍×BlackY
Creator:Arzenvald
Version:Harder
Source:
Tags:Syadow- DoNotMess Ajeemaniz ExUsagi AO-∞ Infinity QWCE-90007 EXIT TUNES REFLEC BEAT plus Ryu☆ Ryu*
BeatmapID:1305910
BeatmapSetID:617550

[Difficulty]
HPDrainRate:8
CircleSize:4
OverallDifficulty:8
ApproachRate:5
SliderMultiplier:1.4
SliderTickRate:1

[Events]
//Background and Video events
0,0,"BG.jpg",0,0
//Break Periods
//Storyboard Layer 0 (Background)
//Storyboard Layer 1 (Fail)
//Storyboard Layer 2 (Pass)
//Storyboard Layer 3 (Foreground)
//Storyboard Layer 4 (Overlay)
//Storyboard Sound Samples

[TimingPoints]
1680,288.461538461538,4,3,1,50,1,0
10910,-100,4,3,1,70,0,0
20176,-100,4,3,1,50,0,0
20718,-100,4,3,1,50,0,0
23603,-100,4,3,1,60,0,0
24756,-100,4,3,1,70,0,0
43218,-100,4,3,1,70,0,1
61679,-100,4,3,1,70,0,1
80141,-100,4,3,1,70,0,0
89371,-100,4,3,1,40,0,0
89372,-100,4,3,1,40,0,0
98603,-100,4,3,1,50,0,0
107833,-100,4,3,1,60,0,0
117064,-100,4,3,1,70,0,1
152833,-100,4,3,1,70,0,0
153987,-100,4,3,1,70,0,1
154005,-100,4,3,1,70,0,0
154131,-100,4,3,1,70,0,0

[HitObjects]
64,192,1679,1,4,0:0:0:0:
192,192,1679,1,2,0:0:0:0:
448,192,1679,1,0,0:0:0:0:
64,192,1968,1,0,0:0:0:0:
192,192,2112,1,0,0:0:0:0:
448,192,2256,1,8,0:0:0:0:
64,192,2401,1,0,0:0:0:0:
448,192,2545,1,0,0:0:0:0:
192,192,2689,1,0,0:0:0:0:
64,192,2833,1,0,0:0:0:0:
192,192,3122,1,0,0:0:0:0:
320,192,3410,1,8,0:0:0:0:
192,192,3699,1,0,0:0:0:0:
320,192,3843,1,0,0:0:0:0:
448,192,3987,1,0,0:0:0:0:
320,192,4276,1,0,0:0:0:0:
192,192,4420,1,0,0:0:0:0:
448,192,4564,1,8,0:0:0:0:
320,192,4636,1,0,0:0:0:0:
192,192,4708,1,0,0:0:0:0:
64,192,4997,1,0,0:0:0:0:
192,192,5069,1,0,0:0:0:0:
320,192,5141,1,0,0:0:0:0:
448,192,5285,1,0,0:0:0:0:
64,192,5429,1,0,0:0:0:0:
320,192,5718,128,0,6295:0:0:0:0:
64,192,6295,1,4,0:0:0:0:
448,192,6295,1,2,0:0:0:0:
192,192,6583,1,0,0:0:0:0:
320,192,6728,1,2,0:0:0:0:
448,192,6728,1,0,0:0:0:0:
64,192,7160,1,2,0:0:0:0:
192,192,7160,1,0,0:0:0:0:
320,192,7304,1,2,0:0:0:0:
448,192,7304,1,0,0:0:0:0:
64,192,7449,1,0,0:0:0:0:
192,192,7737,1,0,0:0:0:0:
64,192,8026,1,8,0:0:0:0:
448,192,8314,1,2,0:0:0:0:
320,192,8386,1,2,0:0:0:0:
192,192,8458,1,2,0:0:0:0:
64,192,8530,1,2,0:0:0:0:
320,192,8603,1,4,0:0:0:0:
448,192,8603,1,2,0:0:0:0:
192,192,8891,1,0,0:0:0:0:
320,192,9035,1,4,0:0:0:0:
448,192,9035,1,2,0:0:0:0:
64,192,9179,1,8,0:0:0:0:
448,192,9468,1,6,0:0:0:0:
64,192,9612,1,2,0:0:0:0:
192,192,9684,1,2,0:0:0:0:
320,192,9756,1,4,0:0:0:0:
448,192,9756,1,2,0:0:0:0:
64,192,9973,1,4,0:0:0:0:
192,192,9973,1,2,0:0:0:0:
320,192,10189,1,4,0:0:0:0:
448,192,10189,1,2,0:0:0:0:
64,192,10333,128,6,10910:0:0:0:0:
192,192,10910,1,12,0:0:0:0:
448,192,10910,1,2,0:0:0:0:
64,192,11199,1,2,0:0:0:0:
192,192,11343,1,0,0:0:0:0:
320,192,11487,1,2,0:0:0:0:
448,192,11487,1,0,0:0:0:0:
64,192,11631,1,0,0:0:0:0:
192,192,11776,1,2,0:0:0:0:
448,192,11920,1,0,0:0:0:0:
192,192,12064,1,8,0:0:0:0:
320,192,12064,1,2,0:0:0:0:
64,192,12353,1,2,0:0:0:0:
320,192,12641,1,2,0:0:0:0:
448,192,12641,1,0,0:0:0:0:
192,192,12929,1,2,0:0:0:0:
320,192,13074,1,0,0:0:0:0:
64,192,13218,1,8,0:0:0:0:
448,192,13218,1,2,0:0:0:0:
192,192,13506,1,2,0:0:0:0:
448,192,13651,1,0,0:0:0:0:
320,192,13723,1,0,0:0:0:0:
64,192,13795,1,2,0:0:0:0:
448,192,13867,1,0,0:0:0:0:
320,192,13939,1,0,0:0:0:0:
64,192,14228,1,0,0:0:0:0:
192,192,14300,1,0,0:0:0:0:
320,192,14372,1,8,0:0:0:0:
448,192,14372,1,2,0:0:0:0:
192,192,14516,1,0,0:0:0:0:
64,192,14660,1,2,0:0:0:0:
320,192,14804,1,2,0:0:0:0:
192,192,14949,1,8,0:0:0:0:
448,192,14949,1,2,0:0:0:0:
64,192,15165,1,8,0:0:0:0:
320,192,15165,1,2,0:0:0:0:
192,192,15381,1,2,0:0:0:0:
320,192,15526,1,12,0:0:0:0:
448,192,15526,1,2,0:0:0:0:
192,192,15670,1,2,0:0:0:0:
448,192,15814,1,2,0:0:0:0:
192,192,15958,1,2,0:0:0:0:
64,192,16103,1,8,0:0:0:0:
448,192,16103,1,2,0:0:0:0:
320,192,16247,1,2,0:0:0:0:
448,192,16391,1,2,0:0:0:0:
320,192,16535,1,2,0:0:0:0:
64,192,16679,1,8,0:0:0:0:
192,192,16679,1,2,0:0:0:0:
448,192,16824,1,2,0:0:0:0:
192,192,16968,1,2,0:0:0:0:
448,192,17112,1,2,0:0:0:0:
64,192,17256,1,8,0:0:0:0:
320,192,17256,1,2,0:0:0:0:
192,192,17401,1,2,0:0:0:0:
64,192,17545,1,2,0:0:0:0:
192,192,17689,1,2,0:0:0:0:
320,192,17833,1,8,0:0:0:0:
448,192,17833,1,2,0:0:0:0:
192,192,17978,1,2,0:0:0:0:
64,192,18122,1,2,0:0:0:0:
320,192,18122,1,8,0:0:0:0:
192,192,18266,1,2,0:0:0:0:
320,192,18410,1,8,0:0:0:0:
448,192,18410,1,2,0:0:0:0:
192,192,18554,1,2,0:0:0:0:
64,192,18627,1,2,0:0:0:0:
448,192,18627,1,0,0:0:0:0:
320,192,18699,1,10,0:0:0:0:
192,192,18843,1,2,0:0:0:0:
320,192,18987,1,8,0:0:0:0:
448,192,18987,1,2,0:0:0:0:
64,192,19204,1,8,0:0:0:0:
192,192,19204,1,2,0:0:0:0:
320,192,19420,1,8,0:0:0:0:
448,192,19420,1,2,0:0:0:0:
64,192,19636,1,8,0:0:0:0:
192,192,19636,1,2,0:0:0:0:
320,192,19853,1,8,0:0:0:0:
448,192,19853,1,2,0:0:0:0:
64,192,19997,1,8,0:0:0:0:
192,192,19997,1,2,0:0:0:0:
320,192,20141,1,12,0:0:0:0:
448,192,20141,128,2,20718:0:0:0:0:
64,192,20718,128,0,22449:0:0:0:0:
448,192,21872,128,2,22449:0:0:0:0:
320,192,22449,128,2,23026:0:0:0:0:
192,192,23026,128,2,23603:0:0:0:0:
448,192,23603,128,2,24179:0:0:0:0:
64,192,24179,1,2,0:0:0:0:
192,192,24252,1,2,0:0:0:0:
320,192,24324,1,2,0:0:0:0:
448,192,24396,1,2,0:0:0:0:
64,192,24468,1,2,0:0:0:0:
192,192,24540,1,2,0:0:0:0:
320,192,24612,1,2,0:0:0:0:
448,192,24684,1,2,0:0:0:0:
64,192,24756,1,4,0:0:0:0:
192,192,24756,1,2,0:0:0:0:
448,192,25045,1,2,0:0:0:0:
64,192,25189,1,0,0:0:0:0:
320,192,25189,1,0,0:0:0:0:
448,192,25333,1,2,0:0:0:0:
192,192,25478,1,0,0:0:0:0:
64,192,25622,1,2,0:0:0:0:
448,192,25622,1,0,0:0:0:0:
320,192,25910,1,2,0:0:0:0:
192,192,26054,1,0,0:0:0:0:
448,192,26054,1,0,0:0:0:0:
64,192,26343,1,0,0:0:0:0:
320,192,26343,1,0,0:0:0:0:
192,192,26631,1,0,0:0:0:0:
448,192,26631,1,0,0:0:0:0:
64,192,26848,1,0,0:0:0:0:
320,192,26848,1,0,0:0:0:0:
64,192,27064,1,2,0:0:0:0:
192,192,27064,1,0,0:0:0:0:
320,192,27353,1,2,0:0:0:0:
192,192,27497,1,0,0:0:0:0:
448,192,27497,1,0,0:0:0:0:
64,192,27641,1,2,0:0:0:0:
192,192,27785,1,0,0:0:0:0:
64,192,27929,1,2,0:0:0:0:
320,192,27929,1,0,0:0:0:0:
64,192,28218,1,2,0:0:0:0:
192,192,28362,1,0,0:0:0:0:
448,192,28362,1,0,0:0:0:0:
64,192,28651,1,0,0:0:0:0:
320,192,28651,1,0,0:0:0:0:
448,192,28939,1,0,0:0:0:0:
320,192,29155,1,0,0:0:0:0:
64,192,29372,1,2,0:0:0:0:
192,192,29372,1,0,0:0:0:0:
320,192,29660,1,2,0:0:0:0:
64,192,29804,1,0,0:0:0:0:
448,192,29804,1,0,0:0:0:0:
192,192,29949,1,2,0:0:0:0:
320,192,30093,1,0,0:0:0:0:
64,192,30237,1,2,0:0:0:0:
448,192,30237,1,0,0:0:0:0:
192,192,30526,1,2,0:0:0:0:
320,192,30670,1,0,0:0:0:0:
448,192,30670,1,0,0:0:0:0:
64,192,30958,1,0,0:0:0:0:
192,192,30958,1,0,0:0:0:0:
192,192,31247,1,0,0:0:0:0:
448,192,31247,1,0,0:0:0:0:
192,192,31463,1,0,0:0:0:0:
320,192,31463,1,0,0:0:0:0:
64,192,31679,1,2,0:0:0:0:
320,192,31679,1,0,0:0:0:0:
192,192,31968,1,2,0:0:0:0:
64,192,32112,1,0,0:0:0:0:
320,192,32112,1,0,0:0:0:0:
448,192,32256,1,2,0:0:0:0:
192,192,32401,1,0,0:0:0:0:
320,192,32545,1,2,0:0:0:0:
448,192,32545,1,0,0:0:0:0:
192,192,32833,1,2,0:0:0:0:
192,192,32978,1,2,0:0:0:0:
64,192,33122,1,4,0:0:0:0:
448,192,33122,1,2,0:0:0:0:
320,192,33410,1,2,0:0:0:0:
448,192,33410,1,0,0:0:0:0:
64,192,33554,1,2,0:0:0:0:
192,192,33554,1,0,0:0:0:0:
320,192,33699,1,4,0:0:0:0:
448,192,33699,1,2,0:0:0:0:
64,192,33987,1,2,0:0:0:0:
448,192,33987,1,0,0:0:0:0:
64,192,34131,1,2,0:0:0:0:
192,192,34276,1,8,0:0:0:0:
320,192,34420,1,0,0:0:0:0:
448,192,34420,1,0,0:0:0:0:
64,192,34564,1,2,0:0:0:0:
192,192,34708,1,0,0:0:0:0:
64,192,34853,1,8,0:0:0:0:
320,192,34853,1,0,0:0:0:0:
448,192,34997,1,0,0:0:0:0:
192,192,35141,1,2,0:0:0:0:
320,192,35285,1,0,0:0:0:0:
448,192,35285,1,0,0:0:0:0:
192,192,35429,1,8,0:0:0:0:
64,192,35574,1,0,0:0:0:0:
448,192,35574,1,0,0:0:0:0:
320,192,35718,1,2,0:0:0:0:
64,192,35862,1,0,0:0:0:0:
192,192,35862,1,0,0:0:0:0:
320,192,36079,1,0,0:0:0:0:
448,192,36079,1,0,0:0:0:0:
64,192,36295,1,2,0:0:0:0:
192,192,36295,1,0,0:0:0:0:
320,192,36439,1,0,0:0:0:0:
192,192,36583,1,8,0:0:0:0:
320,192,36728,1,0,0:0:0:0:
448,192,36728,1,0,0:0:0:0:
64,192,36872,1,2,0:0:0:0:
192,192,37016,1,0,0:0:0:0:
64,192,37160,1,8,0:0:0:0:
320,192,37160,1,0,0:0:0:0:
448,192,37304,1,0,0:0:0:0:
192,192,37449,1,2,0:0:0:0:
320,192,37593,1,0,0:0:0:0:
448,192,37593,1,0,0:0:0:0:
192,192,37737,1,8,0:0:0:0:
64,192,37881,1,0,0:0:0:0:
320,192,37881,1,0,0:0:0:0:
448,192,38026,1,2,0:0:0:0:
192,192,38170,1,2,0:0:0:0:
320,192,38170,1,0,0:0:0:0:
64,192,38386,1,0,0:0:0:0:
448,192,38386,1,0,0:0:0:0:
192,192,38603,1,4,0:0:0:0:
320,192,38603,1,2,0:0:0:0:
64,192,38747,1,2,0:0:0:0:
192,192,38891,1,8,0:0:0:0:
320,192,39035,1,0,0:0:0:0:
448,192,39035,1,0,0:0:0:0:
192,192,39179,1,2,0:0:0:0:
64,192,39324,1,0,0:0:0:0:
192,192,39468,1,8,0:0:0:0:
448,192,39468,1,0,0:0:0:0:
320,192,39612,1,0,0:0:0:0:
64,192,39756,1,4,0:0:0:0:
192,192,39756,1,2,0:0:0:0:
64,192,39901,1,2,0:0:0:0:
448,192,39901,1,0,0:0:0:0:
320,192,40045,1,8,0:0:0:0:
64,192,40189,1,2,0:0:0:0:
192,192,40189,1,0,0:0:0:0:
320,192,40333,1,2,0:0:0:0:
192,192,40478,1,2,0:0:0:0:
448,192,40478,1,0,0:0:0:0:
448,192,40622,1,8,0:0:0:0:
64,192,40694,1,2,0:0:0:0:
320,192,40694,1,0,0:0:0:0:
320,192,40910,1,4,0:0:0:0:
448,192,40910,1,2,0:0:0:0:
64,192,41054,1,2,0:0:0:0:
320,192,41199,1,8,0:0:0:0:
448,192,41199,1,0,0:0:0:0:
64,192,41343,1,2,0:0:0:0:
192,192,41487,1,6,0:0:0:0:
320,192,41559,1,2,0:0:0:0:
448,192,41631,1,2,0:0:0:0:
64,192,41704,1,2,0:0:0:0:
192,192,41776,1,8,0:0:0:0:
320,192,41848,1,2,0:0:0:0:
448,192,41920,1,2,0:0:0:0:
64,192,41992,1,2,0:0:0:0:
192,192,42064,1,4,0:0:0:0:
320,192,42064,1,2,0:0:0:0:
64,192,42929,1,8,1:0:0:0:
320,192,42929,1,0,0:0:0:0:
448,192,42929,1,0,0:0:0:0:
192,192,43218,1,4,0:0:0:0:
320,192,43218,1,2,0:0:0:0:
64,192,43362,1,0,0:0:0:0:
192,192,43506,1,8,0:0:0:0:
320,192,43651,1,0,0:0:0:0:
64,192,43795,1,2,0:0:0:0:
448,192,43795,1,0,0:0:0:0:
320,192,43939,1,0,0:0:0:0:
192,192,44083,1,8,0:0:0:0:
448,192,44228,1,0,0:0:0:0:
64,192,44372,1,2,0:0:0:0:
320,192,44372,1,0,0:0:0:0:
192,192,44660,1,8,0:0:0:0:
320,192,44660,1,0,0:0:0:0:
192,192,44949,1,2,0:0:0:0:
448,192,44949,1,0,0:0:0:0:
64,192,45237,1,8,0:0:0:0:
192,192,45381,1,0,0:0:0:0:
320,192,45526,1,2,0:0:0:0:
448,192,45526,1,0,0:0:0:0:
64,192,45814,1,8,0:0:0:0:
320,192,45958,1,0,0:0:0:0:
192,192,46030,1,0,0:0:0:0:
448,192,46103,1,2,0:0:0:0:
320,192,46175,1,0,0:0:0:0:
64,192,46247,1,0,0:0:0:0:
64,192,46535,1,0,0:0:0:0:
192,192,46607,1,0,0:0:0:0:
320,192,46679,1,2,0:0:0:0:
448,192,46679,1,0,0:0:0:0:
64,192,46968,1,8,0:0:0:0:
192,192,46968,1,0,0:0:0:0:
448,192,47256,128,2,47545:0:0:0:0:
64,192,47545,1,8,0:0:0:0:
192,192,47617,1,0,0:0:0:0:
320,192,47689,1,2,0:0:0:0:
448,192,47761,1,0,0:0:0:0:
64,192,47833,1,2,0:0:0:0:
192,192,47978,1,0,0:0:0:0:
320,192,48122,1,8,0:0:0:0:
192,192,48266,1,0,0:0:0:0:
320,192,48410,1,2,0:0:0:0:
448,192,48410,1,0,0:0:0:0:
64,192,48554,1,0,0:0:0:0:
192,192,48699,1,8,0:0:0:0:
448,192,48843,1,0,0:0:0:0:
192,192,48987,1,2,0:0:0:0:
320,192,48987,1,0,0:0:0:0:
64,192,49276,1,8,0:0:0:0:
192,192,49276,1,0,0:0:0:0:
448,192,49564,1,2,0:0:0:0:
320,192,49708,1,0,0:0:0:0:
192,192,49853,1,8,0:0:0:0:
64,192,49925,1,0,0:0:0:0:
448,192,49997,1,2,0:0:0:0:
320,192,50069,1,0,0:0:0:0:
64,192,50141,1,4,0:0:0:0:
192,192,50141,1,2,0:0:0:0:
320,192,50429,1,2,0:0:0:0:
64,192,50574,1,4,0:0:0:0:
448,192,50574,1,2,0:0:0:0:
320,192,50862,1,4,0:0:0:0:
448,192,50862,1,2,0:0:0:0:
64,192,51006,1,0,0:0:0:0:
320,192,51151,1,4,0:0:0:0:
448,192,51151,1,2,0:0:0:0:
64,192,51439,1,2,0:0:0:0:
448,192,51439,1,0,0:0:0:0:
192,192,51583,1,4,0:0:0:0:
320,192,51583,1,2,0:0:0:0:
192,192,51872,1,2,0:0:0:0:
320,192,51872,1,0,0:0:0:0:
64,192,52016,1,4,0:0:0:0:
448,192,52016,1,2,0:0:0:0:
64,192,52449,1,4,0:0:0:0:
320,192,52449,1,2,0:0:0:0:
448,192,52449,1,0,0:0:0:0:
192,192,52593,1,0,0:0:0:0:
320,192,52737,1,8,0:0:0:0:
192,192,52881,1,0,0:0:0:0:
64,192,53026,1,2,0:0:0:0:
448,192,53026,1,0,0:0:0:0:
192,192,53170,1,0,0:0:0:0:
320,192,53314,1,8,0:0:0:0:
448,192,53458,1,0,0:0:0:0:
192,192,53603,1,2,0:0:0:0:
320,192,53603,1,0,0:0:0:0:
64,192,53891,1,8,0:0:0:0:
192,192,53891,1,0,0:0:0:0:
320,192,54179,1,2,0:0:0:0:
448,192,54179,1,0,0:0:0:0:
192,192,54324,1,0,0:0:0:0:
64,192,54468,1,8,0:0:0:0:
320,192,54612,1,0,0:0:0:0:
192,192,54756,1,4,0:0:0:0:
448,192,54756,1,2,0:0:0:0:
64,192,54901,1,0,0:0:0:0:
320,192,55045,1,8,0:0:0:0:
448,192,55189,1,0,0:0:0:0:
320,192,55261,1,0,0:0:0:0:
64,192,55333,1,2,0:0:0:0:
192,192,55405,1,0,0:0:0:0:
320,192,55478,1,0,0:0:0:0:
192,192,55766,1,0,0:0:0:0:
320,192,55838,1,0,0:0:0:0:
64,192,55910,1,2,0:0:0:0:
448,192,55910,1,0,0:0:0:0:
320,192,56054,1,8,0:0:0:0:
64,192,56199,1,8,0:0:0:0:
192,192,56199,1,0,0:0:0:0:
320,192,56343,1,0,0:0:0:0:
448,192,56487,128,2,56776:0:0:0:0:
64,192,56776,1,8,0:0:0:0:
192,192,56848,1,0,0:0:0:0:
320,192,56920,1,0,0:0:0:0:
64,192,56992,1,0,0:0:0:0:
192,192,57064,1,4,0:0:0:0:
448,192,57064,1,2,0:0:0:0:
320,192,57208,1,0,0:0:0:0:
64,192,57353,1,8,0:0:0:0:
192,192,57497,1,0,0:0:0:0:
320,192,57641,1,2,0:0:0:0:
448,192,57641,1,0,0:0:0:0:
192,192,57785,1,0,0:0:0:0:
64,192,57929,1,8,0:0:0:0:
448,192,58074,1,2,0:0:0:0:
320,192,58146,1,2,0:0:0:0:
64,192,58218,1,4,0:0:0:0:
192,192,58218,1,2,0:0:0:0:
448,192,58362,1,2,0:0:0:0:
192,192,58506,1,8,0:0:0:0:
320,192,58506,1,0,0:0:0:0:
64,192,58651,1,2,0:0:0:0:
192,192,58795,1,2,0:0:0:0:
448,192,58795,1,0,0:0:0:0:
192,192,59083,1,2,0:0:0:0:
320,192,59083,1,8,0:0:0:0:
64,192,59372,1,4,0:0:0:0:
320,192,59372,1,2,0:0:0:0:
448,192,59372,1,0,0:0:0:0:
320,192,59660,1,8,0:0:0:0:
448,192,59660,1,2,0:0:0:0:
64,192,59804,1,4,0:0:0:0:
192,192,59804,1,2,0:0:0:0:
192,192,60093,1,4,0:0:0:0:
320,192,60093,1,2,0:0:0:0:
320,192,60381,1,4,0:0:0:0:
448,192,60381,1,2,0:0:0:0:
192,192,60670,1,2,0:0:0:0:
192,192,60814,1,4,0:0:0:0:
320,192,60814,1,2,0:0:0:0:
64,192,61103,128,2,61679:0:0:0:0:
448,192,61103,128,0,61679:0:0:0:0:
192,192,61391,1,8,0:0:0:0:
320,192,61391,1,0,0:0:0:0:
192,192,61679,1,4,0:0:0:0:
320,192,61679,1,2,0:0:0:0:
448,192,61824,128,0,61968:0:0:0:0:
64,192,61968,128,0,62112:0:0:0:0:
320,192,62112,128,2,62256:0:0:0:0:
192,192,62256,128,0,62401:0:0:0:0:
448,192,62401,128,8,62545:0:0:0:0:
64,192,62545,1,2,0:0:0:0:
64,192,62689,128,2,62833:0:0:0:0:
448,192,62978,128,2,63122:0:0:0:0:
320,192,63122,128,2,63266:0:0:0:0:
64,192,63266,128,0,63410:0:0:0:0:
192,192,63410,128,0,63554:0:0:0:0:
448,192,63554,128,0,63699:0:0:0:0:
192,192,63699,128,0,63843:0:0:0:0:
320,192,63843,128,0,63987:0:0:0:0:
64,192,63987,1,2,0:0:0:0:
320,192,64131,128,0,64276:0:0:0:0:
192,192,64276,128,0,64420:0:0:0:0:
448,192,64420,128,2,64564:0:0:0:0:
64,192,64564,128,0,64708:0:0:0:0:
192,192,64708,128,0,64853:0:0:0:0:
448,192,64853,1,2,0:0:0:0:
448,192,64997,128,2,65141:0:0:0:0:
192,192,65285,128,2,65429:0:0:0:0:
320,192,65429,128,10,65574:0:0:0:0:
448,192,65574,128,2,65718:0:0:0:0:
64,192,65718,128,0,65862:0:0:0:0:
320,192,65862,128,2,66006:0:0:0:0:
192,192,66006,128,0,66151:0:0:0:0:
64,192,66151,128,2,66295:0:0:0:0:
320,192,66295,1,2,0:0:0:0:
448,192,66295,1,0,0:0:0:0:
64,192,66439,1,2,0:0:0:0:
192,192,66439,1,0,0:0:0:0:
64,192,66728,1,2,0:0:0:0:
448,192,66728,1,0,0:0:0:0:
192,192,67016,1,2,0:0:0:0:
320,192,67016,1,0,0:0:0:0:
64,192,67304,1,2,0:0:0:0:
448,192,67304,1,0,0:0:0:0:
320,192,67593,128,2,67737:0:0:0:0:
448,192,67737,128,10,67881:0:0:0:0:
192,192,67881,128,2,68026:0:0:0:0:
320,192,68026,128,0,68170:0:0:0:0:
64,192,68170,128,2,68314:0:0:0:0:
192,192,68314,128,0,68458:0:0:0:0:
448,192,68458,128,2,68603:0:0:0:0:
64,192,68603,1,2,0:0:0:0:
192,192,68603,1,0,0:0:0:0:
64,192,68747,1,2,0:0:0:0:
320,192,68891,1,2,0:0:0:0:
448,192,68891,1,0,0:0:0:0:
448,192,69035,1,2,0:0:0:0:
64,192,69324,1,2,0:0:0:0:
192,192,69324,1,0,0:0:0:0:
320,192,69468,1,0,0:0:0:0:
448,192,69468,1,0,0:0:0:0:
192,192,69612,1,2,0:0:0:0:
320,192,69684,1,2,0:0:0:0:
64,192,69756,1,2,0:0:0:0:
448,192,69756,1,0,0:0:0:0:
320,192,69901,1,2,0:0:0:0:
64,192,70045,1,2,0:0:0:0:
192,192,70045,1,8,0:0:0:0:
448,192,70189,1,2,0:0:0:0:
320,192,70261,1,2,0:0:0:0:
64,192,70333,128,0,70910:0:0:0:0:
192,192,70333,1,0,0:0:0:0:
448,192,70910,1,2,0:0:0:0:
320,192,70982,1,2,0:0:0:0:
64,192,71054,1,2,0:0:0:0:
192,192,71127,1,2,0:0:0:0:
320,192,71199,1,2,0:0:0:0:
64,192,71343,1,2,0:0:0:0:
192,192,71415,1,2,0:0:0:0:
320,192,71487,1,2,0:0:0:0:
448,192,71631,1,2,0:0:0:0:
64,192,71776,1,2,0:0:0:0:
192,192,71848,1,2,0:0:0:0:
320,192,71920,1,2,0:0:0:0:
448,192,71992,1,2,0:0:0:0:
192,192,72208,1,2,0:0:0:0:
64,192,72353,1,2,0:0:0:0:
192,192,72425,1,2,0:0:0:0:
448,192,72497,1,2,0:0:0:0:
320,192,72569,1,2,0:0:0:0:
64,192,72641,1,2,0:0:0:0:
448,192,72785,1,2,0:0:0:0:
320,192,72929,1,0,0:0:0:0:
192,192,73074,1,0,0:0:0:0:
64,192,73218,1,2,0:0:0:0:
192,192,73290,1,2,0:0:0:0:
320,192,73362,1,2,0:0:0:0:
448,192,73434,1,2,0:0:0:0:
192,192,73506,1,2,0:0:0:0:
320,192,73651,1,2,0:0:0:0:
64,192,73795,1,2,0:0:0:0:
192,192,73867,1,2,0:0:0:0:
448,192,73939,1,2,0:0:0:0:
320,192,74011,1,2,0:0:0:0:
192,192,74083,1,2,0:0:0:0:
64,192,74155,1,2,0:0:0:0:
320,192,74228,1,2,0:0:0:0:
448,192,74300,1,2,0:0:0:0:
64,192,74372,1,2,0:0:0:0:
192,192,74516,1,2,0:0:0:0:
448,192,74660,1,2,0:0:0:0:
192,192,74804,1,2,0:0:0:0:
320,192,74877,1,2,0:0:0:0:
448,192,74949,1,2,0:0:0:0:
192,192,75021,1,2,0:0:0:0:
64,192,75093,1,2,0:0:0:0:
448,192,75237,1,10,0:0:0:0:
64,192,75526,1,2,0:0:0:0:
192,192,75526,1,0,0:0:0:0:
192,192,75670,1,2,0:0:0:0:
64,192,75814,1,2,0:0:0:0:
320,192,75814,1,0,0:0:0:0:
448,192,75958,1,2,0:0:0:0:
320,192,76030,1,2,0:0:0:0:
64,192,76103,1,2,0:0:0:0:
192,192,76103,1,0,0:0:0:0:
320,192,76247,1,2,0:0:0:0:
448,192,76247,1,0,0:0:0:0:
64,192,76391,128,2,76535:0:0:0:0:
192,192,76391,1,0,0:0:0:0:
320,192,76535,1,2,0:0:0:0:
448,192,76535,128,0,76679:0:0:0:0:
64,192,76679,1,2,0:0:0:0:
192,192,76679,1,0,0:0:0:0:
192,192,76824,1,2,0:0:0:0:
64,192,76968,1,2,0:0:0:0:
448,192,76968,1,0,0:0:0:0:
320,192,77112,128,2,77256:0:0:0:0:
64,192,77256,1,2,0:0:0:0:
448,192,77256,1,0,0:0:0:0:
192,192,77401,128,2,77545:0:0:0:0:
64,192,77545,1,2,0:0:0:0:
448,192,77545,1,0,0:0:0:0:
320,192,77689,128,2,77833:0:0:0:0:
64,192,77833,1,2,0:0:0:0:
192,192,77833,1,0,0:0:0:0:
64,192,77978,1,2,0:0:0:0:
192,192,77978,1,0,0:0:0:0:
320,192,78122,1,2,0:0:0:0:
448,192,78122,1,0,0:0:0:0:
320,192,78266,1,2,0:0:0:0:
448,192,78266,1,0,0:0:0:0:
64,192,78410,1,2,0:0:0:0:
448,192,78410,1,0,0:0:0:0:
192,192,78482,1,2,0:0:0:0:
320,192,78554,1,2,0:0:0:0:
192,192,78627,1,2,0:0:0:0:
64,192,78699,1,2,0:0:0:0:
448,192,78699,1,0,0:0:0:0:
320,192,78771,1,2,0:0:0:0:
192,192,78843,1,2,0:0:0:0:
320,192,78915,1,2,0:0:0:0:
64,192,78987,1,2,0:0:0:0:
192,192,78987,1,2,2:0:0:0:
64,192,80141,1,6,0:0:0:0:
448,192,80141,1,2,2:0:0:0:
192,192,80429,1,0,0:0:0:0:
320,192,80574,1,0,0:0:0:0:
64,192,80718,1,2,0:0:0:0:
448,192,80718,1,0,0:0:0:0:
320,192,80862,1,0,0:0:0:0:
192,192,81006,1,0,0:0:0:0:
320,192,81151,1,0,0:0:0:0:
64,192,81295,1,4,0:0:0:0:
448,192,81295,1,2,0:0:0:0:
192,192,81439,1,0,0:0:0:0:
320,192,81583,1,0,0:0:0:0:
192,192,81728,1,0,0:0:0:0:
64,192,81872,1,2,0:0:0:0:
448,192,81872,1,0,0:0:0:0:
320,192,82016,1,0,0:0:0:0:
448,192,82160,1,0,0:0:0:0:
64,192,82304,1,2,0:0:0:0:
320,192,82449,1,4,0:0:0:0:
448,192,82449,1,2,0:0:0:0:
64,192,82593,1,0,0:0:0:0:
192,192,82737,1,0,0:0:0:0:
320,192,82881,1,0,0:0:0:0:
64,192,83026,1,2,0:0:0:0:
448,192,83026,1,0,0:0:0:0:
320,192,83242,1,2,0:0:0:0:
448,192,83458,1,2,0:0:0:0:
64,192,83603,1,4,0:0:0:0:
192,192,83603,1,2,0:0:0:0:
320,192,83819,1,2,0:0:0:0:
448,192,84035,1,2,0:0:0:0:
192,192,84179,1,2,0:0:0:0:
320,192,84179,1,0,0:0:0:0:
64,192,84324,1,2,0:0:0:0:
448,192,84468,1,0,0:0:0:0:
64,192,84756,1,4,0:0:0:0:
448,192,84756,1,2,0:0:0:0:
320,192,84901,1,2,0:0:0:0:
192,192,85045,1,2,0:0:0:0:
448,192,85189,1,2,0:0:0:0:
64,192,85333,1,4,0:0:0:0:
320,192,85333,1,2,0:0:0:0:
192,192,85478,1,2,0:0:0:0:
320,192,85622,1,2,0:0:0:0:
64,192,85766,1,2,0:0:0:0:
192,192,85910,1,4,0:0:0:0:
448,192,85910,1,2,0:0:0:0:
320,192,86054,1,2,0:0:0:0:
192,192,86199,1,2,0:0:0:0:
448,192,86343,1,2,0:0:0:0:
64,192,86487,1,4,0:0:0:0:
320,192,86487,1,2,0:0:0:0:
192,192,86631,1,2,0:0:0:0:
320,192,86776,1,2,0:0:0:0:
64,192,87064,1,4,0:0:0:0:
448,192,87064,1,2,0:0:0:0:
320,192,87136,1,2,0:0:0:0:
192,192,87208,1,2,0:0:0:0:
320,192,87280,1,2,0:0:0:0:
448,192,87353,1,2,0:0:0:0:
192,192,87425,1,2,0:0:0:0:
64,192,87497,1,2,0:0:0:0:
192,192,87569,1,2,0:0:0:0:
320,192,87641,1,2,0:0:0:0:
448,192,87713,1,2,0:0:0:0:
192,192,87785,1,2,0:0:0:0:
320,192,87857,1,2,0:0:0:0:
448,192,87929,1,2,0:0:0:0:
192,192,88002,1,2,0:0:0:0:
64,192,88074,1,2,0:0:0:0:
192,192,88146,1,2,0:0:0:0:
320,192,88218,1,2,0:0:0:0:
448,192,88290,1,2,0:0:0:0:
192,192,88362,1,2,0:0:0:0:
320,192,88434,1,2,0:0:0:0:
448,192,88506,1,2,0:0:0:0:
64,192,88579,1,2,0:0:0:0:
192,192,88651,1,2,0:0:0:0:
320,192,88723,1,2,0:0:0:0:
448,192,88795,1,2,0:0:0:0:
64,192,88867,1,2,0:0:0:0:
192,192,88939,1,2,0:0:0:0:
320,192,89011,1,2,0:0:0:0:
64,192,89083,1,2,0:0:0:0:
448,192,89083,1,8,1:0:0:0:
64,192,89372,1,4,0:0:0:0:
192,192,89372,128,2,91175:0:0:0:0:
320,192,89372,1,0,0:0:0:0:
64,192,91175,128,0,91896:0:0:0:0:
320,192,91896,128,0,93050:0:0:0:0:
192,192,93050,128,0,94059:0:0:0:0:
448,192,94059,128,0,95213:0:0:0:0:
64,192,95213,128,0,96295:0:0:0:0:
192,192,96439,128,0,98603:0:0:0:0:
320,192,97593,128,0,98603:0:0:0:0:
64,192,98603,1,2,0:0:0:0:
448,192,98603,1,0,0:0:0:0:
320,192,98747,1,0,0:0:0:0:
192,192,98891,1,2,0:0:0:0:
64,192,99035,1,0,0:0:0:0:
320,192,99179,1,8,0:0:0:0:
64,192,99324,1,0,0:0:0:0:
448,192,99468,1,0,0:0:0:0:
320,192,99612,1,8,0:0:0:0:
192,192,99756,1,2,0:0:0:0:
320,192,99901,1,0,0:0:0:0:
192,192,100045,1,2,0:0:0:0:
64,192,100189,1,0,0:0:0:0:
192,192,100333,1,8,0:0:0:0:
320,192,100478,1,0,0:0:0:0:
192,192,100622,1,0,0:0:0:0:
64,192,100766,1,8,0:0:0:0:
320,192,100910,1,2,0:0:0:0:
448,192,101054,1,0,0:0:0:0:
192,192,101199,1,2,0:0:0:0:
320,192,101343,1,0,0:0:0:0:
448,192,101487,1,8,0:0:0:0:
320,192,101631,1,0,0:0:0:0:
192,192,101776,1,0,0:0:0:0:
64,192,101920,1,8,0:0:0:0:
448,192,102064,1,2,0:0:0:0:
192,192,102208,1,0,0:0:0:0:
320,192,102353,1,2,0:0:0:0:
64,192,102497,1,0,0:0:0:0:
192,192,102641,1,8,0:0:0:0:
320,192,102785,1,0,0:0:0:0:
448,192,102929,1,0,0:0:0:0:
320,192,103074,1,8,0:0:0:0:
64,192,103218,1,2,0:0:0:0:
192,192,103362,1,0,0:0:0:0:
320,192,103506,1,2,0:0:0:0:
192,192,103651,1,0,0:0:0:0:
448,192,103795,1,8,0:0:0:0:
320,192,103939,1,0,0:0:0:0:
192,192,104083,1,0,0:0:0:0:
320,192,104228,1,8,0:0:0:0:
448,192,104372,1,2,0:0:0:0:
192,192,104516,1,0,0:0:0:0:
320,192,104660,1,2,0:0:0:0:
64,192,104804,1,0,0:0:0:0:
192,192,104949,1,8,0:0:0:0:
448,192,105093,1,0,0:0:0:0:
320,192,105237,1,0,0:0:0:0:
192,192,105381,1,8,0:0:0:0:
448,192,105526,1,2,0:0:0:0:
320,192,105670,1,2,0:0:0:0:
64,192,105814,1,2,0:0:0:0:
448,192,105958,1,2,0:0:0:0:
192,192,106103,1,10,0:0:0:0:
64,192,106247,1,2,0:0:0:0:
448,192,106391,1,2,0:0:0:0:
64,192,106535,1,10,0:0:0:0:
320,192,106679,1,2,0:0:0:0:
192,192,106824,1,2,0:0:0:0:
448,192,106968,1,2,0:0:0:0:
320,192,107112,1,2,0:0:0:0:
64,192,107256,1,10,0:0:0:0:
448,192,107401,1,2,0:0:0:0:
192,192,107545,1,8,1:0:0:0:
64,192,107689,1,2,0:0:0:0:
320,192,107833,1,4,0:0:0:0:
448,192,107833,1,2,0:0:0:0:
192,192,107978,1,0,0:0:0:0:
64,192,108122,1,0,0:0:0:0:
64,192,108410,1,0,0:0:0:0:
192,192,108554,1,0,0:0:0:0:
320,192,108699,1,0,0:0:0:0:
448,192,108843,1,0,0:0:0:0:
320,192,108987,1,0,0:0:0:0:
192,192,109131,1,0,0:0:0:0:
64,192,109276,1,0,0:0:0:0:
448,192,109420,1,0,0:0:0:0:
192,192,109564,1,0,0:0:0:0:
448,192,109708,1,0,0:0:0:0:
320,192,109853,1,0,0:0:0:0:
192,192,109997,1,0,0:0:0:0:
64,192,110141,1,4,0:0:0:0:
448,192,110141,1,2,0:0:0:0:
320,192,110285,1,0,0:0:0:0:
192,192,110429,1,0,0:0:0:0:
64,192,110574,1,0,0:0:0:0:
192,192,110718,1,0,0:0:0:0:
320,192,110862,1,0,0:0:0:0:
192,192,111006,1,0,0:0:0:0:
448,192,111151,1,0,0:0:0:0:
320,192,111295,1,0,0:0:0:0:
192,192,111439,1,0,0:0:0:0:
64,192,111583,1,0,0:0:0:0:
448,192,111728,1,0,0:0:0:0:
192,192,111872,1,0,0:0:0:0:
320,192,112016,1,0,0:0:0:0:
192,192,112160,1,0,0:0:0:0:
64,192,112304,1,0,0:0:0:0:
320,192,112449,1,4,0:0:0:0:
448,192,112449,1,2,0:0:0:0:
192,192,112593,1,2,0:0:0:0:
320,192,112737,1,2,0:0:0:0:
192,192,112881,1,2,0:0:0:0:
320,192,113026,1,2,0:0:0:0:
192,192,113170,1,2,0:0:0:0:
320,192,113314,1,2,0:0:0:0:
192,192,113458,1,2,0:0:0:0:
320,192,113603,1,4,0:0:0:0:
448,192,113603,1,2,0:0:0:0:
192,192,113747,1,2,0:0:0:0:
320,192,113891,1,2,0:0:0:0:
192,192,114035,1,2,0:0:0:0:
64,192,114179,1,4,0:0:0:0:
320,192,114179,1,2,0:0:0:0:
192,192,114324,1,2,0:0:0:0:
320,192,114468,1,2,0:0:0:0:
192,192,114612,1,2,0:0:0:0:
64,192,114756,1,4,0:0:0:0:
448,192,114756,1,2,0:0:0:0:
192,192,114829,1,2,0:0:0:0:
320,192,114901,1,2,0:0:0:0:
448,192,114973,1,2,0:0:0:0:
64,192,115045,1,6,0:0:0:0:
192,192,115117,1,2,0:0:0:0:
320,192,115189,1,2,0:0:0:0:
448,192,115261,1,2,0:0:0:0:
64,192,115333,1,6,0:0:0:0:
192,192,115405,1,2,0:0:0:0:
448,192,115478,1,6,0:0:0:0:
320,192,115550,1,2,0:0:0:0:
64,192,115622,1,6,0:0:0:0:
192,192,115694,1,2,0:0:0:0:
448,192,115766,1,6,0:0:0:0:
320,192,115838,1,2,0:0:0:0:
64,192,115910,1,4,0:0:0:0:
192,192,115910,1,2,0:0:0:0:
64,192,116776,1,8,1:0:0:0:
320,192,116776,1,8,0:0:0:0:
448,192,116776,1,0,0:0:0:0:
64,192,117064,1,4,0:0:0:0:
192,192,117064,1,2,0:0:0:0:
448,192,117208,1,0,0:0:0:0:
192,192,117353,1,8,0:0:0:0:
320,192,117353,1,0,0:0:0:0:
64,192,117497,1,0,0:0:0:0:
192,192,117641,1,2,0:0:0:0:
320,192,117785,1,0,0:0:0:0:
192,192,117929,1,8,0:0:0:0:
448,192,117929,1,0,0:0:0:0:
448,192,118074,1,0,0:0:0:0:
320,192,118218,1,2,0:0:0:0:
192,192,118362,1,0,0:0:0:0:
64,192,118506,1,8,0:0:0:0:
320,192,118506,1,0,0:0:0:0:
448,192,118651,1,0,0:0:0:0:
320,192,118795,1,2,0:0:0:0:
192,192,118939,1,2,0:0:0:0:
320,192,119083,1,8,0:0:0:0:
448,192,119083,1,0,0:0:0:0:
192,192,119228,1,0,0:0:0:0:
64,192,119372,1,2,0:0:0:0:
192,192,119516,1,0,0:0:0:0:
64,192,119660,1,8,0:0:0:0:
448,192,119660,1,0,0:0:0:0:
320,192,119804,1,0,0:0:0:0:
192,192,119949,1,2,0:0:0:0:
320,192,120093,1,0,0:0:0:0:
64,192,120237,1,8,0:0:0:0:
192,192,120237,1,0,0:0:0:0:
320,192,120381,1,0,0:0:0:0:
448,192,120526,1,2,0:0:0:0:
320,192,120670,1,8,0:0:0:0:
192,192,120814,1,8,0:0:0:0:
320,192,120814,1,0,0:0:0:0:
64,192,120958,1,0,0:0:0:0:
192,192,121103,1,2,0:0:0:0:
192,192,121247,1,2,0:0:0:0:
320,192,121391,1,8,0:0:0:0:
448,192,121391,1,0,0:0:0:0:
64,192,121679,1,4,0:0:0:0:
448,192,121679,1,2,0:0:0:0:
192,192,121824,1,0,0:0:0:0:
64,192,121968,1,8,0:0:0:0:
320,192,121968,1,0,0:0:0:0:
448,192,122112,1,0,0:0:0:0:
64,192,122256,1,2,0:0:0:0:
192,192,122256,1,0,0:0:0:0:
320,192,122401,1,0,0:0:0:0:
192,192,122545,1,8,0:0:0:0:
448,192,122545,1,0,0:0:0:0:
64,192,122689,1,0,0:0:0:0:
192,192,122833,1,2,0:0:0:0:
320,192,122833,1,0,0:0:0:0:
448,192,122978,1,0,0:0:0:0:
64,192,123122,1,8,0:0:0:0:
320,192,123122,1,0,0:0:0:0:
192,192,123266,1,0,0:0:0:0:
320,192,123410,1,2,0:0:0:0:
448,192,123410,1,0,0:0:0:0:
64,192,123554,1,2,0:0:0:0:
192,192,123699,1,8,0:0:0:0:
448,192,123699,1,0,0:0:0:0:
320,192,123843,1,2,0:0:0:0:
64,192,123987,1,2,0:0:0:0:
448,192,123987,1,0,0:0:0:0:
320,192,124131,1,2,0:0:0:0:
64,192,124276,1,8,0:0:0:0:
192,192,124276,1,0,0:0:0:0:
448,192,124420,1,0,0:0:0:0:
192,192,124564,1,2,0:0:0:0:
320,192,124564,1,0,0:0:0:0:
64,192,124708,1,0,0:0:0:0:
192,192,124853,1,8,0:0:0:0:
448,192,124853,1,0,0:0:0:0:
320,192,124997,1,2,0:0:0:0:
64,192,125141,1,2,0:0:0:0:
448,192,125141,128,0,125285:0:0:0:0:
320,192,125285,1,2,0:0:0:0:
64,192,125429,1,4,0:0:0:0:
192,192,125429,128,2,125574:0:0:0:0:
448,192,125574,1,2,0:0:0:0:
64,192,125718,1,4,0:0:0:0:
320,192,125718,1,2,0:0:0:0:
192,192,125790,1,2,0:0:0:0:
320,192,125934,1,2,0:0:0:0:
192,192,126006,1,4,0:0:0:0:
448,192,126006,1,2,0:0:0:0:
320,192,126151,1,2,0:0:0:0:
64,192,126295,1,4,0:0:0:0:
192,192,126295,1,2,0:0:0:0:
448,192,126439,1,0,0:0:0:0:
64,192,126583,1,8,0:0:0:0:
320,192,126583,1,0,0:0:0:0:
448,192,126728,1,0,0:0:0:0:
64,192,126872,1,2,0:0:0:0:
192,192,127016,1,0,0:0:0:0:
64,192,127160,1,8,0:0:0:0:
320,192,127160,1,0,0:0:0:0:
320,192,127304,1,0,0:0:0:0:
448,192,127449,1,2,0:0:0:0:
64,192,127593,1,0,0:0:0:0:
192,192,127737,1,8,0:0:0:0:
448,192,127737,1,0,0:0:0:0:
320,192,127881,1,0,0:0:0:0:
192,192,128026,1,2,0:0:0:0:
64,192,128170,1,2,0:0:0:0:
192,192,128314,1,8,0:0:0:0:
320,192,128314,1,0,0:0:0:0:
64,192,128458,1,0,0:0:0:0:
448,192,128603,1,2,0:0:0:0:
64,192,128747,1,0,0:0:0:0:
320,192,128891,1,8,0:0:0:0:
448,192,128891,1,0,0:0:0:0:
192,192,129035,1,0,0:0:0:0:
64,192,129179,1,2,0:0:0:0:
320,192,129324,1,0,0:0:0:0:
64,192,129468,1,8,0:0:0:0:
448,192,129468,1,0,0:0:0:0:
192,192,129612,1,0,0:0:0:0:
320,192,129756,1,2,0:0:0:0:
192,192,129901,1,8,0:0:0:0:
64,192,130045,1,8,0:0:0:0:
448,192,130045,1,0,0:0:0:0:
320,192,130189,1,0,0:0:0:0:
64,192,130333,1,2,0:0:0:0:
448,192,130478,1,2,0:0:0:0:
192,192,130622,1,8,0:0:0:0:
320,192,130622,1,0,0:0:0:0:
64,192,130766,1,0,0:0:0:0:
320,192,130910,1,4,0:0:0:0:
448,192,130910,1,2,0:0:0:0:
64,192,131054,1,0,0:0:0:0:
192,192,131199,1,8,0:0:0:0:
320,192,131343,1,4,0:0:0:0:
448,192,131343,1,0,0:0:0:0:
64,192,131487,1,2,0:0:0:0:
192,192,131631,1,4,0:0:0:0:
320,192,131631,1,0,0:0:0:0:
64,192,131776,1,8,0:0:0:0:
320,192,131920,1,4,0:0:0:0:
448,192,131920,1,0,0:0:0:0:
64,192,132064,1,2,0:0:0:0:
320,192,132208,1,4,0:0:0:0:
448,192,132208,1,2,0:0:0:0:
64,192,132353,1,8,0:0:0:0:
192,192,132353,1,4,0:0:0:0:
320,192,132497,1,4,0:0:0:0:
448,192,132497,1,2,0:0:0:0:
192,192,132641,1,2,0:0:0:0:
320,192,132785,1,4,0:0:0:0:
448,192,132785,1,2,0:0:0:0:
64,192,132929,1,8,0:0:0:0:
192,192,132929,1,0,0:0:0:0:
320,192,133218,1,4,0:0:0:0:
448,192,133218,1,2,0:0:0:0:
192,192,133362,1,2,0:0:0:0:
64,192,133506,1,8,0:0:0:0:
320,192,133506,1,0,0:0:0:0:
448,192,133651,1,2,0:0:0:0:
192,192,133795,1,4,0:0:0:0:
320,192,133795,1,2,0:0:0:0:
64,192,133939,1,2,0:0:0:0:
320,192,134083,1,8,0:0:0:0:
448,192,134083,1,0,0:0:0:0:
192,192,134228,1,2,0:0:0:0:
448,192,134372,1,6,0:0:0:0:
64,192,134444,1,2,0:0:0:0:
192,192,134516,1,2,0:0:0:0:
320,192,134588,1,2,0:0:0:0:
448,192,134660,1,12,0:0:0:0:
64,192,134732,1,2,0:0:0:0:
192,192,134804,1,2,0:0:0:0:
320,192,134877,1,2,0:0:0:0:
64,192,134949,1,4,0:0:0:0:
448,192,134949,128,2,135237:0:0:0:0:
64,192,135237,1,12,0:0:0:0:
192,192,135309,1,2,0:0:0:0:
320,192,135381,1,2,0:0:0:0:
448,192,135454,1,2,0:0:0:0:
64,192,135526,1,4,0:0:0:0:
192,192,135526,1,2,0:0:0:0:
320,192,135670,128,0,135814:0:0:0:0:
448,192,135814,128,8,135958:0:0:0:0:
192,192,135958,128,0,136103:0:0:0:0:
320,192,136103,128,2,136247:0:0:0:0:
64,192,136247,128,0,136391:0:0:0:0:
192,192,136391,128,8,136535:0:0:0:0:
448,192,136535,128,0,136679:0:0:0:0:
320,192,136679,1,2,0:0:0:0:
192,192,136824,1,0,0:0:0:0:
64,192,136968,1,8,0:0:0:0:
320,192,136968,1,0,0:0:0:0:
448,192,137112,1,0,0:0:0:0:
192,192,137256,1,2,0:0:0:0:
320,192,137401,1,2,0:0:0:0:
64,192,137545,1,8,0:0:0:0:
192,192,137545,1,0,0:0:0:0:
448,192,137689,1,0,0:0:0:0:
64,192,137833,128,2,137978:0:0:0:0:
192,192,137978,128,0,138122:0:0:0:0:
320,192,138122,128,8,138266:0:0:0:0:
448,192,138266,128,0,138410:0:0:0:0:
64,192,138410,1,2,0:0:0:0:
320,192,138554,128,0,138699:0:0:0:0:
192,192,138699,128,8,138843:0:0:0:0:
64,192,138843,128,0,138987:0:0:0:0:
448,192,138987,1,2,0:0:0:0:
320,192,139131,1,8,0:0:0:0:
64,192,139276,1,8,0:0:0:0:
192,192,139276,1,0,0:0:0:0:
320,192,139420,1,0,0:0:0:0:
192,192,139564,1,2,0:0:0:0:
64,192,139708,1,2,0:0:0:0:
320,192,139853,1,8,0:0:0:0:
448,192,139853,1,0,0:0:0:0:
64,192,140141,128,6,140285:0:0:0:0:
192,192,140285,128,0,140429:0:0:0:0:
448,192,140429,128,8,140574:0:0:0:0:
320,192,140574,128,0,140718:0:0:0:0:
192,192,140718,1,2,0:0:0:0:
64,192,140862,128,0,141006:0:0:0:0:
320,192,141006,128,8,141151:0:0:0:0:
448,192,141006,1,0,0:0:0:0:
192,192,141151,128,0,141295:0:0:0:0:
448,192,141295,1,2,0:0:0:0:
64,192,141439,1,0,0:0:0:0:
192,192,141583,1,8,0:0:0:0:
448,192,141583,1,0,0:0:0:0:
320,192,141728,1,0,0:0:0:0:
448,192,141872,1,2,0:0:0:0:
64,192,142016,1,2,0:0:0:0:
320,192,142160,1,8,0:0:0:0:
448,192,142160,1,0,0:0:0:0:
192,192,142304,1,2,0:0:0:0:
64,192,142449,1,2,0:0:0:0:
448,192,142449,128,0,142593:0:0:0:0:
320,192,142593,128,2,142737:0:0:0:0:
192,192,142737,128,8,142881:0:0:0:0:
320,192,142881,128,0,143026:0:0:0:0:
64,192,143026,1,2,0:0:0:0:
448,192,143170,128,0,143314:0:0:0:0:
192,192,143314,1,8,0:0:0:0:
64,192,143458,1,2,0:0:0:0:
192,192,143530,1,2,0:0:0:0:
320,192,143603,1,4,0:0:0:0:
448,192,143603,1,2,0:0:0:0:
64,192,143819,1,4,0:0:0:0:
192,192,143819,1,2,0:0:0:0:
320,192,144035,1,4,0:0:0:0:
448,192,144035,1,2,0:0:0:0:
64,192,144252,1,4,0:0:0:0:
192,192,144252,1,2,0:0:0:0:
320,192,144468,1,4,0:0:0:0:
448,192,144468,1,2,0:0:0:0:
192,192,144612,1,6,0:0:0:0:
64,192,144756,1,4,0:0:0:0:
448,192,144756,128,2,144901:0:0:0:0:
320,192,144901,128,2,145045:0:0:0:0:
64,192,145045,1,8,0:0:0:0:
192,192,145045,128,0,145189:0:0:0:0:
448,192,145189,128,2,145333:0:0:0:0:
320,192,145333,128,2,145478:0:0:0:0:
192,192,145478,128,2,145622:0:0:0:0:
64,192,145622,1,8,0:0:0:0:
448,192,145622,128,0,145766:0:0:0:0:
320,192,145766,128,2,145910:0:0:0:0:
64,192,145910,1,4,0:0:0:0:
192,192,145910,1,2,0:0:0:0:
64,192,146054,1,2,0:0:0:0:
192,192,146199,1,8,0:0:0:0:
320,192,146199,1,0,0:0:0:0:
448,192,146343,1,2,0:0:0:0:
64,192,146487,1,2,0:0:0:0:
320,192,146487,1,0,0:0:0:0:
320,192,146631,1,2,0:0:0:0:
192,192,146776,1,8,0:0:0:0:
448,192,146776,1,0,0:0:0:0:
64,192,146920,1,2,0:0:0:0:
320,192,147064,1,4,0:0:0:0:
448,192,147064,128,2,147208:0:0:0:0:
192,192,147208,128,2,147353:0:0:0:0:
64,192,147353,128,8,147497:0:0:0:0:
320,192,147353,1,0,0:0:0:0:
448,192,147497,128,2,147641:0:0:0:0:
192,192,147641,1,2,0:0:0:0:
320,192,147641,1,0,0:0:0:0:
448,192,147785,128,2,147929:0:0:0:0:
64,192,147929,1,8,0:0:0:0:
320,192,147929,128,0,148074:0:0:0:0:
192,192,148074,128,2,148218:0:0:0:0:
64,192,148218,1,4,0:0:0:0:
448,192,148218,1,2,0:0:0:0:
448,192,148362,1,2,0:0:0:0:
192,192,148506,1,8,0:0:0:0:
320,192,148506,1,0,0:0:0:0:
64,192,148651,1,2,0:0:0:0:
192,192,148723,1,2,0:0:0:0:
448,192,148795,1,6,0:0:0:0:
320,192,148867,1,2,0:0:0:0:
192,192,148939,1,2,0:0:0:0:
64,192,149083,1,8,0:0:0:0:
448,192,149083,1,8,1:0:0:0:
192,192,149372,1,4,0:0:0:0:
320,192,149372,1,2,0:0:0:0:
192,192,149588,1,4,0:0:0:0:
320,192,149588,1,2,0:0:0:0:
64,192,149804,1,4,0:0:0:0:
192,192,149804,1,2,0:0:0:0:
64,192,150021,1,4,0:0:0:0:
192,192,150021,1,2,0:0:0:0:
320,192,150237,1,4,0:0:0:0:
448,192,150237,1,2,0:0:0:0:
320,192,150454,1,4,0:0:0:0:
448,192,150454,1,2,0:0:0:0:
64,192,150670,1,4,0:0:0:0:
192,192,150670,1,2,0:0:0:0:
64,192,150886,1,4,0:0:0:0:
192,192,150886,1,2,0:0:0:0:
192,192,151103,1,4,0:0:0:0:
320,192,151103,1,2,0:0:0:0:
192,192,151319,1,4,0:0:0:0:
320,192,151319,1,2,0:0:0:0:
320,192,151535,1,4,0:0:0:0:
448,192,151535,1,2,0:0:0:0:
64,192,151679,1,4,0:0:0:0:
192,192,151679,1,2,0:0:0:0:
320,192,151824,1,2,0:0:0:0:
64,192,151968,1,12,0:0:0:0:
192,192,151968,1,2,0:0:0:0:
448,192,152112,1,2,0:0:0:0:
64,192,152256,1,6,0:0:0:0:
192,192,152329,1,2,0:0:0:0:
320,192,152401,1,6,0:0:0:0:
448,192,152473,1,2,0:0:0:0:
320,192,152545,1,14,0:0:0:0:
64,192,152617,1,2,0:0:0:0:
192,192,152689,1,6,0:0:0:0:
320,192,152761,1,2,0:0:0:0:
64,192,152833,1,4,0:0:0:0:
448,192,152833,1,2,0:0:0:0:
192,192,152978,1,2,0:0:0:0:
64,192,153266,1,2,0:0:0:0:
192,192,153410,1,2,0:0:0:0:
320,192,153554,1,2,0:0:0:0:
64,192,153699,1,8,1:0:0:0:
448,192,153699,1,0,0:0:0:0:
64,192,153987,1,2,0:0:0:0:
192,192,153987,1,4,0:0:0:0:
320,192,154131,128,0,154276:0:0:0:0:
448,192,154276,128,8,154420:0:0:0:0:
64,192,154564,128,2,154708:0:0:0:0:
192,192,154708,128,0,154853:0:0:0:0:
320,192,154997,128,0,155141:0:0:0:0:
448,192,155141,128,2,155285:0:0:0:0:
192,192,155429,128,8,155574:0:0:0:0:
320,192,155574,128,0,155718:0:0:0:0:
192,192,155790,128,0,155934:0:0:0:0:
64,192,156006,128,8,156151:0:0:0:0:
192,192,156151,128,0,156295:0:0:0:0:
320,192,156295,128,2,156439:0:0:0:0:
192,192,156439,128,0,156583:0:0:0:0:
320,192,156583,128,8,156728:0:0:0:0:
448,192,156728,128,0,156872:0:0:0:0:
64,192,156944,128,0,157088:0:0:0:0:
192,192,157160,128,8,157304:0:0:0:0:
448,192,157377,128,0,157521:0:0:0:0:
320,192,157593,128,0,157737:0:0:0:0:
64,192,157881,1,0,0:0:0:0:
192,192,157954,1,0,0:0:0:0:
448,192,158026,1,2,0:0:0:0:
320,192,158098,1,0,0:0:0:0:
192,192,158170,1,2,0:0:0:0:
64,192,158242,1,0,0:0:0:0:
448,192,158314,128,8,158603:0:0:0:0:
64,192,158603,1,2,0:0:0:0:
192,192,158603,1,4,0:0:0:0:
320,192,158747,128,0,158891:0:0:0:0:
192,192,158891,128,8,159035:0:0:0:0:
448,192,159179,128,2,159324:0:0:0:0:
320,192,159324,128,0,159468:0:0:0:0:
64,192,159612,128,0,159756:0:0:0:0:
192,192,159756,128,2,159901:0:0:0:0:
192,192,160045,128,8,160189:0:0:0:0:
448,192,160189,128,0,160333:0:0:0:0:
192,192,160405,128,0,160550:0:0:0:0:
320,192,160622,128,8,160766:0:0:0:0:
192,192,160766,128,2,160910:0:0:0:0:
64,192,160910,128,2,161054:0:0:0:0:
192,192,161054,128,2,161199:0:0:0:0:
448,192,161199,128,8,161343:0:0:0:0:
320,192,161343,128,2,161487:0:0:0:0:
192,192,161487,1,2,0:0:0:0:
64,192,161631,128,0,161776:0:0:0:0:
320,192,161776,128,8,161920:0:0:0:0:
192,192,161920,128,2,162064:0:0:0:0:
448,192,162064,128,2,162208:0:0:0:0:
320,192,162208,128,2,162353:0:0:0:0:
64,192,162353,1,8,0:0:0:0:
192,192,162353,1,4,0:0:0:0:
448,192,162569,1,6,0:0:0:0:
320,192,162641,1,8,0:0:0:0:
192,192,162713,1,0,0:0:0:0:
64,192,162785,1,6,0:0:0:0:
192,192,162857,1,0,0:0:0:0:
448,192,162929,1,0,0:0:0:0:
320,192,163002,1,0,0:0:0:0:
192,192,163074,1,0,0:0:0:0:
448,192,163146,1,0,0:0:0:0:
64,192,163218,1,10,0:0:0:0:
320,192,163218,1,4,0:0:0:0:
192,192,163362,128,0,163506:0:0:0:0:
64,192,163506,128,8,163651:0:0:0:0:
320,192,163506,1,2,0:0:0:0:
320,192,163795,128,8,163939:0:0:0:0:
448,192,163795,1,2,0:0:0:0:
64,192,163939,128,0,164083:0:0:0:0:
320,192,164083,1,8,0:0:0:0:
448,192,164083,1,2,0:0:0:0:
64,192,164228,128,0,164372:0:0:0:0:
192,192,164372,1,8,0:0:0:0:
320,192,164372,1,2,0:0:0:0:
192,192,164660,128,8,164804:0:0:0:0:
320,192,164660,1,2,0:0:0:0:
448,192,164804,128,0,164949:0:0:0:0:
64,192,164949,1,10,0:0:0:0:
320,192,165021,128,0,165165:0:0:0:0:
64,192,165237,1,8,0:0:0:0:
192,192,165237,128,2,165381:0:0:0:0:
448,192,165381,128,2,165526:0:0:0:0:
192,192,165526,1,12,0:0:0:0:
320,192,165526,128,2,165670:0:0:0:0:
64,192,165670,128,0,165814:0:0:0:0:
320,192,165814,1,8,0:0:0:0:
448,192,165814,128,2,165958:0:0:0:0:
192,192,165958,128,0,166103:0:0:0:0:
64,192,166103,1,10,0:0:0:0:
320,192,166175,128,0,166319:0:0:0:0:
64,192,166391,1,8,0:0:0:0:
448,192,166391,128,2,166535:0:0:0:0:
320,192,166607,128,0,166752:0:0:0:0:
64,192,166679,1,10,0:0:0:0:
192,192,166824,128,2,166968:0:0:0:0:
64,192,166968,1,10,0:0:0:0:
192,192,167112,1,2,0:0:0:0:
320,192,167184,1,2,0:0:0:0:
192,192,167256,1,10,0:0:0:0:
64,192,167329,1,2,0:0:0:0:
448,192,167401,1,2,0:0:0:0:
320,192,167473,1,0,0:0:0:0:
64,192,167545,1,8,1:0:0:0:
192,192,167545,128,10,167833:0:0:0:0:
320,192,167833,1,4,0:0:0:0:
448,192,167833,1,2,0:0:0:0:
320,192,167978,1,2,0:0:0:0:
192,192,168122,1,2,0:0:0:0:
64,192,168266,1,2,0:0:0:0:
192,192,168410,1,2,0:0:0:0:
448,192,168410,1,0,0:0:0:0:
192,192,168554,1,2,0:0:0:0:
320,192,168699,1,2,0:0:0:0:
448,192,168843,1,2,0:0:0:0:
320,192,168915,1,2,0:0:0:0:
64,192,168987,1,4,0:0:0:0:
192,192,168987,1,2,0:0:0:0:
64,192,169131,1,2,0:0:0:0:
448,192,169276,1,2,0:0:0:0:
320,192,169420,1,2,0:0:0:0:
192,192,169492,1,2,0:0:0:0:
64,192,169564,1,2,0:0:0:0:
448,192,169564,1,0,0:0:0:0:
320,192,169636,1,2,0:0:0:0:
192,192,169708,1,2,0:0:0:0:
64,192,169853,1,8,0:0:0:0:
448,192,169853,1,0,0:0:0:0:
320,192,169997,1,2,0:0:0:0:
64,192,170141,1,4,0:0:0:0:
192,192,170141,1,2,0:0:0:0:
320,192,170213,1,2,0:0:0:0:
448,192,170285,1,2,0:0:0:0:
64,192,170357,1,2,0:0:0:0:
192,192,170429,1,2,0:0:0:0:
320,192,170502,1,2,0:0:0:0:
448,192,170574,1,2,0:0:0:0:
64,192,170646,1,2,0:0:0:0:
192,192,170718,1,6,0:0:0:0:
320,192,170790,1,2,0:0:0:0:
448,192,170862,1,2,0:0:0:0:
320,192,170934,1,2,0:0:0:0:
64,192,171006,1,2,0:0:0:0:
192,192,171079,1,2,0:0:0:0:
320,192,171151,1,2,0:0:0:0:
192,192,171223,1,2,0:0:0:0:
320,192,171295,1,4,0:0:0:0:
448,192,171295,1,2,0:0:0:0:
64,192,171728,1,0,0:0:0:0:
192,192,171800,1,0,0:0:0:0:
320,192,171872,1,0,0:0:0:0:
448,192,171944,1,0,0:0:0:0:
64,192,172016,1,0,0:0:0:0:
192,192,172088,1,0,0:0:0:0:
320,192,172160,1,0,0:0:0:0:
192,192,172232,1,0,0:0:0:0:
320,192,172304,1,0,0:0:0:0:
448,192,172377,1,0,0:0:0:0:
