osu file format v14

[General]
AudioFilename: audio.mp3
AudioLeadIn: 0
PreviewTime: -1
Countdown: 1
SampleSet: None
StackLeniency: 0.7
Mode: 0
LetterboxInBreaks: 0
WidescreenStoryboard: 0

[Editor]
DistanceSpacing: 0.6
BeatDivisor: 4
GridSize: 8
TimelineZoom: 1

[Metadata]
Title:Ultramarine
TitleUnicode:Ultramarine
Artist:Seiryu
ArtistUnicode:Seiryu
Creator:Supreme
Version:SUPREME!
Source:
Tags:
BeatmapID:1685511
BeatmapSetID:802969

[Difficulty]
HPDrainRate:5
CircleSize:4
OverallDifficulty:7
ApproachRate:9.5
SliderMultiplier:1.8
SliderTickRate:1

[Events]
//Background and Video events
//Break Periods
//Storyboard Layer 0 (Background)
//Storyboard Layer 1 (Fail)
//Storyboard Layer 2 (Pass)
//Storyboard Layer 3 (Foreground)
//Storyboard Sound Samples

[TimingPoints]
650,314.132836305379,4,1,0,100,1,0
650,-166.666666666667,4,1,0,100,0,0
28764,-83.3333333333333,4,1,0,100,0,0

[HitObjects]
116,188,650,5,0,0:0:0:0:
172,246,964,1,0,0:0:0:0:
230,303,1278,1,0,0:0:0:0:
380,189,1592,2,0,P|355:134|309:109,1,107.999996704102
173,247,2220,1,0,0:0:0:0:
360,332,2534,2,0,L|426:326,2,53.9999983520508
279,274,3163,5,0,0:0:0:0:
329,195,3477,1,0,0:0:0:0:
421,228,3791,1,0,0:0:0:0:
249,166,4105,2,0,P|285:118|346:112,1,107.999996704102
279,274,4733,2,0,L|151:260,1,107.999996704102
116,194,5361,1,0,0:0:0:0:
177,125,5676,1,0,0:0:0:0:
245,63,5990,2,0,P|277:125|264:169,1,107.999996704102
62,267,6618,2,0,P|120:299|166:272,2,107.999996704102
61,45,7560,6,0,L|67:109,2,53.9999983520508
70,179,8189,1,0,0:0:0:0:
159,200,8503,1,0,0:0:0:0:
249,183,8817,1,0,0:0:0:0:
333,218,9131,2,0,P|305:263|244:288,1,107.999996704102
321,52,9759,1,0,0:0:0:0:
461,146,10073,2,0,P|413:189|422:91,1,215.999993408203
299,309,11016,5,0,0:0:0:0:
234,244,11330,1,0,0:0:0:0:
176,172,11644,2,0,P|236:160|184:48,1,215.999993408203
63,249,12587,1,0,0:0:0:0:
63,249,12744,1,0,0:0:0:0:
63,249,12901,2,0,L|180:259,1,107.999996704102
449,249,13529,2,0,L|332:259,1,107.999996704102
237,176,14157,1,0,0:0:0:0:
179,104,14471,1,0,0:0:0:0:
251,47,14785,1,0,0:0:0:0:
314,113,15100,2,0,P|334:163|316:231,1,107.999996704102
85,190,15728,5,0,0:0:0:0:
132,111,16042,1,0,0:0:0:0:
183,35,16356,1,0,0:0:0:0:
252,193,16670,2,0,B|306:208|362:181|362:181|335:242|364:301|364:301|326:281|263:303,1,323.999990112305
168,244,17770,1,0,0:0:0:0:
168,244,17927,2,0,P|141:189|160:127,1,107.999996704102
334,90,18555,6,0,L|217:98,1,107.999996704102
358,185,19183,6,0,P|435:221|359:289,1,215.999993408203
95,221,20126,5,0,0:0:0:0:
163,159,20440,1,0,0:0:0:0:
213,235,20754,1,0,0:0:0:0:
281,173,21068,1,0,0:0:0:0:
333,248,21382,1,0,0:0:0:0:
405,191,21696,6,0,P|368:100|260:65,1,215.999993408203
122,166,22639,2,0,L|164:234,1,53.9999983520508
172,248,22953,1,0,0:0:0:0:
262,233,23267,1,0,0:0:0:0:
239,144,23581,1,0,0:0:0:0:
149,166,23895,1,0,0:0:0:0:
262,233,24209,6,0,P|321:219|234:54,1,323.999990112305
184,84,25466,1,0,0:0:0:0:
184,84,25780,1,0,0:0:0:0:
256,192,25859,12,0,28293,0:0:0:0:
118,204,28764,5,0,0:0:0:0:
204,285,28921,1,0,0:0:0:0:
289,201,29079,1,0,0:0:0:0:
372,286,29236,2,0,P|402:250|351:95,1,215.999993408203
105,194,29707,1,0,0:0:0:0:
105,194,29785,1,0,0:0:0:0:
105,194,29864,1,0,0:0:0:0:
228,319,30021,1,0,0:0:0:0:
214,83,30178,1,0,0:0:0:0:
193,57,30257,1,0,0:0:0:0:
164,42,30335,1,0,0:0:0:0:
131,37,30414,1,0,0:0:0:0:
99,44,30492,2,0,P|56:105|58:162,1,107.999996704102
285,284,30806,1,0,0:0:0:0:
199,207,30963,1,0,0:0:0:0:
425,147,31120,2,0,P|377:68|333:52,1,107.999996704102
164,141,31435,5,0,0:0:0:0:
299,343,31592,1,0,0:0:0:0:
145,117,31749,2,0,B|215:94|215:94|239:137|239:137|293:123|336:162,1,215.999993408203
85,302,32220,5,0,0:0:0:0:
80,274,32298,1,0,0:0:0:0:
73,240,32377,1,0,0:0:0:0:
240,133,32534,1,0,0:0:0:0:
360,282,32691,6,0,P|285:302|244:294,1,107.999996704102
240,133,33005,1,0,0:0:0:0:
375,305,33162,1,0,0:0:0:0:
110,344,33319,5,0,0:0:0:0:
282,209,33476,1,0,0:0:0:0:
62,99,33633,5,0,0:0:0:0:
197,271,33790,1,0,0:0:0:0:
363,136,33948,1,0,0:0:0:0:
197,271,34105,1,0,0:0:0:0:
400,106,34262,2,0,B|427:192|426:192|429:196|415:205|398:226|398:226|330:218|330:218|314:180,1,215.999993408203
400,106,34733,5,0,0:0:0:0:
377,87,34811,1,0,0:0:0:0:
351,67,34890,1,0,0:0:0:0:
169,140,35047,1,0,0:0:0:0:
294,293,35204,2,0,P|344:262|371:216,1,107.999996704102
267,66,35518,2,0,P|268:133|306:179,1,107.999996704102
471,35,35832,2,0,P|405:89|358:105,1,107.999996704102
181,183,36147,1,0,0:0:0:0:
366,105,36304,1,0,0:0:0:0:
109,217,36461,1,0,0:0:0:0:
296,139,36618,1,0,0:0:0:0:
40,253,36775,6,0,B|72:321|96:315|96:315|118:350|194:346|194:346|180:292,1,215.999993408203
