osu file format v14

[General]
AudioFilename: 19. Ultramarine.mp3
AudioLeadIn: 2000
PreviewTime: 28472
Countdown: 0
SampleSet: Normal
StackLeniency: 0.7
Mode: 0
LetterboxInBreaks: 1
WidescreenStoryboard: 0

[Editor]
DistanceSpacing: 1.4
BeatDivisor: 4
GridSize: 4
TimelineZoom: 1

[Metadata]
Title:Ultramarine
TitleUnicode:Ultramarine
Artist:Seiryu
ArtistUnicode:青龍
Creator:RLC
Version:Another
Source:jubeat plus
Tags:esti yf_bmp fanzhen fanzhen0019 zexous flower rainbow ryu jubeat plus
BeatmapID:281389
BeatmapSetID:107377

[Difficulty]
HPDrainRate:6
CircleSize:4
OverallDifficulty:8
ApproachRate:9
SliderMultiplier:1.6
SliderTickRate:2

[Events]
//Background and Video events
0,0,"bgcrop.jpg",0,0
//Break Periods
2,170033,179286
//Storyboard Layer 0 (Background)
//Storyboard Layer 1 (Fail)
//Storyboard Layer 2 (Pass)
//Storyboard Layer 3 (Foreground)
//Storyboard Sound Samples

[TimingPoints]
200,314.13612565445,4,2,0,40,1,0
514,-200,4,2,0,40,0,0
1457,314.13612565445,4,2,0,40,1,0
1457,-200,4,2,0,40,0,0
25409,-200,4,2,0,5,0,0
28629,-100,4,2,0,80,0,0
29100,-100,4,1,1,80,0,1
29179,-100,4,1,0,80,0,1
37896,-100,4,1,0,80,0,0
39153,-100,4,1,0,80,0,1
43237,-100,4,1,0,80,0,0
44179,-100,4,1,0,80,0,1
49205,-133.333333333333,4,1,0,80,0,0
49362,-133.333333333333,4,2,0,80,0,0
50776,-100,4,1,0,80,0,1
51090,-100,4,1,0,80,0,0
71195,-100,4,1,0,50,0,0
71666,-100,4,1,0,80,0,0
71823,-100,4,1,0,100,0,0
72137,-200,4,3,0,40,0,0
83132,-133.333333333333,4,2,0,60,0,0
88158,-100,4,2,0,60,0,0
89100,-133.333333333333,4,2,0,60,0,0
89415,-100,4,2,0,60,0,0
90357,-133.333333333333,4,2,0,60,0,0
90671,-100,4,2,0,60,0,0
93184,-100,4,1,0,60,0,0
100724,-100,4,1,1,80,0,1
100802,-100,4,1,0,80,0,1
109519,-100,4,1,0,80,0,0
110776,-100,4,1,0,80,0,1
114860,-133.333333333333,4,1,0,80,0,0
115488,-100,4,1,0,80,0,0
115802,-100,4,1,0,80,0,1
120828,-133.333333333333,4,1,0,80,0,0
120985,-133.333333333333,4,2,0,80,0,0
122399,-83.3333333333333,4,1,0,80,0,1
122713,-100,4,1,0,80,0,0
137635,-133.333333333333,4,1,0,80,0,0
138106,-100,4,1,0,80,0,0
144703,-133.333333333333,4,1,0,80,0,0
145017,-83.3333333333333,4,1,0,80,0,1
145331,-66.6666666666667,4,1,0,80,0,0
145959,-133.333333333333,4,2,0,80,0,0
155383,-100,4,1,0,40,0,0
156011,-100,4,1,0,60,0,0
166064,-133.333333333333,4,2,0,60,0,0
166378,-83.3333333333333,4,1,0,60,0,1
166692,-83.3333333333333,4,2,0,60,0,0
167320,-83.3333333333333,4,1,1,100,0,0
167399,-83.3333333333333,4,2,0,60,0,0
179886,-133.333333333333,4,3,0,60,0,0
184912,-100,4,1,0,60,0,0
189938,-133.333333333333,4,2,0,60,0,0
190252,-83.3333333333333,4,1,0,60,0,1
190566,-100,4,1,0,40,0,0
191195,-100,4,3,0,40,0,0
191509,-133.333333333333,4,2,0,60,0,0
191823,-66.6666666666667,4,1,0,80,0,1
192137,-50,4,2,0,60,0,0
192451,-100,4,1,1,80,0,1
192530,-100,4,1,0,80,0,1
201247,-100,4,1,0,80,0,0
202504,-100,4,1,0,80,0,1
212556,-100,4,1,1,100,0,0

[Colours]
Combo1 : 255,255,113
Combo2 : 194,255,134
Combo3 : 119,221,242
Combo4 : 128,128,255

[HitObjects]
145,132,514,6,0,L|63:139,2,80
231,67,1457,2,0,P|268:62|385:124,1,160
413,322,2399,5,0,0:0:0:0:
456,255,2556,1,0,0:0:0:0:
376,249,2713,2,0,P|327:247|283:265,1,80
142,304,3341,2,0,P|191:306|235:288,1,80
286,196,3970,5,0,0:0:0:0:
216,115,4284,1,0,0:0:0:0:
180,217,4598,1,0,0:0:0:0:
180,217,5226,5,0,0:0:0:0:
286,196,5540,1,0,0:0:0:0:
392,176,5854,1,0,0:0:0:0:
286,196,6169,1,0,0:0:0:0:
215,114,6483,6,0,P|172:80|54:74,1,160
91,312,7425,5,0,0:0:0:0:
51,242,7582,1,0,0:0:0:0:
130,244,7739,2,0,L|222:258,1,80
405,246,8367,2,0,L|313:232,1,80
99,148,8996,6,0,L|191:162,2,80
182,65,9938,6,0,B|263:45|261:94|339:71,1,160
449,119,10881,2,0,P|457:164|445:210,1,80
333,223,11509,6,0,P|280:225|191:301,1,160
15,186,12451,5,0,0:0:0:0:
48,113,12608,1,0,0:0:0:0:
95,177,12765,2,0,P|106:243|101:267,1,80
150,113,13394,2,0,P|196:110|243:89,1,80
256,245,14022,6,0,L|185:193,2,80
430,290,14964,6,0,P|448:218|432:126,1,160
318,104,15907,1,0,0:0:0:0:
207,150,16221,1,0,0:0:0:0:
90,119,16535,6,0,P|72:191|88:283,1,160
319,300,17477,5,0,0:0:0:0:
244,329,17635,1,0,0:0:0:0:
258,247,17792,2,0,P|304:259|419:227,1,160
438,115,18734,1,0,0:0:0:0:
438,115,19048,6,0,L|353:136,1,80
75,179,19676,2,0,L|160:200,1,80
334,323,20305,6,0,L|310:247,1,80
183,239,20933,2,0,L|207:163,1,80
375,85,21561,6,0,P|382:124|369:174,1,80
137,163,22189,2,0,P|130:124|137:85,1,80
256,264,22818,6,0,L|256:360,2,80
256,144,23760,1,0,0:0:0:0:
31,106,24074,5,0,0:0:0:0:
105,240,24388,1,0,0:0:0:0:
257,264,24703,1,0,0:0:0:0:
407,240,25017,1,0,0:0:0:0:
481,106,25331,1,0,0:0:0:0:
256,192,25488,12,0,27530,0:0:0:0:
52,221,28630,5,2,0:0:0:0:
174,320,28787,1,2,0:0:0:0:
202,161,28944,1,2,0:0:0:0:
145,232,29101,5,6,0:0:0:0:
275,217,29258,1,0,0:0:0:0:
261,83,29415,1,4,0:2:0:0:
126,108,29572,1,0,0:0:0:0:
126,108,29650,1,0,0:0:0:0:
126,108,29729,2,2,L|137:195,1,80,0|2,0:0|0:0,0:0:0:0:
44,349,30043,2,0,L|48:263,1,80,0|0,0:0|0:0,0:0:0:0:
275,217,30357,5,2,0:0:0:0:
353,331,30514,1,0,0:0:0:0:
275,217,30671,2,2,L|286:124,1,80,0|2,0:0|0:0,0:0:0:0:
370,233,30985,5,4,0:2:0:0:
266,302,31142,1,2,0:0:0:0:
181,206,31299,1,4,0:2:0:0:
286,138,31456,1,2,0:0:0:0:
370,233,31614,6,0,L|472:220,1,80,6|0,0:0|0:0,0:0:0:0:
449,222,31928,1,0,0:0:0:0:
468,90,32085,5,0,0:0:0:0:
468,90,32163,1,0,0:0:0:0:
468,90,32242,1,2,0:0:0:0:
383,43,32399,1,2,0:0:0:0:
311,106,32556,1,0,0:0:0:0:
223,66,32713,1,0,0:0:0:0:
108,246,32870,6,0,P|105:208|106:141,1,80,4|0,0:0|0:0,0:0:0:0:
195,213,33184,1,2,0:2:0:0:
13,200,33341,2,0,P|21:139|27:41,1,160,4|6,0:0|0:2,0:0:0:0:
27,40,33813,1,4,0:0:0:0:
124,120,33970,1,4,0:2:0:0:
235,55,34127,6,0,L|326:45,1,80,6|0,0:0|0:0,0:0:0:0:
313,200,34441,2,0,L|222:190,1,80,0|0,0:0|0:0,0:0:0:0:
233,191,34676,1,0,0:0:0:0:
233,191,34755,1,2,0:0:0:0:
172,265,34912,1,2,0:0:0:0:
210,353,35069,1,0,0:0:0:0:
272,279,35226,1,0,0:0:0:0:
143,168,35383,6,2,P|99:166|5:246,1,160,0|2,0:0|0:0,0:0:0:0:
326,203,35854,2,0,P|371:209|427:179,1,80,2|0,0:0|0:0,0:0:0:0:
484,115,36169,1,4,0:2:0:0:
484,115,36247,1,0,0:0:0:0:
484,115,36326,1,2,0:0:0:0:
389,74,36483,1,4,0:2:0:0:
468,9,36640,5,2,0:0:0:0:
476,263,36797,2,0,P|430:283|376:284,1,80,2|2,0:2|0:2,0:0:0:0:
249,105,37111,5,0,0:0:0:0:
249,105,37189,1,0,0:0:0:0:
249,105,37268,1,4,0:2:0:0:
233,330,37425,2,0,P|286:346|332:334,1,80,2|2,0:2|0:2,0:0:0:0:
405,202,37739,1,4,0:2:0:0:
171,238,37896,6,0,P|115:214|-5:261,1,160,4|0,0:0|2:0,0:0:0:0:
178,136,38367,2,0,P|230:134|269:111,2,80,4|8|8,2:2|2:3|2:3,0:0:0:0:
146,129,38760,1,4,2:3:0:0:
114,132,38839,1,4,2:3:0:0:
18,152,38996,1,4,2:3:0:0:
55,350,39153,5,6,0:0:0:0:
135,298,39310,1,0,0:0:0:0:
222,338,39467,1,0,0:0:0:0:
306,291,39624,1,0,0:0:0:0:
306,291,39703,1,0,0:0:0:0:
306,291,39781,2,2,P|361:302|409:292,1,80,0|2,0:0|0:0,0:0:0:0:
512,177,40095,2,0,P|457:188|409:178,1,80
308,122,40409,5,2,0:0:0:0:
421,70,40566,1,0,0:0:0:0:
308,122,40724,2,2,P|297:66|308:21,1,80,0|2,0:0|0:0,0:0:0:0:
333,204,41038,5,4,0:2:0:0:
227,323,41195,1,2,0:0:0:0:
188,167,41352,1,4,0:2:0:0:
252,237,41509,1,2,0:0:0:0:
128,316,41666,5,6,0:0:0:0:
310,300,41823,2,0,P|352:302|402:325,1,80
510,205,42137,5,0,0:0:0:0:
510,205,42216,1,0,0:0:0:0:
510,205,42294,1,2,0:0:0:0:
372,224,42451,1,2,0:0:0:0:
479,124,42608,1,0,0:0:0:0:
392,139,42765,1,0,0:0:0:0:
450,270,42922,6,0,P|383:251|294:290,1,160,4|2,0:0|0:2,0:0:0:0:
57,311,43394,2,0,P|117:312|155:291,1,80,4|0,2:2|2:0,0:0:0:0:
289,154,43708,1,6,2:2:0:0:
205,43,43865,1,4,2:1:0:0:
148,174,44022,1,6,2:2:0:0:
233,300,44179,5,6,0:0:0:0:
306,248,44336,1,0,0:0:0:0:
227,213,44493,1,0,0:0:0:0:
316,335,44650,5,0,0:0:0:0:
316,335,44729,1,0,0:0:0:0:
316,335,44807,2,2,L|410:346,1,80,0|2,0:0|0:0,0:0:0:0:
397,149,45121,2,0,L|303:160,1,80
94,359,45436,5,2,0:0:0:0:
89,271,45593,1,0,0:0:0:0:
171,223,45750,5,0,0:0:0:0:
176,311,45907,1,0,0:0:0:0:
106,161,46064,5,2,0:0:0:0:
101,73,46221,1,0,0:0:0:0:
183,25,46378,5,0,0:0:0:0:
188,114,46535,1,0,0:0:0:0:
106,161,46692,6,0,L|56:157,2,40,6|0|0,0:0|0:0|0:0,0:0:0:0:
256,192,47006,1,8,0:2:0:0:
356,77,47163,5,0,0:0:0:0:
356,77,47242,1,0,0:0:0:0:
356,77,47320,2,0,L|386:36,2,40,6|0|0,0:0|0:0|0:0,0:0:0:0:
256,192,47635,1,8,0:2:0:0:
304,336,47792,5,0,0:0:0:0:
304,336,47870,1,0,0:0:0:0:
304,336,47949,2,0,L|325:382,3,40,6|0|0|0,0:0|0:0|0:0|0:0,0:0:0:0:
407,338,48263,2,0,L|455:348,3,40,8|0|0|0,0:2|0:0|0:0|0:0,0:0:0:0:
502,287,48577,5,8,0:2:0:0:
503,243,48655,1,0,0:0:0:0:
472,211,48734,1,8,0:2:0:0:
427,213,48813,1,0,0:0:0:0:
389,235,48891,1,8,0:2:0:0:
345,239,48970,1,0,0:0:0:0:
306,217,49048,1,8,0:2:0:0:
297,173,49127,1,0,0:0:0:0:
320,135,49205,6,0,L|396:129,1,60.0000022888184,4|2,0:2|0:0,0:0:0:0:
463,126,49519,1,4,0:2:0:0:
267,60,49676,5,2,0:0:0:0:
223,144,49833,1,4,0:2:0:0:
169,82,49991,1,2,0:0:0:0:
98,124,50148,1,4,0:2:0:0:
18,96,50305,1,2,0:0:0:0:
18,96,50462,2,0,L|21:174,1,60.0000022888184,12|2,0:2|0:0,0:0:0:0:
162,336,50776,6,2,P|178:256|173:213,1,120,0|2,2:0|2:1,0:0:0:0:
169,183,51090,1,2,2:0:0:0:
302,200,51247,1,2,2:0:0:0:
409,123,51404,1,0,0:0:0:0:
423,114,51483,1,0,0:0:0:0:
438,119,51561,1,0,0:0:0:0:
452,110,51640,1,0,0:0:0:0:
467,116,51718,5,4,0:0:0:0:
391,316,51875,1,8,0:0:0:0:
391,316,51954,1,0,0:0:0:0:
391,316,52032,2,0,P|350:333|298:336,1,80,0|8,0:0|0:0,0:0:0:0:
175,194,52347,2,0,P|224:179|322:236,1,160,4|0,0:2|0:0,0:0:0:0:
316,225,52739,1,0,0:0:0:0:
316,225,52818,1,0,0:0:0:0:
316,225,52896,1,0,0:0:0:0:
316,225,52975,5,0,0:0:0:0:
104,282,53132,2,0,P|145:299|197:302,1,80,2|0,0:0|0:0,0:0:0:0:
405,242,53446,1,0,0:0:0:0:
282,147,53603,1,0,0:0:0:0:
264,304,53760,1,2,0:0:0:0:
405,242,53917,2,2,L|418:155,1,80,0|2,0:0|0:0,0:0:0:0:
367,4,54231,6,0,L|352:98,1,80,4|8,0:0|0:0,0:0:0:0:
354,83,54467,1,0,0:0:0:0:
354,83,54546,2,0,P|300:107|249:101,1,80,0|8,0:0|0:0,0:0:0:0:
307,367,54860,2,0,P|301:308|335:209,1,160,4|0,0:2|0:0,0:0:0:0:
331,213,55252,1,0,0:0:0:0:
331,213,55331,1,0,0:0:0:0:
331,213,55409,1,0,0:0:0:0:
331,213,55488,5,0,0:0:0:0:
411,315,55645,1,2,0:0:0:0:
214,284,55802,1,0,0:0:0:0:
186,276,55881,1,0,0:0:0:0:
158,278,55959,1,0,0:0:0:0:
131,287,56038,1,0,0:0:0:0:
106,301,56116,1,4,2:0:0:0:
40,229,56273,1,2,2:2:0:0:
32,367,56430,1,4,2:0:0:0:
125,205,56587,1,2,2:2:0:0:
48,97,56744,5,0,0:0:0:0:
141,121,56902,1,8,0:0:0:0:
141,121,56980,1,0,0:0:0:0:
141,121,57059,2,0,L|235:139,1,80,0|8,0:0|0:0,0:0:0:0:
444,24,57373,2,0,B|394:39|394:39|361:83|361:83|292:109,1,160,4|0,0:2|0:0,0:0:0:0:
311,101,57765,1,0,0:0:0:0:
311,101,57844,1,0,0:0:0:0:
311,101,57922,1,0,0:0:0:0:
311,101,58001,5,0,0:0:0:0:
275,237,58158,1,2,0:0:0:0:
401,286,58315,1,0,0:0:0:0:
452,162,58472,1,2,0:0:0:0:
275,237,58629,6,0,L|256:323,1,80
122,119,58943,2,2,L|110:76,2,40,0|0|2,0:0|0:0|0:0,0:0:0:0:
70,188,59258,5,0,0:0:0:0:
98,41,59415,1,0,0:0:0:0:
206,130,59572,2,2,L|186:245,1,80,0|2,0:0|0:0,0:0:0:0:
276,342,59886,5,0,0:0:0:0:
345,212,60043,1,0,0:0:0:0:
276,342,60200,2,2,P|316:358|365:348,1,80,0|2,0:0|0:0,0:0:0:0:
190,285,60514,5,0,0:0:0:0:
225,191,60671,2,2,P|244:150|288:124,1,80,0|2,0:0|0:0,0:0:0:0:
160,83,60985,1,2,0:0:0:0:
420,128,61143,5,0,0:0:0:0:
457,143,61222,1,0,0:0:0:0:
494,128,61300,1,0,0:0:0:0:
510,91,61379,1,0,0:0:0:0:
494,54,61457,1,0,0:0:0:0:
457,38,61536,1,0,0:0:0:0:
420,54,61615,1,0,0:0:0:0:
405,91,61693,1,0,0:0:0:0:
420,128,61772,5,4,0:0:0:0:
330,177,61929,1,8,0:0:0:0:
330,177,62007,1,0,0:2:0:0:
330,177,62086,2,0,L|310:292,1,80,0|8,0:0|0:0,0:0:0:0:
65,280,62400,2,0,P|102:234|208:227,1,160,4|2,0:2|0:2,0:0:0:0:
197,222,62793,1,2,0:2:0:0:
197,222,62871,1,2,0:2:0:0:
197,222,62950,1,2,0:2:0:0:
197,222,63028,5,4,0:2:0:0:
104,132,63185,1,2,0:2:0:0:
159,314,63342,2,0,P|174:350|208:376,1,80,4|0,0:2|0:0,0:0:0:0:
343,186,63656,2,2,P|317:167|271:159,1,80,0|2,0:0|0:0,0:0:0:0:
249,294,63970,2,0,L|336:281,1,80,4|2,0:2|0:0,0:0:0:0:
464,248,64284,5,0,0:0:0:0:
502,134,64441,1,8,0:0:0:0:
502,134,64519,1,0,0:0:0:0:
502,134,64598,1,0,0:0:0:0:
386,100,64755,1,8,0:0:0:0:
347,213,64912,1,4,0:2:0:0:
424,175,65069,5,2,0:2:0:0:
440,34,65226,1,2,0:2:0:0:
306,100,65383,1,2,0:2:0:0:
306,100,65462,1,2,0:2:0:0:
306,100,65540,6,0,L|194:123,1,80,4|2,0:2|0:2,0:0:0:0:
35,212,65854,2,0,L|128:189,1,80,4|2,0:2|0:2,0:0:0:0:
320,64,66169,6,2,L|208:87,1,80,4|2,0:2|0:0,0:0:0:0:
5,256,66483,2,0,L|167:212,1,160,2|2,0:0|2:0,0:0:0:0:
159,214,66954,5,0,0:0:0:0:
159,214,67268,1,0,0:0:0:0:
159,214,67582,1,0,0:0:0:0:
230,275,67739,1,0,0:0:0:0:
261,267,67818,1,0,0:0:0:0:
292,273,67896,1,0,0:0:0:0:
320,287,67975,1,0,0:0:0:0:
340,311,68053,1,2,0:2:0:0:
413,261,68210,5,0,0:0:0:0:
413,261,68525,1,0,0:0:0:0:
413,261,68839,1,0,0:0:0:0:
413,261,69153,1,0,0:0:0:0:
481,211,69310,6,0,P|489:162|479:119,1,80
456,97,69546,1,0,0:0:0:0:
413,86,69624,2,0,P|405:135|415:178,1,80
486,296,69938,2,0,L|495:339,2,40
318,174,70252,2,0,P|267:158|213:170,1,80
201,179,70488,1,0,0:0:0:0:
167,212,70566,6,2,P|157:169|166:123,1,80,0|0,2:0|2:0,0:0:0:0:
236,82,70881,2,2,P|246:125|237:171,1,80,0|0,2:0|2:0,0:0:0:0:
131,351,71195,5,2,2:1:0:0:
54,209,71352,1,2,2:1:0:0:
105,53,71509,1,2,2:1:0:0:
180,190,71666,5,0,0:0:0:0:
180,190,71744,1,0,0:0:0:0:
180,190,71823,2,0,B|238:183|238:183|272:204|272:204|357:194,1,160,4|2,0:3|0:2,0:0:0:0:
377,351,72451,5,2,0:2:0:0:
454,209,72766,1,2,0:2:0:0:
403,53,73080,6,0,P|354:63|309:58,1,80,2|0,0:2|0:0,0:0:0:0:
129,115,73708,2,0,P|178:105|223:110,1,80,0|2,0:0|0:2,0:0:0:0:
207,106,74179,1,2,0:2:0:0:
178,192,74336,6,0,P|129:202|84:197,2,80,2|2|2,0:2|0:2|0:2,0:0:0:0:
260,173,75121,2,0,P|283:169|308:170,2,40,0|2|0,0:0|0:2|0:0,0:0:0:0:
235,259,75593,6,0,L|248:349,1,80,2|2,0:2|0:2,0:0:0:0:
325,217,76221,2,0,L|321:263,1,40,2|0,0:2|0:0,0:0:0:0:
418,177,76535,2,0,L|404:218,1,40
498,134,76849,6,0,P|503:84|496:46,1,80,2|2,0:2|0:2,0:0:0:0:
304,96,77477,2,0,P|299:146|306:184,1,80,2|2,0:2|0:2,0:0:0:0:
61,84,78106,6,0,P|90:76|144:83,1,80,2|0,0:2|0:0,0:0:0:0:
139,81,78577,1,0,0:0:0:0:
46,170,78734,2,0,L|4:181,2,40,0|0|2,0:0|0:0|0:2,0:0:0:0:
125,165,79205,1,2,0:2:0:0:
192,208,79362,6,0,P|200:248|195:290,1,80,2|2,0:2|0:2,0:0:0:0:
418,365,79991,2,0,P|410:325|415:283,1,80,2|2,0:2|0:2,0:0:0:0:
414,286,80462,1,0,0:0:0:0:
462,197,80619,6,0,L|371:179,1,80,2|2,0:2|0:2,0:0:0:0:
50,197,81247,2,0,L|141:179,1,80,2|2,0:2|0:2,0:0:0:0:
256,72,82189,5,2,0:2:0:0:
256,72,82504,1,2,0:2:0:0:
240,150,82661,1,0,0:0:0:0:
263,226,82818,2,0,L|259:275,1,40,2|0,0:2|0:0,0:0:0:0:
178,316,83132,6,0,P|123:313|60:349,1,120.000004577637,0|8,3:0|3:1,0:0:0:0:
350,313,83760,2,0,P|364:298|398:279,1,60.0000022888184,0|0,3:0|0:0,0:0:0:0:
227,152,84074,2,0,P|246:187|251:258,1,90.0000034332277,8|0,3:1|3:0,0:0:0:0:
253,236,84388,6,0,L|332:219,1,60.0000022888184,0|0,3:0|0:0,0:0:0:0:
507,154,84703,2,0,P|474:124|384:118,1,120.000004577637,8|0,3:1|3:0,0:0:0:0:
401,112,85174,1,0,0:0:0:0:
225,96,85331,2,0,P|266:94|323:61,1,90.0000034332277,8|0,3:1|3:0,0:0:0:0:
309,73,85645,6,0,L|333:205,1,120.000004577637,0|8,3:0|3:1,0:0:0:0:
62,300,86273,2,0,P|89:286|137:280,1,60.0000022888184,0|0,3:0|0:0,0:0:0:0:
293,249,86587,2,0,P|254:268|208:271,1,90.0000034332277,8|0,3:1|3:0,0:0:0:0:
208,271,86902,6,0,L|239:336,1,60.0000022888184,0|0,3:0|0:0,0:0:0:0:
236,123,87216,2,0,L|246:196,1,60.0000022888184,8|0,3:1|0:0,0:0:0:0:
329,18,87530,2,0,L|310:84,1,60.0000022888184,0|0,3:0|0:0,0:0:0:0:
39,46,87844,2,0,L|150:28,1,90.0000034332277,8|0,3:1|3:0,0:0:0:0:
137,66,88158,6,0,B|150:103|150:103|137:160,1,80,4|0,3:2|0:0,0:0:0:0:
58,251,88472,1,8,3:1:0:0:
131,219,88786,1,0,3:0:0:0:
204,251,89100,2,0,P|245:259|317:264,1,90.0000034332277,8|0,3:1|3:0,0:0:0:0:
294,229,89415,6,0,L|286:136,1,80,4|0,3:2|0:0,0:0:0:0:
347,32,89729,1,8,3:1:0:0:
424,51,90043,1,0,3:0:0:0:
475,110,90357,2,0,P|477:158|466:209,1,90.0000034332277,8|0,3:1|3:0,0:0:0:0:
438,188,90671,6,0,L|346:197,1,80,4|0,3:2|0:0,0:0:0:0:
50,90,90985,2,0,P|100:91|176:152,1,120,8|0,3:1|0:0,0:0:0:0:
154,165,91299,2,0,P|144:203|137:254,1,80,4|0,3:2|0:0,0:0:0:0:
364,321,91614,2,0,P|360:263|345:191,1,120,8|0,3:1|3:0,0:0:0:0:
314,216,91928,6,0,P|269:225|217:232,1,80,4|0,3:2|0:0,0:0:0:0:
2,231,92242,2,0,P|41:232|95:237,1,80,8|0,3:1|0:0,0:0:0:0:
190,366,92556,2,0,P|184:324|166:278,1,80,4|0,0:2|0:0,0:0:0:0:
51,144,92870,2,0,P|107:131|151:112,1,80,8|0,3:1|0:0,0:0:0:0:
140,106,93106,1,0,0:0:0:0:
147,87,93184,5,4,0:2:0:0:
230,59,93341,1,0,0:0:0:0:
310,173,93498,5,8,0:0:0:0:
221,145,93655,1,0,0:0:0:0:
315,83,93813,5,4,0:2:0:0:
387,231,93970,1,0,0:0:0:0:
238,231,94127,1,8,0:0:0:0:
390,139,94284,5,0,0:0:0:0:
390,139,94362,1,0,0:0:0:0:
390,139,94441,2,0,L|489:154,1,80,4|0,0:2|0:0,0:0:0:0:
469,150,94676,1,0,0:0:0:0:
469,150,94755,2,0,P|481:208|474:249,1,80,8|0,0:0|0:0,0:0:0:0:
312,368,95069,2,0,P|300:310|307:269,1,80,4|0,0:2|0:0,0:0:0:0:
244,94,95383,5,8,0:0:0:0:
244,94,95462,1,0,0:0:0:0:
244,94,95540,1,0,0:0:0:0:
244,94,95619,1,0,0:0:0:0:
244,94,95697,2,0,P|291:99|344:73,1,80,4|0,0:2|0:0,0:0:0:0:
487,41,96011,2,0,P|440:36|387:62,1,80,8|0,0:0|0:0,0:0:0:0:
159,137,96326,2,0,L|104:157,2,40,4|0|0,0:2|0:0|0:0,0:0:0:0:
454,129,96640,2,0,L|437:216,1,80,8|0,0:0|0:0,0:0:0:0:
434,226,96875,1,0,0:0:0:0:
429,245,96954,1,0,0:0:0:0:
336,343,97111,5,0,0:0:0:0:
328,324,97189,1,0,0:0:0:0:
321,305,97268,1,0,0:0:0:0:
301,308,97347,1,0,0:0:0:0:
281,308,97425,1,0,0:0:0:0:
261,305,97504,1,0,0:0:0:0:
242,298,97582,1,0,0:0:0:0:
222,293,97661,1,0,0:0:0:0:
202,291,97739,1,0,0:0:0:0:
181,292,97818,1,0,0:0:0:0:
161,295,97896,1,0,0:0:0:0:
141,301,97975,1,0,0:0:0:0:
122,307,98053,1,0,0:0:0:0:
103,315,98132,1,0,0:0:0:0:
87,327,98210,5,4,0:2:0:0:
30,158,98525,1,4,0:2:0:0:
188,107,98839,1,4,0:2:0:0:
237,282,99153,1,4,0:2:0:0:
130,218,99467,1,4,0:2:0:0:
130,218,99781,5,4,0:2:0:0:
127,52,99938,1,4,0:2:0:0:
264,129,100095,1,4,0:2:0:0:
184,148,100252,5,2,2:0:0:0:
319,193,100409,1,2,2:0:0:0:
296,50,100566,1,2,2:0:0:0:
184,148,100724,5,6,0:0:0:0:
151,255,100881,1,0,0:0:0:0:
228,335,101038,1,0,0:0:0:0:
255,226,101195,1,0,0:0:0:0:
255,226,101273,1,0,0:0:0:0:
255,226,101352,2,2,L|268:145,1,80,0|2,0:0|0:0,0:0:0:0:
90,50,101666,2,0,L|103:131,1,80
325,302,101980,6,0,P|368:311|425:293,1,80,2|0,0:0|0:0,0:0:0:0:
427,117,102294,2,2,P|384:108|327:126,1,80,0|2,0:0|0:0,0:0:0:0:
325,302,102608,5,4,0:2:0:0:
424,222,102765,1,2,0:0:0:0:
349,114,102922,1,4,0:2:0:0:
248,195,103080,1,2,0:0:0:0:
424,222,103237,6,0,L|519:211,1,80,6|0,0:0|0:0,0:0:0:0:
503,212,103551,1,0,0:0:0:0:
434,56,103708,5,0,0:0:0:0:
434,56,103786,1,0,0:0:0:0:
434,56,103865,1,2,0:0:0:0:
349,114,104022,1,2,0:0:0:0:
265,64,104179,1,0,0:0:0:0:
180,120,104336,1,0,0:0:0:0:
133,321,104493,6,0,P|89:330|25:328,2,80,4|0|2,0:0|0:0|0:2,0:0:0:0:
279,159,104964,2,0,P|335:153|427:235,1,160,4|6,0:0|0:2,0:0:0:0:
91,223,105436,2,0,P|76:167|88:125,1,80,4|6,0:0|0:2,0:0:0:0:
194,46,105750,5,6,0:0:0:0:
256,180,105907,1,0,0:0:0:0:
161,142,106064,1,0,0:0:0:0:
289,80,106221,1,0,0:0:0:0:
289,80,106299,1,0,0:0:0:0:
289,80,106378,2,2,L|376:60,1,80,0|2,0:0|0:0,0:0:0:0:
352,224,106692,2,0,L|439:244,1,80
168,367,107006,6,2,P|150:304|179:193,1,160,0|2,0:0|0:0,0:0:0:0:
386,62,107477,2,0,P|394:106|376:162,1,80,2|0,0:0|0:0,0:0:0:0:
248,243,107792,1,4,0:2:0:0:
248,243,107870,1,0,0:0:0:0:
248,243,107949,1,2,0:0:0:0:
293,149,108106,1,4,0:2:0:0:
342,235,108263,5,6,0:0:0:0:
211,107,108420,2,0,P|160:116|126:142,1,80,2|2,0:2|0:2,0:0:0:0:
103,324,108734,5,0,0:0:0:0:
103,324,108813,1,0,0:0:0:0:
103,324,108891,1,4,0:2:0:0:
293,149,109048,2,0,P|344:158|378:184,1,80,2|2,0:2|0:2,0:0:0:0:
399,360,109362,1,4,0:2:0:0:
315,230,109519,6,0,P|319:178|356:65,1,160,4|0,0:0|2:0,0:0:0:0:
152,233,109991,2,0,P|108:241|54:236,2,80,4|8|8,2:0|2:3|2:3,0:0:0:0:
182,223,110383,1,4,2:3:0:0:
213,230,110462,1,4,2:3:0:0:
315,230,110619,1,4,2:3:0:0:
425,87,110776,5,6,0:0:0:0:
337,126,110933,1,0,0:0:0:0:
262,65,111090,1,0,0:0:0:0:
175,106,111247,1,0,0:0:0:0:
175,106,111326,1,0,0:0:0:0:
175,106,111404,2,2,P|124:111|78:98,1,80,0|2,0:0|0:0,0:0:0:0:
11,258,111718,2,0,P|43:237|73:196,1,80
213,230,112032,5,2,0:0:0:0:
121,312,112189,1,0,0:0:0:0:
244,355,112347,2,2,L|334:337,1,80,0|2,0:0|0:0,0:0:0:0:
428,230,112661,5,4,0:2:0:0:
320,123,112818,1,2,0:0:0:0:
213,230,112975,1,4,0:2:0:0:
322,339,113132,1,2,0:0:0:0:
325,233,113289,5,6,0:0:0:0:
210,151,113446,1,0,0:0:0:0:
181,304,113603,1,0,0:0:0:0:
73,200,113760,1,0,0:0:0:0:
73,200,113839,1,0,0:0:0:0:
73,200,113917,2,2,P|30:205|-14:231,1,80,0|2,0:0|0:0,0:0:0:0:
0,364,114231,2,0,P|43:359|87:333,1,80
248,237,114546,6,0,L|256:143,1,80,4|0,0:0|0:0,0:0:0:0:
163,201,114860,1,2,0:2:0:0:
350,205,115017,2,0,P|341:136|352:66,1,120.000004577637,4|6,2:2|2:2,0:0:0:0:
447,31,115488,2,0,L|439:132,1,80,4|6,2:1|2:2,0:0:0:0:
473,299,115802,5,6,0:0:0:0:
380,272,115959,1,0,0:0:0:0:
303,330,116116,1,0,0:0:0:0:
208,312,116273,1,0,0:0:0:0:
208,312,116352,1,0,0:0:0:0:
208,312,116430,2,2,L|105:334,1,80,0|2,0:0|0:0,0:0:0:0:
95,171,116744,2,0,L|191:187,1,80
82,251,117059,5,6,0:0:0:0:
16,157,117216,1,0,0:0:0:0:
113,89,117373,1,0,0:0:0:0:
173,184,117530,1,0,0:0:0:0:
16,157,117687,6,0,L|-2:67,1,80,2|0,0:0|0:0,0:0:0:0:
211,31,118001,2,0,L|312:42,1,80
426,89,118315,6,0,L|485:63,2,40,6|0|0,0:0|0:0|0:0,0:0:0:0:
256,120,118629,1,8,0:2:0:0:
79,169,118786,5,0,0:0:0:0:
79,169,118865,1,0,0:0:0:0:
79,169,118943,2,0,L|20:143,2,40,6|0|0,0:0|0:0|0:0,0:0:0:0:
256,224,119258,1,8,0:2:0:0:
436,276,119415,5,0,0:0:0:0:
436,276,119493,1,0,0:0:0:0:
436,276,119572,2,0,L|495:250,3,40,6|0|0|0,0:0|0:0|0:0|0:0,0:0:0:0:
355,217,119886,2,0,L|367:163,3,40,8|0|0|0,0:2|0:0|0:0|0:0,0:0:0:0:
256,224,120200,5,8,0:2:0:0:
221,243,120278,1,0,0:0:0:0:
180,239,120357,1,8,0:2:0:0:
146,216,120436,1,0,0:0:0:0:
131,178,120514,1,8,0:2:0:0:
135,138,120593,1,0,0:0:0:0:
159,107,120671,1,8,0:2:0:0:
196,93,120750,1,0,0:0:0:0:
235,99,120828,6,0,L|317:90,1,60.0000022888184,4|2,0:2|0:0,0:0:0:0:
384,84,121142,1,4,0:2:0:0:
506,295,121299,5,2,0:0:0:0:
472,218,121456,1,4,0:2:0:0:
388,228,121614,1,2,0:0:0:0:
372,310,121771,1,4,0:2:0:0:
442,355,121928,1,2,0:0:0:0:
388,228,122085,2,0,L|324:242,1,60.0000022888184,12|2,0:2|0:0,0:0:0:0:
79,362,122399,6,2,B|126:350|126:350|163:316|163:316|211:305,1,143.999995605469,0|2,2:0|2:1,0:0:0:0:
242,322,122713,1,2,2:2:0:0:
270,221,122870,1,2,2:0:0:0:
211,137,123027,1,0,0:0:0:0:
204,117,123106,1,0,0:0:0:0:
206,97,123184,1,0,0:0:0:0:
199,77,123263,1,0,0:0:0:0:
199,57,123341,5,4,0:0:0:0:
347,111,123498,2,0,P|391:120|452:109,2,80,2|4|2,0:2|0:2|0:2,0:0:0:0:
325,100,123891,1,2,0:2:0:0:
308,82,123970,5,0,0:0:0:0:
389,35,124127,1,2,0:2:0:0:
373,216,124284,5,4,0:2:0:0:
292,263,124441,1,2,0:2:0:0:
296,174,124598,5,0,0:0:0:0:
373,302,124755,1,2,0:2:0:0:
207,286,124912,2,0,P|153:290|49:359,1,160,6|2,0:2|0:2,0:0:0:0:
62,342,125383,1,2,0:0:0:0:
36,137,125540,2,2,P|69:187|74:242,1,80,4|2,0:2|0:0,0:0:0:0:
287,371,125854,5,4,0:0:0:0:
373,302,126011,2,0,L|479:289,2,80,2|4|2,0:2|0:2|0:2,0:0:0:0:
350,294,126404,1,2,0:2:0:0:
325,295,126483,1,0,0:0:0:0:
234,263,126640,1,2,0:2:0:0:
150,311,126797,1,4,0:2:0:0:
61,272,126954,1,2,0:2:0:0:
320,200,127111,6,2,P|339:164|342:104,2,80,4|0|2,0:0|0:0|0:0,0:0:0:0:
58,182,127582,2,2,P|36:123|82:30,1,160,4|0,0:0|0:0,0:0:0:0:
210,143,128053,2,2,P|158:138|117:102,1,80,4|2,0:0|0:0,0:0:0:0:
201,39,128367,5,4,0:0:0:0:
201,39,128682,1,4,0:2:0:0:
296,87,128839,1,2,0:2:0:0:
296,87,128917,1,2,0:2:0:0:
296,87,128996,2,0,L|390:67,1,80,0|2,0:0|0:2,0:0:0:0:
397,169,129310,2,0,L|493:146,1,80,4|2,0:2|0:2,0:0:0:0:
258,247,129624,5,0,0:0:0:0:
272,341,129781,1,2,0:2:0:0:
167,213,129938,2,0,L|81:205,1,80,6|0,0:2|0:0,0:0:0:0:
338,188,130252,2,0,L|417:162,1,80,0|2,0:2|0:0,0:0:0:0:
242,123,130566,2,2,L|232:33,1,80,4|2,0:2|0:0,0:0:0:0:
183,316,130881,5,4,0:0:0:0:
183,316,131195,2,0,L|263:347,1,80,4|2,0:2|0:2,0:0:0:0:
257,344,131430,1,2,0:2:0:0:
257,344,131509,2,0,P|312:357|361:344,1,80,0|2,0:0|0:2,0:0:0:0:
505,277,131823,2,0,P|450:289|401:276,1,80,4|2,0:2|0:2,0:0:0:0:
301,147,132137,6,0,P|354:133|456:191,1,160,4|0,0:0|0:0,0:0:0:0:
134,229,132608,2,0,P|88:241|31:226,2,80,0|8|8,0:0|0:3|0:3,0:0:0:0:
165,221,133001,1,0,0:0:0:0:
196,225,133080,1,4,0:3:0:0:
291,253,133237,1,4,0:3:0:0:
199,55,133394,5,4,0:0:0:0:
303,147,133551,2,0,P|357:139|393:119,2,80,2|4|2,0:2|0:2|0:2,0:0:0:0:
280,137,133943,1,2,0:2:0:0:
257,146,134022,5,0,0:0:0:0:
303,24,134179,1,2,0:2:0:0:
379,128,134336,5,4,0:2:0:0:
336,276,134493,1,2,0:2:0:0:
326,195,134650,5,0,0:0:0:0:
405,332,134807,1,2,0:2:0:0:
326,195,134964,2,0,P|376:156|474:177,1,160,6|2,0:2|0:2,0:0:0:0:
409,62,135436,1,2,0:0:0:0:
413,254,135593,2,2,P|416:282|404:331,1,80,4|2,0:2|0:0,0:0:0:0:
267,342,135907,5,4,0:0:0:0:
148,318,136064,2,0,L|40:338,2,80,2|4|2,0:2|0:2|0:2,0:0:0:0:
171,312,136456,1,2,0:2:0:0:
194,305,136535,1,0,0:0:0:0:
167,212,136692,1,2,0:2:0:0:
211,127,136849,1,4,0:2:0:0:
181,35,137006,1,2,0:2:0:0:
260,232,137163,6,0,P|302:239|353:225,1,80,4|0,0:0|0:0,0:0:0:0:
336,92,137477,1,0,0:0:0:0:
211,127,137635,2,0,P|150:116|88:158,1,120.000004577637,4|4,2:0|2:2,0:0:0:0:
200,384,138106,2,0,P|207:348|200:306,1,80,4|0,2:1|2:0,0:0:0:0:
167,212,138420,5,4,0:0:0:0:
167,212,138734,1,4,0:2:0:0:
261,224,138891,1,2,0:2:0:0:
279,232,138970,1,2,0:2:0:0:
296,242,139048,2,0,P|299:291|288:339,1,80,0|2,0:0|0:2,0:0:0:0:
211,139,139362,2,0,P|208:90|219:42,1,80,4|2,0:2|0:2,0:0:0:0:
308,45,139676,5,4,0:0:0:0:
374,114,139833,1,2,0:2:0:0:
470,114,139991,2,2,P|473:163|462:211,1,80,4|2,0:2|0:0,0:0:0:0:
204,339,140305,5,0,0:0:0:0:
138,270,140462,1,0,0:0:0:0:
42,270,140620,2,0,P|39:221|50:173,1,80,2|0,0:0|0:0,0:0:0:0:
176,182,140933,6,0,L|334:200,1,160,6|0,0:0|0:0,0:0:0:0:
392,133,141404,1,2,0:2:0:0:
392,133,141483,1,2,0:2:0:0:
392,133,141561,1,4,0:0:0:0:
306,283,141718,1,2,0:2:0:0:
441,202,141875,1,0,0:0:0:0:
392,281,142032,1,2,0:2:0:0:
292,87,142189,6,0,P|283:43|296:-8,2,80,6|0|0,0:0|0:0|0:0,0:0:0:0:
355,208,142661,1,2,0:2:0:0:
477,124,142818,2,0,P|503:91|513:38,1,80,4|2,0:0|0:2,0:0:0:0:
243,199,143132,2,0,P|197:191|141:206,1,80,4|2,0:0|0:2,0:0:0:0:
32,304,143446,5,6,0:0:0:0:
32,304,143760,1,4,2:2:0:0:
92,225,143917,5,2,2:0:0:0:
245,284,144074,1,4,2:2:0:0:
220,115,144231,1,2,2:0:0:0:
157,288,144388,5,4,2:2:0:0:
129,132,144546,1,2,2:0:0:0:
278,187,144703,2,12,L|347:172,1,60.0000022888184,4|2,2:2|2:0,0:0:0:0:
483,20,145017,6,2,B|436:35|436:35|407:73|407:73|359:87,1,143.999995605469,0|2,0:0|0:0,0:0:0:0:
328,64,145331,6,2,B|330:84|330:84|336:82|336:82|335:103|335:103|341:101|341:101|340:122|340:122|346:120|346:120|345:141|345:141|351:140|351:140|350:160|350:160|356:159|356:159|356:180|356:180|361:178|361:178|364:198,1,180.000006866455,0|0,0:0|0:0,0:0:0:0:
443,212,145645,6,2,L|428:275,1,60.0000022888184,0|0,0:0|0:0,0:0:0:0:
347,278,145802,2,2,L|331:351,1,60.0000022888184,0|0,0:0|0:0,0:0:0:0:
252,348,145959,5,4,1:0:0:0:
128,312,146116,2,0,L|80:328,2,30.0000011444092,2|0|0,0:3|0:0|0:0,0:0:0:0:
206,268,146430,1,2,0:3:0:0:
128,221,146587,2,0,P|114:180|134:114,1,90.0000034332277,0|2,0:0|0:3,0:0:0:0:
140,116,146902,2,0,L|186:104,2,30.0000011444092,0|0|2,0:0|0:0|0:3,0:0:0:0:
233,168,147216,6,2,L|304:182,1,60.0000022888184,0|2,0:0|0:0,0:0:0:0:
342,89,147530,2,2,L|386:78,2,30.0000011444092,0|0|2,0:0|0:0|0:0,0:0:0:0:
387,182,147844,2,2,L|459:198,1,60.0000022888184,0|2,0:0|0:0,0:0:0:0:
512,94,148158,2,0,L|444:114,1,60.0000022888184,4|2,0:0|0:0,0:0:0:0:
318,261,148472,5,0,0:0:0:0:
414,279,148629,2,0,L|458:293,2,30.0000011444092,2|0|0,0:3|0:0|0:0,0:0:0:0:
350,349,148943,1,2,0:3:0:0:
318,261,149100,2,0,P|272:252|225:263,1,90.0000034332277,0|2,0:0|0:3,0:0:0:0:
203,270,149415,2,0,L|184:318,2,30.0000011444092,0|0|2,0:0|0:0|0:3,0:0:0:0:
140,202,149729,6,2,L|148:124,1,60.0000022888184,0|2,0:0|0:0,0:0:0:0:
267,139,150043,1,2,0:0:0:0:
267,139,150121,1,2,0:0:0:0:
267,139,150200,1,2,0:0:0:0:
267,139,150278,1,2,0:0:0:0:
267,139,150357,2,2,L|275:61,1,60.0000022888184,0|2,0:0|0:0,0:0:0:0:
395,28,150671,2,0,L|389:88,1,60.0000022888184,4|2,0:0|0:0,0:0:0:0:
218,216,150985,5,4,0:0:0:0:
304,245,151142,2,0,L|346:255,2,30.0000011444092,2|0|0,0:3|0:0|0:0,0:0:0:0:
218,216,151456,1,2,0:3:0:0:
234,308,151614,2,0,L|244:371,1,60.0000022888184,0|2,0:0|0:3,0:0:0:0:
140,284,151928,2,0,L|100:279,3,30.0000011444092,0|0|2|0,0:0|0:0|0:3|0:0,0:0:0:0:
76,269,152242,6,2,L|61:197,1,60.0000022888184,0|2,0:0|0:0,0:0:0:0:
169,86,152556,2,2,L|154:158,1,60.0000022888184,0|2,0:0|0:0,0:0:0:0:
246,153,152870,1,2,0:0:0:0:
313,212,153027,1,2,0:0:0:0:
388,163,153184,2,2,L|391:124,2,30.0000011444092,2|2|2,0:0|0:0|0:0,0:0:0:0:
395,245,153498,6,2,L|475:256,1,60.0000022888184,0|2,0:0|0:0,0:0:0:0:
319,349,153813,2,2,L|397:335,1,60.0000022888184,0|2,0:0|0:0,0:0:0:0:
212,254,154127,2,2,L|288:268,1,60.0000022888184,0|2,0:0|0:0,0:0:0:0:
122,210,154441,1,4,0:0:0:0:
122,210,154598,1,2,0:0:0:0:
102,119,154755,6,2,L|88:46,2,60.0000022888184,0|2|0,0:0|0:0|0:0,0:0:0:0:
122,210,155226,1,2,0:0:0:0:
91,296,155383,5,0,0:0:0:0:
86,329,155462,1,0,0:0:0:0:
102,357,155540,1,0,0:0:0:0:
132,371,155619,1,0,0:0:0:0:
164,371,155697,1,0,0:0:0:0:
192,354,155776,1,0,0:0:0:0:
203,324,155854,1,0,0:0:0:0:
204,293,155933,1,0,0:0:0:0:
185,269,156011,5,0,0:0:0:0:
251,198,156169,1,8,0:0:0:0:
251,198,156247,1,0,0:0:0:0:
251,198,156326,1,0,0:0:0:0:
341,228,156483,1,8,0:0:0:0:
327,143,156640,2,0,P|288:242|297:292,1,160,4|2,0:2|0:2,0:0:0:0:
297,292,157032,1,2,0:2:0:0:
297,292,157111,1,2,0:2:0:0:
297,292,157189,1,2,0:2:0:0:
297,292,157268,5,4,0:2:0:0:
381,337,157425,1,2,0:2:0:0:
206,295,157582,2,0,L|121:314,1,80,4|0,0:2|0:0,0:0:0:0:
383,234,157896,2,2,L|478:257,1,80,0|2,0:0|0:0,0:0:0:0:
273,167,158210,2,0,L|258:70,1,80,0|2,0:0|0:0,0:0:0:0:
181,205,158525,5,4,0:0:0:0:
93,166,158682,1,8,0:0:0:0:
93,166,158760,1,0,0:0:0:0:
93,166,158839,1,0,0:0:0:0:
13,219,158996,1,8,0:0:0:0:
131,290,159153,2,0,P|177:302|224:292,1,80,4|2,0:2|0:2,0:0:0:0:
263,123,159467,2,0,P|217:111|170:121,1,80,0|2,0:0|0:2,0:0:0:0:
166,100,159703,1,2,0:2:0:0:
144,90,159781,6,0,L|253:67,1,80,4|2,0:2|0:2,0:0:0:0:
393,42,160095,2,0,L|289:65,1,80,4|2,0:2|0:2,0:0:0:0:
78,82,160409,6,2,L|169:62,1,80,4|2,0:2|0:0,0:0:0:0:
369,84,160724,2,2,L|274:101,1,80,2|0,0:0|0:0,0:0:0:0:
180,322,161038,5,4,0:0:0:0:
242,249,161195,1,8,0:0:0:0:
242,249,161273,1,0,0:0:0:0:
242,249,161352,1,0,0:0:0:0:
271,332,161509,1,8,0:0:0:0:
180,322,161666,2,0,P|198:275|185:165,1,160,4|2,0:2|0:2,0:0:0:0:
186,168,162059,1,2,0:2:0:0:
186,168,162137,1,2,0:2:0:0:
186,168,162216,1,2,0:2:0:0:
186,168,162294,5,4,0:2:0:0:
294,183,162451,1,2,0:2:0:0:
258,27,162608,2,0,P|243:72|252:119,1,80,4|0,0:2|0:0,0:0:0:0:
375,212,162922,2,2,L|463:196,1,80,0|2,0:0|0:0,0:0:0:0:
223,268,163237,2,0,L|135:252,1,80,0|2,0:0|0:0,0:0:0:0:
72,127,163551,5,4,0:2:0:0:
190,110,163708,1,8,0:0:0:0:
190,110,163786,1,0,0:0:0:0:
190,110,163865,1,0,0:0:0:0:
305,141,164022,1,8,0:0:0:0:
423,119,164179,2,2,P|427:160|425:216,1,80,4|2,0:2|0:0,0:0:0:0:
423,370,164493,2,2,P|419:329|421:273,1,80,0|2,0:0|0:0,0:0:0:0:
441,280,164729,1,0,0:0:0:0:
463,273,164807,5,4,0:2:0:0:
323,333,165121,1,4,0:2:0:0:
187,263,165436,1,4,0:2:0:0:
44,316,165750,1,4,0:2:0:0:
293,120,166064,6,0,L|386:109,1,90.0000034332277,4|0,0:3|0:0,0:0:0:0:
419,187,166378,6,2,B|368:194|368:194|337:230|337:230|274:238,1,143.999995605469,0|2,2:0|2:1,0:0:0:0:
221,179,166692,6,0,L|195:123,2,47.9999985351563,2|2|2,0:0|0:0|0:3,0:0:0:0:
96,329,167006,2,0,L|55:380,2,47.9999985351563,2|2|2,0:0|0:0|0:3,0:0:0:0:
44,145,167320,5,4,1:0:0:0:
256,192,167477,12,0,169833,0:0:0:0:
71,79,179886,6,0,L|83:162,1,60.0000022888184
166,265,180200,2,0,L|155:193,1,60.0000022888184
18,210,180514,2,0,P|11:261|12:318,2,90.0000034332277
209,345,181299,6,0,P|255:346|305:330,1,90.0000034332277
495,262,181771,2,0,P|449:261|399:277,2,90.0000034332277
372,104,182399,6,0,L|380:179,1,60.0000022888184
297,250,182713,2,0,L|288:182,1,60.0000022888184
465,83,183027,2,0,P|477:131|476:184,2,90.0000034332277
146,87,183813,6,0,L|28:101,1,90.0000034332277
232,157,184284,2,0,L|350:143,2,90.0000034332277,0|0|0,0:0|0:0|1:0,0:0:0:0:
205,167,184833,1,0,1:0:0:0:
179,179,184912,6,0,P|167:219|173:268,1,80,4|0,0:0|0:0,0:0:0:0:
249,318,185226,2,0,P|261:278|255:229,1,80
75,163,185540,1,0,0:0:0:0:
38,334,185697,1,0,0:0:0:0:
38,334,185776,2,2,P|111:346|179:314,1,120,0|2,0:0|0:0,0:0:0:0:
174,319,186090,1,0,0:0:0:0:
195,308,186169,6,0,P|248:290|287:299,1,80,4|0,0:0|0:0,0:0:0:0:
470,232,186483,2,0,P|413:247|390:272,1,80
279,97,186797,2,2,P|305:141|316:215,1,120,0|2,0:0|0:0,0:0:0:0:
316,208,187111,1,0,0:0:0:0:
395,111,187268,1,2,0:0:0:0:
208,181,187425,6,0,L|153:169,2,40,4|0|0,0:0|0:0|0:0,0:0:0:0:
276,300,187739,2,2,L|356:328,1,80,0|2,0:0|0:0,0:0:0:0:
316,127,188053,6,0,L|371:115,2,40,4|0|0,0:0|0:0|0:0,0:0:0:0:
180,273,188367,2,2,L|100:301,1,80,0|2,0:0|0:0,0:0:0:0:
85,285,188603,1,0,0:0:0:0:
65,270,188682,6,2,P|44:222|51:174,1,80,4|0,0:0|0:0,0:0:0:0:
117,153,188917,1,0,0:0:0:0:
117,153,188996,2,2,L|214:173,1,80,4|0,0:2|0:0,0:0:0:0:
277,146,189231,1,0,0:0:0:0:
277,146,189310,2,2,P|291:104|280:57,1,80,4|0,0:2|0:0,0:0:0:0:
225,22,189546,2,2,L|134:38,1,80,4|0,0:2|0:0,0:0:0:0:
68,30,189781,2,2,L|16:36,1,40,4|0,0:2|0:0,0:0:0:0:
45,112,189938,6,0,L|113:102,1,60.0000022888184,8|0,0:2|0:0,0:0:0:0:
317,184,190252,6,2,B|267:192|267:192|218:176|218:176|165:187,1,143.999995605469,0|2,2:0|2:1,0:0:0:0:
98,205,190566,6,2,B|77:228|77:228|90:332,1,120,2|0,2:1|2:0,0:0:0:0:
151,378,190881,2,2,B|172:355|172:355|159:251,1,120,0|2,2:0|2:1,0:0:0:0:
98,205,191195,5,2,0:3:0:0:
85,184,191273,1,2,0:3:0:0:
72,163,191352,1,2,0:3:0:0:
58,143,191430,1,2,0:3:0:0:
47,121,191509,6,0,L|115:111,1,60.0000022888184,8|0,0:2|0:0,0:0:0:0:
400,115,191823,6,2,B|379:114|379:114|380:120|380:120|360:117|360:117|360:123|360:123|340:120|340:120|341:126|341:126|320:123|320:123|321:129|321:129|300:125|300:125|301:131|301:131|281:128|281:128|282:134|282:134|260:134,1,180.000006866455,0|2,2:0|2:1,0:0:0:0:
193,106,192137,6,2,L|171:161,6,40
98,206,192451,5,4,0:0:0:0:
98,206,192765,2,0,L|109:297,1,80,4|2,0:2|0:2,0:0:0:0:
238,300,193080,2,0,P|284:282|326:293,1,80
389,317,193315,2,0,P|319:366|289:361,1,120,2|2,0:2|0:2,0:0:0:0:
289,361,193629,1,2,0:2:0:0:
289,361,193708,1,0,0:0:0:0:
351,205,193865,6,2,P|392:221|447:212,1,80,0|0,0:0|0:0,0:0:0:0:
411,139,194100,2,2,P|367:120|281:155,2,120,0|2|0,0:0|0:0|0:0,0:0:0:0:
493,127,194650,2,2,P|478:83|445:57,1,80,0|2,0:0|0:0,0:0:0:0:
77,155,194964,5,0,0:0:0:0:
77,155,195278,2,0,L|169:133,1,80,4|2,0:2|0:2,0:0:0:0:
370,221,195593,2,0,P|321:228|278:208,1,80
225,166,195828,2,0,P|306:137|334:146,1,120,2|2,0:2|0:2,0:0:0:0:
334,146,196142,1,2,0:2:0:0:
334,146,196221,1,4,0:0:0:0:
176,232,196378,6,2,L|32:265,2,120,4|4|2,0:2|0:2|0:0,0:0:0:0:
340,328,197006,1,2,0:2:0:0:
340,328,197085,1,4,0:2:0:0:
340,328,197163,2,0,P|354:284|348:234,1,80,2|2,0:0|0:2,0:0:0:0:
271,77,197477,6,0,P|266:129|278:173,1,80,4|2,0:0|0:2,0:0:0:0:
462,129,197792,2,0,P|408:134|367:159,1,80,4|2,0:2|0:2,0:0:0:0:
196,311,198106,2,0,P|173:321|119:326,1,80
41,293,198341,2,0,P|71:256|151:251,1,120,2|2,0:2|0:2,0:0:0:0:
139,246,198655,1,2,0:2:0:0:
139,246,198734,1,0,0:0:0:0:
232,138,198891,6,2,L|327:121,1,80,0|0,0:0|0:0,0:0:0:0:
387,145,199127,2,2,P|396:102|386:15,2,120,0|2|0,0:0|0:0|0:0,0:0:0:0:
427,219,199676,2,2,L|505:233,1,80,0|2,0:0|0:0,0:0:0:0:
281,255,199991,6,0,L|185:269,1,80,0|2,0:0|0:2,0:0:0:0:
14,315,200305,2,0,L|108:335,1,80,4|2,0:2|0:2,0:0:0:0:
176,82,200619,2,0,P|132:120|105:192,1,120,0|2,0:0|0:2,0:0:0:0:
107,175,200933,1,0,0:0:0:0:
76,48,201090,1,2,0:2:0:0:
214,185,201247,5,4,0:0:0:0:
267,106,201404,2,2,L|403:90,2,120,4|4|8,0:2|0:2|0:3,0:0:0:0:
267,106,201954,1,4,0:3:0:0:
267,106,202032,1,4,0:3:0:0:
203,253,202189,5,8,0:3:0:0:
241,83,202347,1,4,0:3:0:0:
176,274,202504,6,0,L|96:292,1,80,4|2,0:0|0:2,0:0:0:0:
276,316,202818,2,0,L|366:329,1,80,4|2,0:2|0:2,0:0:0:0:
449,344,203132,1,2,0:0:0:0:
474,251,203289,1,0,0:0:0:0:
474,251,203367,1,2,0:0:0:0:
379,230,203525,1,0,0:0:0:0:
379,230,203603,1,2,0:0:0:0:
284,249,203760,5,0,0:0:0:0:
194,213,203917,2,0,P|187:165|189:117,1,80,2|2,0:2|0:2,0:0:0:0:
187,133,204153,2,2,L|317:111,1,120,4|2,0:2|0:0,0:0:0:0:
166,298,204546,1,0,0:0:0:0:
166,298,204624,2,2,P|107:307|22:284,1,120,0|2,0:0|0:0,0:0:0:0:
80,105,205017,6,0,P|84:147|98:213,1,80,0|2,0:0|0:2,0:0:0:0:
262,335,205331,2,0,P|257:292|244:227,1,80,4|2,0:2|0:2,0:0:0:0:
213,146,205645,1,2,0:0:0:0:
166,298,205802,1,0,0:0:0:0:
166,298,205881,1,2,0:0:0:0:
333,266,206038,1,0,0:0:0:0:
333,266,206116,1,2,0:0:0:0:
242,235,206273,5,4,0:0:0:0:
458,163,206430,2,2,L|355:145,1,80,0|0,0:0|0:0,0:0:0:0:
347,71,206666,2,2,L|443:88,1,80,0|0,0:0|0:0,0:0:0:0:
300,155,206902,2,2,L|188:137,1,80,4|2,0:0|0:0,0:0:0:0:
63,175,207137,2,2,L|153:191,1,80,0|0,0:0|0:0,0:0:0:0:
215,238,207373,1,2,0:0:0:0:
71,79,207530,5,4,0:0:0:0:
161,110,207687,1,2,0:2:0:0:
251,79,207844,1,4,0:2:0:0:
342,108,208001,1,2,0:2:0:0:
427,65,208158,1,2,0:0:0:0:
483,234,208315,1,0,0:0:0:0:
483,234,208394,2,0,P|426:230|380:242,1,80,2|0,0:0|0:0,0:0:0:0:
403,233,208629,1,2,0:0:0:0:
342,307,208786,5,4,0:0:0:0:
248,287,208943,2,0,P|194:313|153:313,1,80,2|2,0:2|0:2,0:0:0:0:
174,314,209179,2,2,L|24:305,1,120,4|2,0:2|0:0,0:0:0:0:
166,100,209572,1,0,0:0:0:0:
166,100,209650,2,2,P|188:148|184:236,1,120,0|2,0:0|0:0,0:0:0:0:
84,179,210043,5,6,0:0:0:0:
276,96,210200,1,0,0:0:0:0:
299,102,210279,1,0,0:0:0:0:
322,104,210357,1,0,0:0:0:0:
346,104,210436,1,0,0:0:0:0:
369,98,210515,1,0,0:0:0:0:
482,28,210671,6,0,P|496:79|490:133,1,80,6|0,0:0|0:0,0:0:0:0:
441,225,210985,1,0,0:0:0:0:
418,216,211064,1,0,0:0:0:0:
394,213,211142,1,0,0:0:0:0:
94,332,211299,5,6,0:0:0:0:
94,332,211614,1,6,0:0:0:0:
83,311,211692,1,0,0:0:0:0:
75,288,211771,1,0,0:0:0:0:
69,265,211849,1,0,0:0:0:0:
68,240,211928,1,6,0:0:0:0:
69,216,212006,1,0,0:0:0:0:
71,191,212085,1,0,0:0:0:0:
76,167,212163,1,2,0:0:0:0:
100,173,212242,2,2,P|144:184|201:192,1,80,4|2,0:0|0:0,0:0:0:0:
441,62,212556,5,4,1:0:0:0:
