osu file format v14

[General]
AudioFilename: audio.mp3
AudioLeadIn: 0
PreviewTime: -1
Countdown: 1
SampleSet: None
StackLeniency: 0.2
Mode: 0
LetterboxInBreaks: 0
WidescreenStoryboard: 0

[Editor]
DistanceSpacing: 1.6
BeatDivisor: 4
GridSize: 8
TimelineZoom: 1

[Metadata]
Title:Time to Air
TitleUnicode:Time to Air
Artist:Seiryu
ArtistUnicode:«CÀs
Creator:Bacwux
Version:Blue 2
Source:
Tags:
BeatmapID:2042449
BeatmapSetID:975892

[Difficulty]
HPDrainRate:3
CircleSize:5
OverallDifficulty:9
ApproachRate:9.8
SliderMultiplier:1.4
SliderTickRate:1

[Events]
//Background and Video events
0,0,"BG.jpg",0,0
//Break Periods
2,60874,65221
//Storyboard Layer 0 (Background)
//Storyboard Layer 1 (Fail)
//Storyboard Layer 2 (Pass)
//Storyboard Layer 3 (Foreground)
//Storyboard Sound Samples

[TimingPoints]
360,314.13612565445,4,3,0,69,1,0
82035,-100,4,3,0,69,0,1
90831,-100,4,3,0,69,0,0
92087,-100,4,3,0,69,0,1
102140,-100,4,3,0,69,0,0
112349,-100,4,3,0,69,0,0
112506,-100,4,3,0,67,0,0
112663,-100,4,3,0,65,0,0
112820,-100,4,3,0,63,0,0
112977,-100,4,3,0,61,0,0
113134,-100,4,3,0,59,0,0
113291,-100,4,3,0,57,0,0
113449,-100,4,3,0,55,0,0
113606,-100,4,3,0,53,0,0
113763,-100,4,3,0,51,0,0
113920,-100,4,3,0,49,0,0
114077,-100,4,3,0,47,0,0
114234,-100,4,3,0,45,0,0
114391,-100,4,3,0,43,0,0
114548,-100,4,3,0,41,0,0
114705,-100,4,3,0,39,0,0
114862,-100,4,3,0,37,0,0
115019,-100,4,3,0,35,0,0
115176,-100,4,3,0,33,0,0
115333,-100,4,3,0,31,0,0
115490,-100,4,3,0,29,0,0
115647,-100,4,3,0,27,0,0
115805,-100,4,3,0,25,0,0
115962,-100,4,3,0,23,0,0
116119,-100,4,3,0,21,0,0
116276,-100,4,3,0,19,0,0
116433,-100,4,3,0,17,0,0
116590,-100,4,3,0,15,0,0
116747,-100,4,3,0,13,0,0
116904,-100,4,3,0,11,0,0
117061,-100,4,3,0,9,0,0
117218,-100,4,3,0,7,0,0
117375,-100,4,3,0,5,0,0

[HitObjects]
110,109,360,5,8,0:0:0:0:
172,300,517,1,0,0:0:0:0:
220,222,674,1,8,0:0:0:0:
220,222,752,1,0,0:0:0:0:
220,222,831,1,0,0:0:0:0:
81,269,988,1,8,0:0:0:0:
268,292,1145,1,0,0:0:0:0:
262,315,1223,1,0,0:0:0:0:
360,218,1380,1,0,0:0:0:0:
366,241,1458,1,0,0:0:0:0:
368,70,1616,5,0,0:0:0:0:
344,62,1695,1,0,0:0:0:0:
336,86,1773,1,0,0:0:0:0:
360,94,1852,1,0,0:0:0:0:
427,101,1930,5,0,0:0:0:0:
451,93,2009,1,0,0:0:0:0:
459,117,2087,1,0,0:0:0:0:
435,125,2166,1,0,0:0:0:0:
368,132,2244,5,0,0:0:0:0:
344,124,2323,1,0,0:0:0:0:
336,148,2401,1,0,0:0:0:0:
360,156,2480,1,0,0:0:0:0:
427,163,2559,5,0,0:0:0:0:
451,155,2638,1,0,0:0:0:0:
459,179,2716,1,0,0:0:0:0:
435,187,2795,1,0,0:0:0:0:
360,218,2873,5,8,0:0:0:0:
133,146,3030,1,0,0:0:0:0:
160,232,3187,1,8,0:0:0:0:
226,68,3344,1,0,0:0:0:0:
6,142,3501,1,8,0:0:0:0:
6,142,3658,1,0,0:0:0:0:
133,146,3815,1,8,0:0:0:0:
106,60,3972,1,0,0:0:0:0:
160,232,4129,5,8,0:0:0:0:
85,205,4286,1,0,0:0:0:0:
270,137,4443,1,8,0:0:0:0:
270,137,4522,1,0,0:0:0:0:
98,282,4679,1,0,0:0:0:0:
98,282,4757,1,8,0:0:0:0:
173,309,4914,1,0,0:0:0:0:
270,137,5072,5,8,0:0:0:0:
28,64,5229,1,8,0:0:0:0:
375,29,5386,5,8,0:0:0:0:
316,220,5543,1,0,0:0:0:0:
270,137,5700,1,8,0:0:0:0:
270,137,5778,1,0,0:0:0:0:
270,137,5857,1,0,0:0:0:0:
419,179,6014,1,8,0:0:0:0:
289,303,6171,1,0,0:0:0:0:
291,323,6250,1,0,0:0:0:0:
212,220,6407,1,0,0:0:0:0:
210,240,6486,1,0,0:0:0:0:
36,337,6642,5,8,0:0:0:0:
291,323,6799,1,0,0:0:0:0:
210,240,6956,1,8,0:0:0:0:
210,240,7035,1,0,0:0:0:0:
210,240,7113,1,0,0:0:0:0:
313,384,7270,5,8,0:0:0:0:
390,277,7428,1,0,0:0:0:0:
390,242,7506,1,0,0:0:0:0:
401,209,7585,1,8,0:0:0:0:
390,176,7663,1,0,0:0:0:0:
390,142,7741,1,0,0:0:0:0:
147,115,7899,5,8,0:0:0:0:
325,209,8056,1,2,0:0:0:0:
113,11,8213,1,2,0:0:0:0:
113,11,8370,1,2,0:0:0:0:
113,11,8527,1,2,0:0:0:0:
113,11,8684,1,2,0:0:0:0:
113,11,8841,1,2,0:0:0:0:
113,11,8998,1,2,0:0:0:0:
147,115,9155,5,2,0:0:0:0:
317,50,9469,1,0,0:0:0:0:
317,50,9548,1,0,0:0:0:0:
66,149,9784,1,0,0:0:0:0:
232,85,9941,1,0,0:0:0:0:
0,175,10098,1,0,0:0:0:0:
350,320,10412,5,12,0:0:0:0:
369,215,10569,1,0,0:0:0:0:
264,196,10726,1,8,0:1:0:0:
178,72,10883,1,0,0:0:0:0:
159,177,11040,1,8,0:0:0:0:
449,88,11197,5,0,0:0:0:0:
337,11,11354,1,8,3:1:0:0:
327,147,11511,1,0,0:0:0:0:
176,329,11668,5,8,0:0:0:0:
369,215,11825,1,0,0:0:0:0:
92,226,11983,5,8,0:1:0:0:
274,275,12140,1,0,0:0:0:0:
260,112,12297,1,8,0:0:0:0:
176,329,12454,5,0,0:0:0:0:
392,316,12611,1,8,0:1:0:0:
369,215,12768,1,0,0:0:0:0:
121,149,12925,5,8,0:0:0:0:
274,221,13082,1,0,0:0:0:0:
164,263,13239,1,8,0:1:0:0:
236,110,13396,1,0,0:0:0:0:
250,325,13553,1,8,0:0:0:0:
69,277,13710,5,0,0:0:0:0:
121,149,13867,1,8,0:1:0:0:
248,95,14024,1,0,0:0:0:0:
429,243,14181,5,8,0:0:0:0:
173,297,14339,1,0,0:0:0:0:
442,332,14496,5,8,0:1:0:0:
233,254,14653,1,0,0:0:0:0:
280,163,14810,5,8,0:0:0:0:
353,363,14967,1,0,0:0:0:0:
173,297,15124,5,8,0:1:0:0:
405,104,15281,1,8,0:0:0:0:
93,244,15438,5,8,0:0:0:0:
282,227,15595,1,0,0:0:0:0:
76,55,15752,1,8,0:1:0:0:
265,38,15909,1,0,0:0:0:0:
40,154,16066,1,8,0:0:0:0:
311,327,16223,5,0,0:0:0:0:
350,174,16380,1,8,0:1:0:0:
198,217,16538,1,0,0:0:0:0:
403,268,16695,5,8,0:3:0:0:
188,214,16852,1,0,0:0:0:0:
311,110,17009,5,8,0:1:0:0:
310,336,17166,1,0,0:0:0:0:
188,214,17323,1,8,0:0:0:0:
420,168,17480,5,0,0:0:0:0:
166,117,17637,1,8,0:1:0:0:
190,224,17794,1,0,0:0:0:0:
307,0,17951,5,8,0:0:0:0:
347,187,18108,1,0,0:0:0:0:
165,128,18265,1,8,0:1:0:0:
382,78,18422,1,0,0:0:0:0:
156,131,18579,1,8,0:0:0:0:
283,319,18736,5,0,0:0:0:0:
347,187,18894,1,8,0:1:0:0:
144,253,19051,1,0,0:0:0:0:
417,289,19208,5,8,0:0:0:0:
144,253,19365,1,0,0:0:0:0:
111,248,19443,1,0,0:0:0:0:
78,243,19522,1,2,0:0:0:0:
347,117,19679,1,2,0:0:0:0:
347,117,19836,1,2,0:0:0:0:
347,117,19993,1,2,0:0:0:0:
347,117,20150,1,2,0:0:0:0:
347,117,20307,1,2,0:0:0:0:
137,344,20464,5,12,0:0:0:0:
92,99,20621,1,0,0:0:0:0:
417,234,20778,1,8,0:1:0:0:
133,254,20935,1,0,0:0:0:0:
251,18,21092,1,8,0:0:0:0:
403,310,21250,5,0,0:0:0:0:
125,255,21407,1,8,0:1:0:0:
470,206,21564,1,0,0:0:0:0:
92,181,21721,5,8,0:0:0:0:
403,321,21878,1,0,0:0:0:0:
230,122,22035,1,8,0:1:0:0:
35,317,22192,5,0,0:0:0:0:
366,178,22349,1,8,0:0:0:0:
231,114,22506,1,0,0:0:0:0:
289,354,22663,5,8,0:1:0:0:
325,92,22820,1,0,0:0:0:0:
289,362,22977,5,8,0:0:0:0:
79,198,23134,1,0,0:0:0:0:
243,10,23291,1,8,0:1:0:0:
453,174,23448,1,0,0:0:0:0:
127,91,23606,1,8,0:0:0:0:
215,372,23763,5,0,0:0:0:0:
128,73,23920,1,8,0:1:0:0:
42,254,24077,1,0,0:0:0:0:
367,181,24234,5,8,0:0:0:0:
83,341,24391,1,0,0:0:0:0:
216,190,24548,1,8,0:1:0:0:
302,286,24705,1,0,0:0:0:0:
127,91,24862,1,8,0:0:0:0:
310,104,25019,1,0,0:0:0:0:
201,295,25176,5,8,0:1:0:0:
149,0,25333,1,8,0:0:0:0:
149,0,25412,1,8,0:0:0:0:
149,0,25490,5,12,0:0:0:0:
417,266,25647,1,0,0:0:0:0:
81,235,25805,1,8,0:1:0:0:
278,32,25962,1,0,0:0:0:0:
378,341,26119,1,8,0:0:0:0:
97,140,26276,5,0,0:0:0:0:
409,86,26433,1,8,0:1:0:0:
16,46,26590,1,0,0:0:0:0:
256,320,26747,5,12,0:0:0:0:
139,39,26904,1,0,0:0:0:0:
256,335,27061,1,8,0:1:0:0:
66,233,27218,5,0,0:0:0:0:
397,177,27375,1,8,0:0:0:0:
184,352,27532,1,0,0:0:0:0:
287,74,27689,5,8,0:1:0:0:
54,239,27846,1,0,0:0:0:0:
54,239,27925,1,0,0:0:0:0:
54,239,28003,5,12,0:0:0:0:
401,155,28161,1,0,0:0:0:0:
88,131,28318,1,8,0:1:0:0:
412,157,28475,1,0,0:0:0:0:
159,337,28632,5,12,0:0:0:0:
110,69,28789,1,0,0:0:0:0:
353,337,28946,5,12,0:1:0:0:
402,69,29103,1,0,0:0:0:0:
24,201,29260,5,12,0:0:0:0:
488,201,29417,1,0,0:0:0:0:
301,121,29574,1,0,0:0:0:0:
301,121,29653,1,0,0:0:0:0:
301,121,29731,1,0,0:0:0:0:
117,244,29888,1,0,0:0:0:0:
117,244,29967,1,0,0:0:0:0:
117,244,30045,1,0,0:0:0:0:
269,334,30202,1,0,0:0:0:0:
213,99,30359,1,0,0:0:0:0:
206,71,30438,1,0,0:0:0:0:
199,43,30517,5,4,0:0:0:0:
135,97,30674,1,0,0:0:0:0:
127,180,30831,1,0,0:0:0:0:
181,244,30988,1,0,0:0:0:0:
135,97,31302,5,0,0:0:0:0:
127,180,31459,1,0,0:0:0:0:
181,244,31616,1,0,0:0:0:0:
328,198,31773,5,0,0:0:0:0:
282,51,31930,1,0,0:0:0:0:
328,198,32087,1,0,0:0:0:0:
336,115,32558,5,0,0:0:0:0:
328,198,32716,1,0,0:0:0:0:
282,51,32873,1,0,0:0:0:0:
422,212,33030,5,0,0:0:0:0:
328,198,33187,1,0,0:0:0:0:
256,263,33344,1,0,0:0:0:0:
162,249,33501,1,0,0:0:0:0:
162,249,33815,5,0,0:0:0:0:
256,263,33972,1,0,0:0:0:0:
328,198,34129,1,0,0:0:0:0:
176,331,34286,5,0,0:0:0:0:
149,169,34443,1,0,0:0:0:0:
176,331,34600,1,0,0:0:0:0:
328,198,35072,5,0,0:0:0:0:
256,263,35229,1,0,0:0:0:0:
162,249,35386,1,0,0:0:0:0:
198,55,35543,5,8,0:0:0:0:
308,87,35857,1,8,0:0:0:0:
139,139,36171,1,8,0:0:0:0:
334,197,36485,1,8,0:0:0:0:
102,240,36799,1,8,0:0:0:0:
375,305,37113,1,8,0:0:0:0:
76,361,37428,1,8,0:0:0:0:
76,361,38056,5,8,0:0:0:0:
375,305,38371,1,8,0:0:0:0:
102,240,38685,1,8,0:0:0:0:
334,197,38999,1,8,0:0:0:0:
139,139,39313,5,4,0:0:0:0:
203,87,39469,1,0,0:0:0:0:
285,92,39627,1,0,0:0:0:0:
285,92,40098,5,0,0:0:0:0:
203,87,40256,1,0,0:0:0:0:
139,139,40412,1,0,0:0:0:0:
325,332,40569,5,12,0:0:0:0:
238,160,40726,1,0,0:0:0:0:
87,279,40883,1,8,0:1:0:0:
336,335,41040,1,0,0:0:0:0:
314,246,41197,5,8,0:0:0:0:
139,139,41354,5,0,0:0:0:0:
271,91,41511,1,8,0:1:0:0:
30,49,41668,1,0,0:0:0:0:
313,175,41825,5,8,0:3:0:0:
225,19,41983,1,0,0:0:0:0:
224,242,42140,1,8,0:1:0:0:
360,60,42297,5,0,0:0:0:0:
271,91,42454,1,8,0:0:0:0:
173,193,42611,5,0,0:0:0:0:
270,102,42768,1,8,0:1:0:0:
4,158,42925,1,8,0:0:0:0:
244,332,43082,5,8,0:0:0:0:
234,184,43239,1,0,0:0:0:0:
94,160,43396,1,8,0:1:0:0:
84,12,43553,1,0,0:0:0:0:
172,90,43710,5,8,0:0:0:0:
128,284,43867,5,0,0:0:0:0:
244,176,44024,1,8,0:1:0:0:
378,261,44181,1,0,0:0:0:0:
150,193,44339,5,8,0:0:0:0:
251,340,44496,1,0,0:0:0:0:
295,125,44653,1,8,0:1:0:0:
40,290,44810,5,0,0:0:0:0:
131,271,44967,1,8,0:0:0:0:
44,173,45124,5,0,0:0:0:0:
146,344,45281,1,8,0:1:0:0:
206,68,45438,1,8,0:0:0:0:
224,62,45517,1,8,0:0:0:0:
242,56,45595,5,12,0:0:0:0:
411,142,45752,1,0,0:0:0:0:
126,196,45909,1,8,0:1:0:0:
449,26,46066,1,0,0:0:0:0:
407,153,46223,5,8,0:0:0:0:
143,91,46380,5,0,0:0:0:0:
296,304,46538,1,8,0:1:0:0:
356,32,46695,1,0,0:0:0:0:
100,209,46852,5,12,0:0:0:0:
420,142,47009,1,0,0:0:0:0:
26,115,47166,1,8,0:1:0:0:
169,238,47323,5,0,0:0:0:0:
139,153,47480,1,8,0:0:0:0:
87,353,47637,5,0,0:0:0:0:
206,125,47794,1,8,0:1:0:0:
346,266,47951,1,8,0:0:0:0:
342,286,48030,1,8,0:0:0:0:
338,306,48108,5,12,0:0:0:0:
143,257,48265,1,0,0:0:0:0:
339,129,48422,1,8,0:1:0:0:
294,369,48579,1,0,0:0:0:0:
69,166,48736,5,4,0:0:0:0:
320,208,48894,1,0,0:0:0:0:
38,289,49051,5,12,0:1:0:0:
336,209,49208,1,0,0:0:0:0:
156,83,49365,5,12,0:0:0:0:
275,345,49522,1,0,0:0:0:0:
275,345,49600,1,8,0:0:0:0:
275,345,49679,1,8,0:0:0:0:
326,20,49836,5,12,0:0:0:0:
194,364,49993,1,12,0:0:0:0:
56,18,50150,1,12,0:0:0:0:
173,88,50307,5,0,0:0:0:0:
120,203,50464,1,0,0:0:0:0:
128,226,50543,1,0,0:0:0:0:
136,249,50621,5,12,0:0:0:0:
443,108,50778,1,0,0:0:0:0:
340,301,50935,1,8,0:1:0:0:
127,45,51092,5,0,0:0:0:0:
266,186,51250,1,8,0:0:0:0:
379,54,51407,1,0,0:0:0:0:
161,152,51564,5,8,0:1:0:0:
392,48,51721,1,0,0:0:0:0:
201,339,51878,5,8,0:0:0:0:
157,140,52035,1,0,0:0:0:0:
397,231,52192,1,8,0:1:0:0:
112,247,52349,5,0,0:0:0:0:
408,232,52506,1,8,0:0:0:0:
69,158,52663,1,0,0:0:0:0:
443,330,52820,5,8,0:1:0:0:
406,127,52977,1,8,0:0:0:0:
49,360,53134,5,8,0:0:0:0:
236,236,53291,1,0,0:0:0:0:
444,318,53449,1,8,0:1:0:0:
145,202,53606,5,0,0:0:0:0:
294,325,53763,1,8,0:0:0:0:
286,67,53920,1,0,0:0:0:0:
133,204,54077,5,8,0:1:0:0:
418,121,54234,1,0,0:0:0:0:
214,22,54391,5,8,0:3:0:0:
107,88,54548,1,0,0:0:0:0:
222,249,54705,5,12,0:1:0:0:
192,102,54862,1,0,0:0:0:0:
91,234,55019,5,12,0:0:0:0:
328,249,55176,1,0,0:0:0:0:
354,61,55333,5,12,0:1:0:0:
81,241,55490,1,8,0:0:0:0:
479,343,55647,5,4,0:0:0:0:
370,252,55805,1,0,0:0:0:0:
228,264,55962,1,0,0:0:0:0:
137,373,56119,1,0,0:0:0:0:
291,192,56276,5,0,0:0:0:0:
302,159,56354,1,0,0:0:0:0:
301,124,56433,1,0,0:0:0:0:
289,91,56511,1,0,0:0:0:0:
267,64,56590,1,0,0:0:0:0:
237,47,56668,1,0,0:0:0:0:
203,40,56747,1,0,0:0:0:0:
168,45,56825,1,0,0:0:0:0:
138,61,56904,5,4,0:0:0:0:
217,195,57061,1,0,0:0:0:0:
367,233,57218,1,0,0:0:0:0:
501,154,57375,1,0,0:0:0:0:
173,132,57532,5,0,0:0:0:0:
139,140,57610,1,0,0:0:0:0:
110,160,57689,1,0,0:0:0:0:
90,188,57767,1,0,0:0:0:0:
80,221,57846,5,0,0:0:0:0:
100,209,57898,1,0,0:0:0:0:
121,201,57950,1,0,0:0:0:0:
144,198,58003,1,0,0:0:0:0:
168,200,58055,1,0,0:0:0:0:
190,206,58107,1,0,0:0:0:0:
210,218,58160,5,4,0:0:0:0:
146,345,58318,1,0,0:0:0:0:
359,256,58475,1,0,0:0:0:0:
164,99,58632,5,8,0:0:0:0:
303,358,58789,1,12,0:0:0:0:
384,163,58946,5,0,0:0:0:0:
150,104,59103,1,0,0:1:0:0:
432,70,59260,1,0,0:1:0:0:
51,48,59417,5,4,0:1:0:0:
150,104,59574,1,0,0:1:0:0:
49,143,59731,5,4,0:1:0:0:
156,127,59888,1,0,0:1:0:0:
108,221,60045,5,4,0:1:0:0:
167,132,60202,1,0,0:1:0:0:
201,214,60359,5,4,0:1:0:0:
178,135,60517,1,0,0:1:0:0:
251,155,60674,5,4,0:1:0:0:
251,155,65700,5,0,0:0:0:0:
273,181,65857,1,0,0:0:0:0:
283,215,66014,1,0,0:0:0:0:
279,249,66171,1,0,0:0:0:0:
143,258,66328,5,0,0:0:0:0:
160,242,66485,1,0,0:0:0:0:
180,230,66642,1,0,0:0:0:0:
202,224,66799,1,0,0:0:0:0:
279,249,66956,5,0,0:0:0:0:
283,215,67113,1,0,0:0:0:0:
273,181,67270,1,0,0:0:0:0:
251,155,67427,1,0,0:0:0:0:
113,116,67585,5,0,0:0:0:0:
132,129,67742,1,0,0:0:0:0:
153,137,67899,1,0,0:0:0:0:
218,86,68056,5,0,0:0:0:0:
337,166,68213,5,0,0:0:0:0:
369,177,68370,1,0,0:0:0:0:
404,178,68527,1,0,0:0:0:0:
438,168,68684,1,0,0:0:0:0:
467,148,68841,1,0,0:0:0:0:
328,233,68998,5,0,0:0:0:0:
321,267,69155,1,0,0:0:0:0:
325,301,69312,1,0,0:0:0:0:
339,333,69469,1,0,0:0:0:0:
382,137,69627,5,0,0:0:0:0:
385,109,69784,1,0,0:0:0:0:
383,89,69941,1,0,0:0:0:0:
380,76,70098,1,0,0:0:0:0:
378,70,70255,1,0,0:0:0:0:
376,67,70412,1,0,0:0:0:0:
374,65,70569,1,0,0:0:0:0:
157,149,70726,5,4,0:0:0:0:
319,126,70883,1,0,0:0:0:0:
231,72,71040,1,0,0:0:0:0:
231,72,71119,1,0,0:0:0:0:
231,72,71197,1,0,0:0:0:0:
157,149,71354,5,0,0:0:0:0:
74,90,71511,1,0,0:0:0:0:
52,85,71590,1,0,0:0:0:0:
126,210,71747,1,0,0:0:0:0:
104,215,71826,1,0,0:0:0:0:
224,190,71983,5,0,0:0:0:0:
192,280,72140,1,0,0:0:0:0:
294,262,72297,1,0,0:0:0:0:
294,262,72375,1,0,0:0:0:0:
294,262,72454,1,0,0:0:0:0:
270,128,72611,5,0,0:0:0:0:
362,196,72768,1,0,0:0:0:0:
394,209,72846,1,0,0:0:0:0:
428,205,72925,1,0,0:0:0:0:
462,209,73003,1,0,0:0:0:0:
495,196,73081,1,0,0:0:0:0:
363,103,73239,5,4,0:0:0:0:
362,196,73396,1,0,0:0:0:0:
434,259,73553,1,0,0:0:0:0:
433,352,73710,1,0,0:0:0:0:
336,303,73867,5,0,0:0:0:0:
336,303,74024,1,0,0:0:0:0:
249,325,74181,1,0,0:0:0:0:
218,244,74339,5,0,0:0:0:0:
362,196,74496,1,0,0:0:0:0:
271,165,74653,1,0,0:0:0:0:
176,127,74810,1,0,0:0:0:0:
176,127,74888,1,0,0:0:0:0:
176,127,74967,1,0,0:0:0:0:
290,96,75124,1,0,0:0:0:0:
97,149,75281,1,0,0:0:0:0:
368,74,75438,1,0,0:0:0:0:
290,96,75595,1,0,0:0:0:0:
86,53,75752,5,6,0:0:0:0:
86,57,75830,1,2,0:0:0:0:
86,62,75909,1,2,0:0:0:0:
86,66,75987,1,2,0:0:0:0:
86,71,76066,1,2,0:0:0:0:
87,76,76144,1,2,0:0:0:0:
87,80,76223,1,2,0:0:0:0:
87,85,76301,1,2,0:0:0:0:
87,90,76380,1,2,0:0:0:0:
88,94,76458,1,2,0:0:0:0:
88,99,76537,1,2,0:0:0:0:
88,104,76615,1,2,0:0:0:0:
88,108,76694,1,2,0:0:0:0:
89,113,76772,1,2,0:0:0:0:
89,118,76851,1,2,0:0:0:0:
89,122,76930,1,2,0:0:0:0:
136,180,77009,5,6,0:0:0:0:
135,184,77087,1,2,0:0:0:0:
135,189,77166,1,2,0:0:0:0:
135,193,77244,1,2,0:0:0:0:
135,198,77323,1,2,0:0:0:0:
134,203,77401,1,2,0:0:0:0:
134,207,77480,1,2,0:0:0:0:
134,212,77558,1,2,0:0:0:0:
134,217,77637,1,2,0:0:0:0:
133,221,77715,1,2,0:0:0:0:
133,226,77794,1,2,0:0:0:0:
133,231,77872,1,2,0:0:0:0:
133,235,77951,1,2,0:0:0:0:
132,240,78029,1,2,0:0:0:0:
132,245,78108,1,2,0:0:0:0:
132,249,78187,1,2,0:0:0:0:
76,315,78265,5,6,0:0:0:0:
84,314,78343,1,2,0:0:0:0:
93,313,78422,1,2,0:0:0:0:
102,313,78500,1,2,0:0:0:0:
168,305,78579,5,6,0:0:0:0:
176,305,78657,1,2,0:0:0:0:
185,306,78736,1,2,0:0:0:0:
194,306,78814,1,2,0:0:0:0:
259,314,78894,5,6,0:0:0:0:
267,314,78972,1,2,0:0:0:0:
276,313,79051,1,2,0:0:0:0:
285,313,79129,1,2,0:0:0:0:
350,304,79208,5,6,0:0:0:0:
358,304,79286,1,2,0:0:0:0:
367,305,79365,1,2,0:0:0:0:
376,305,79443,1,2,0:0:0:0:
441,314,79522,5,4,0:0:0:0:
33,210,79836,1,4,0:0:0:0:
317,114,80072,1,4,0:0:0:0:
317,114,80150,1,4,0:0:0:0:
223,223,80307,1,4,0:0:0:0:
156,34,80464,1,4,0:0:0:0:
400,183,80778,5,4,0:0:0:0:
67,253,80935,1,4,0:0:0:0:
400,183,81092,1,4,0:0:0:0:
67,253,81249,1,4,0:0:0:0:
400,183,81407,1,4,0:0:0:0:
140,218,81564,5,0,0:0:0:0:
143,236,81721,1,0,0:0:0:0:
146,254,81878,1,0,0:0:0:0:
398,49,82035,5,12,0:0:0:0:
91,319,82192,1,0,0:0:0:0:
479,233,82349,1,8,0:1:0:0:
83,137,82506,1,0,0:0:0:0:
495,234,82663,1,8,0:0:0:0:
239,356,82820,5,0,0:0:0:0:
220,189,82977,1,8,0:1:0:0:
201,22,83134,1,0,0:0:0:0:
408,309,83291,5,8,0:0:0:0:
77,116,83449,1,0,0:0:0:0:
354,36,83606,1,8,0:1:0:0:
160,367,83764,1,0,0:0:0:0:
72,105,83920,1,8,0:0:0:0:
442,186,84077,5,0,0:0:0:0:
226,218,84234,1,8,0:1:0:0:
10,250,84391,1,8,0:0:0:0:
370,91,84548,5,8,0:0:0:0:
254,366,84705,1,0,0:0:0:0:
217,12,84862,1,8,0:1:0:0:
246,293,85019,1,0,0:0:0:0:
227,108,85176,1,8,0:0:0:0:
388,315,85333,5,0,0:0:0:0:
236,186,85490,1,8,0:1:0:0:
93,329,85647,1,0,0:1:0:0:
238,200,85805,1,8,0:0:0:0:
43,100,85962,5,0,0:0:0:0:
325,136,86119,1,8,0:1:0:0:
111,202,86276,1,0,0:0:0:0:
260,52,86433,5,8,0:0:0:0:
239,214,86590,1,0,0:0:0:0:
119,125,86747,5,8,0:1:0:0:
130,53,86904,1,8,0:0:0:0:
141,40,86983,1,8,0:0:0:0:
152,27,87061,5,4,0:0:0:0:
371,330,87218,1,0,0:0:0:0:
50,243,87375,1,8,0:1:0:0:
264,103,87532,1,0,0:0:0:0:
176,352,87689,1,8,0:0:0:0:
54,170,87846,5,0,0:0:0:0:
263,84,88003,1,8,0:1:0:0:
471,170,88161,1,0,3:0:0:0:
315,327,88318,5,8,0:0:0:0:
149,30,88475,1,0,0:0:0:0:
69,365,88632,1,8,0:1:0:0:
329,117,88789,1,0,0:0:0:0:
0,164,88946,1,8,0:0:0:0:
242,383,89103,5,0,0:0:0:0:
356,205,89260,1,8,0:1:0:0:
310,0,89417,1,8,0:0:0:0:
296,13,89496,1,8,0:0:0:0:
282,26,89574,5,12,0:0:0:0:
189,256,89731,1,0,0:0:0:0:
419,349,89888,1,8,0:1:0:0:
512,119,90045,1,0,0:0:0:0:
91,217,90202,5,12,0:0:0:0:
497,126,90359,1,0,0:0:0:0:
157,94,90517,5,12,0:1:0:0:
481,132,90674,1,0,0:0:0:0:
240,336,90831,5,12,0:0:0:0:
206,208,90988,1,8,0:0:0:0:
206,208,91066,1,8,0:0:0:0:
206,208,91145,1,12,0:0:0:0:
331,258,91302,1,8,0:0:0:0:
110,255,91459,1,8,0:0:0:0:
391,170,91616,1,8,0:0:0:0:
186,104,91773,5,0,0:0:0:0:
206,208,91930,1,0,0:0:0:0:
494,40,92087,5,8,0:0:0:0:
79,300,92244,1,0,0:0:0:0:
460,233,92401,1,8,0:1:0:0:
217,8,92558,1,0,0:0:0:0:
307,354,92716,1,8,0:0:0:0:
1,163,92873,5,0,0:0:0:0:
244,144,93030,1,8,0:1:0:0:
488,125,93187,1,0,0:0:0:0:
122,349,93344,5,8,0:0:0:0:
288,17,93501,1,0,0:0:0:0:
408,368,93658,1,8,0:1:0:0:
81,135,93815,1,0,0:0:0:0:
491,164,93972,1,8,0:0:0:0:
117,354,94129,5,0,0:0:0:0:
66,129,94286,1,8,0:1:0:0:
293,3,94443,1,0,0:0:0:0:
400,365,94600,5,8,0:0:0:0:
6,181,94757,1,0,0:0:0:0:
406,122,94914,1,8,0:1:0:0:
256,362,95072,1,0,0:0:0:0:
66,129,95229,1,8,0:0:0:0:
482,114,95386,5,0,0:0:0:0:
192,265,95543,1,8,0:1:0:0:
227,17,95700,1,0,0:1:0:0:
68,328,95857,1,8,0:0:0:0:
458,223,96014,5,0,0:0:0:0:
38,192,96171,1,8,0:1:0:0:
377,283,96328,1,0,0:1:0:0:
110,113,96485,1,8,0:0:0:0:
277,315,96642,1,0,0:0:0:0:
199,81,96799,1,8,0:1:0:0:
177,335,96956,1,8,0:0:0:0:
175,354,97035,1,8,0:0:0:0:
173,373,97113,5,12,0:0:0:0:
340,4,97270,1,0,0:0:0:0:
446,376,97428,1,8,0:1:0:0:
0,251,97585,1,0,0:0:0:0:
507,192,97742,1,8,0:0:0:0:
137,378,97899,5,0,0:0:0:0:
209,31,98056,1,8,0:1:0:0:
352,325,98213,1,0,0:0:0:0:
0,151,98370,5,12,0:0:0:0:
501,245,98527,1,0,0:0:0:0:
1,348,98684,1,8,0:1:0:0:
208,19,98841,1,0,0:0:0:0:
501,311,98998,1,8,0:0:0:0:
208,8,99155,5,0,0:0:0:0:
281,372,99312,1,8,0:1:0:0:
470,103,99469,1,0,0:0:0:0:
0,240,99627,5,12,0:0:0:0:
511,160,99784,1,0,0:0:0:0:
2,106,99941,1,8,0:1:0:0:
511,278,100098,1,0,0:0:0:0:
155,8,100255,5,12,0:0:0:0:
302,365,100412,1,0,0:0:0:0:
343,4,100569,5,12,0:1:0:0:
132,368,100726,1,0,0:0:0:0:
503,157,100883,5,8,0:3:0:0:
327,103,101040,1,8,0:0:0:0:
327,103,101119,1,8,0:0:0:0:
327,103,101197,1,8,0:3:0:0:
92,260,101354,1,8,0:0:0:0:
330,202,101511,1,8,0:0:0:0:
144,108,101668,1,8,0:0:0:0:
149,81,101747,1,8,0:0:0:0:
330,202,101904,1,8,0:0:0:0:
325,175,101983,1,8,0:0:0:0:
138,275,102140,5,8,0:0:0:0:
290,246,102297,1,0,0:0:0:0:
261,94,102454,1,8,0:1:0:0:
109,123,102611,1,0,0:0:0:0:
152,318,102768,5,8,0:0:0:0:
333,231,102925,1,0,0:0:0:0:
246,50,103082,1,8,0:1:0:0:
65,137,103239,1,0,0:0:0:0:
186,348,103396,5,8,0:0:0:0:
363,196,103553,1,0,0:0:0:0:
211,19,103710,1,8,0:1:0:0:
34,171,103867,1,0,0:0:0:0:
232,365,104024,5,8,0:3:0:0:
380,149,104181,1,0,0:0:0:0:
164,1,104338,1,12,0:1:0:0:
16,217,104495,1,8,0:0:0:0:
297,277,104653,5,12,0:0:0:0:
252,110,104810,1,0,0:0:0:0:
274,301,104967,1,8,0:1:0:0:
274,85,105124,1,0,0:0:0:0:
241,318,105281,5,8,0:0:0:0:
307,68,105438,1,0,0:0:0:0:
193,334,105595,1,8,0:1:0:0:
355,52,105752,1,0,0:0:0:0:
122,344,105909,5,8,0:0:0:0:
424,40,106066,1,0,0:0:0:0:
40,328,106223,5,12,0:1:0:0:
506,56,106380,1,0,0:0:0:0:
5,264,106538,5,12,0:0:0:0:
511,126,106695,1,0,0:0:0:0:
5,113,106852,5,12,0:1:0:0:
501,266,107009,1,0,0:0:0:0:
124,3,107166,5,4,0:0:0:0:
181,169,107323,1,0,0:0:0:0:
338,246,107480,1,0,0:0:0:0:
504,189,107637,1,0,0:0:0:0:
242,73,107794,5,8,0:0:0:0:
217,64,107872,1,8,0:0:0:0:
191,62,107951,1,8,0:0:0:0:
165,68,108029,1,8,0:0:0:0:
141,79,108108,1,8,0:0:0:0:
117,89,108186,1,8,0:0:0:0:
91,91,108265,1,8,0:0:0:0:
65,86,108343,1,8,0:0:0:0:
41,77,108422,5,12,0:0:0:0:
347,13,108579,1,0,0:0:0:0:
412,319,108736,1,0,0:0:0:0:
107,384,108894,1,0,0:0:0:0:
299,119,109051,5,8,0:0:0:0:
319,147,109129,1,8,0:0:0:0:
330,180,109208,1,8,0:0:0:0:
329,215,109286,1,8,0:0:0:0:
316,247,109365,5,8,0:0:0:0:
295,238,109417,1,8,0:0:0:0:
272,234,109469,1,8,0:0:0:0:
249,234,109522,1,8,0:0:0:0:
226,240,109574,1,8,0:0:0:0:
205,250,109626,1,8,0:0:0:0:
186,264,109679,5,12,0:0:0:0:
477,141,109836,1,0,0:0:0:0:
148,142,109993,5,4,0:1:0:0:
465,227,110150,1,0,0:0:0:0:
160,349,110307,5,4,0:1:0:0:
409,35,110464,1,0,0:0:0:0:
388,342,110621,5,4,0:1:0:0:
110,63,110778,1,0,0:0:0:0:
3,376,110935,5,4,0:1:0:0:
509,8,111092,1,0,0:0:0:0:
509,376,111250,5,4,0:1:0:0:
3,8,111407,1,0,0:0:0:0:
511,191,111564,5,4,0:1:0:0:
1,191,111721,1,0,0:0:0:0:
254,380,111878,5,4,0:1:0:0:
254,4,112035,1,0,0:0:0:0:
256,192,112192,5,4,0:1:0:0:
256,192,112349,5,0,0:0:0:0:
256,192,112506,5,0,0:0:0:0:
256,192,112663,5,0,0:0:0:0:
256,192,112820,5,0,0:0:0:0:
256,192,112977,5,0,0:0:0:0:
256,192,113134,5,0,0:0:0:0:
256,192,113291,5,0,0:0:0:0:
256,192,113449,5,0,0:0:0:0:
256,192,113606,5,0,0:0:0:0:
256,192,113763,5,0,0:0:0:0:
256,192,113920,5,0,0:0:0:0:
256,192,114077,5,0,0:0:0:0:
256,192,114234,5,0,0:0:0:0:
256,192,114391,5,0,0:0:0:0:
256,192,114548,5,0,0:0:0:0:
256,192,114705,5,0,0:0:0:0:
256,192,114862,5,0,0:0:0:0:
256,192,115019,5,0,0:0:0:0:
256,192,115176,5,0,0:0:0:0:
256,192,115333,5,0,0:0:0:0:
256,192,115490,5,0,0:0:0:0:
256,192,115648,5,0,0:0:0:0:
256,192,115805,5,0,0:0:0:0:
256,192,115962,5,0,0:0:0:0:
256,192,116119,5,0,0:0:0:0:
256,192,116276,5,0,0:0:0:0:
256,192,116433,5,0,0:0:0:0:
256,192,116590,5,0,0:0:0:0:
256,192,116747,5,0,0:0:0:0:
256,192,116904,5,0,0:0:0:0:
256,192,117061,5,0,0:0:0:0:
256,192,117218,5,0,0:0:0:0:
256,192,117375,5,0,0:0:0:0:
