osu file format v14

[General]
AudioFilename: audio.mp3
AudioLeadIn: 0
PreviewTime: 150338
Countdown: 1
SampleSet: Normal
StackLeniency: 0.7
Mode: 0
LetterboxInBreaks: 0
WidescreenStoryboard: 1

[Editor]
Bookmarks: 566,43886,71855,78138,141374,226979,612398
DistanceSpacing: 2.1
BeatDivisor: 4
GridSize: 8
TimelineZoom: 1.9

[Metadata]
Title:Seiryu Compilation
TitleUnicode:Seiryu Compilation
Artist:Seiryu
ArtistUnicode:Seiryu
Creator:Supreme
Version:INFINITY
Source:AO-∞ Seiryu album
Tags:Seiryu ryu AO Blue dragon electronic speedcore 191 bpm blacky critical crystal j core hardcore castle on the moon infinity water horizon mini mix compilation
BeatmapID:1690116
BeatmapSetID:584743

[Difficulty]
HPDrainRate:4
CircleSize:4
OverallDifficulty:8
ApproachRate:9.5
SliderMultiplier:2
SliderTickRate:1

[Events]
//Background and Video events
0,0,"bg osu map.png",0,0
//Break Periods
2,101588,110617
2,192059,208934
2,300965,309474
2,387953,394779
2,422834,427449
2,443252,447554
2,483444,502213
2,586875,597459
2,645268,654800
2,702134,707849
2,734019,737901
//Storyboard Layer 0 (Background)
//Storyboard Layer 1 (Fail)
//Storyboard Layer 2 (Pass)
//Storyboard Layer 3 (Foreground)
//Storyboard Layer 4 (Overlay)
//Storyboard Sound Samples

[TimingPoints]
865,314.13612565445,4,1,0,100,1,0
865,-200,4,1,0,100,0,0
2117,-200,4,1,0,100,0,0
3374,-200,4,1,0,100,0,0
49698,-133.333333333333,4,1,0,100,0,0
51583,-200,4,1,0,100,0,0
60642,-100,4,1,0,100,0,0
60956,-100,4,1,0,100,0,1
79804,-100,4,1,0,100,0,0
79804,-200,4,1,0,100,0,0
79804,-200,4,1,0,100,0,0
81061,-133.333333333333,4,1,0,100,0,0
151112,-100,4,1,0,100,0,0
151426,-100,4,1,0,100,0,1
171530,-100,4,1,0,100,0,0
181516,-100,4,1,0,60,0,0
181752,-100,4,1,0,100,0,0
191255,-100,4,1,0,51,0,0
191490,-100,4,1,0,40,0,0
213076,288.461538461538,4,1,0,100,1,0
218053,-133.333333333333,4,1,0,100,0,0
232043,-133.333333333333,4,1,0,32,0,0
232620,-133.333333333333,4,1,0,40,0,0
233197,-133.333333333333,4,1,0,60,0,0
233774,-133.333333333333,4,1,0,70,0,0
234351,-133.333333333333,4,1,0,50,0,0
235972,-86.9565217391304,4,1,0,100,0,0
254383,-100,4,1,0,100,0,0
291306,-133.333333333333,4,1,0,100,0,0
328229,-100,4,1,0,100,0,1
328229,-100,4,1,0,100,0,1
382460,-100,4,1,0,100,0,0
387765,314.13612565445,4,1,0,100,1,0
397997,-133.333333333333,4,1,0,100,0,0
402748,-100,4,1,0,100,0,0
509293,314.13612565445,4,1,0,100,1,0
510084,-133.333333333333,4,1,0,100,0,0
535776,314.13612565445,4,1,0,100,1,0
536352,-100,4,1,0,100,0,0
536414,314.13612565445,4,1,0,100,1,0
600147,314.13612565445,4,1,0,100,1,0
655325,314.13612565445,4,1,0,100,1,0
693299,314.13612565445,4,1,0,100,1,0
693613,-181.818181818181,4,1,0,100,0,0
698322,314.13612565445,4,1,0,100,1,0
698322,-133.333333333333,4,1,0,100,0,0
708374,-100,4,1,0,100,0,0
738426,314.13612565445,4,1,0,100,1,0
738426,-1000,4,1,0,100,0,0

[HitObjects]
96,142,869,6,0,B|174:236|174:236|236:191|312:264|287:313,1,300,0|0,2:0|2:0,2:0:0:0:
216,296,2125,2,0,B|216:200|298:200|298:200|271:147,1,200,0|0,2:0|2:0,2:0:0:0:
135,71,3378,2,0,P|68:99|87:212,1,200,0|0,2:0|2:0,2:0:0:0:
191,157,4320,1,0,2:0:0:0:
261,254,4634,2,0,B|285:309|285:309|342:292|291:190|248:192,1,200,0|0,2:0|2:0,2:0:0:0:
372,127,5419,1,0,2:0:0:0:
402,190,5577,1,0,2:0:0:0:
424,256,5734,1,0,2:0:0:0:
174,214,5891,2,0,P|137:163|216:72,1,200
366,326,6833,1,0,2:0:0:0:
277,186,7146,2,0,B|257:168|225:162|190:178|169:203|169:203|111:149,1,200,0|0,2:0|2:0,2:0:0:0:
411,90,8403,6,0,L|291:98,1,100,0|0,2:0|2:0,2:0:0:0:
211,105,9031,1,0,2:0:0:0:
216,200,9345,2,0,L|329:191,1,100,0|0,2:0|2:0,2:0:0:0:
264,338,10289,1,0,2:0:0:0:
105,183,10918,6,0,B|153:151|187:100|187:100|269:197|247:92|368:134,1,300,0|0,2:0|2:0,2:0:0:0:
454,296,12174,2,0,P|407:340|328:261,1,200,0|0,2:0|2:0,2:0:0:0:
435,44,13432,2,0,B|407:101|420:134|420:134|365:100|309:120,1,200,0|0,2:0|2:0,2:0:0:0:
187,152,14372,1,0,2:0:0:0:
230,240,14686,1,0,2:0:0:0:
166,312,15001,1,0,2:0:0:0:
71,218,15315,2,0,L|131:180,1,50,0|0,2:0|2:0,2:0:0:0:
348,66,15629,2,0,L|289:97,1,50,0|0,2:0|2:0,2:0:0:0:
296,169,15943,6,0,P|343:234|279:323,1,200,0|0,2:0|2:0,2:0:0:0:
148,246,16887,1,0,2:0:0:0:
226,189,17200,2,0,P|303:211|307:320,1,200,0|0,2:0|2:0,2:0:0:0:
121,70,18456,1,0,2:0:0:0:
256,192,18535,12,0,19713,2:0:0:0:
254,190,20970,5,0,2:0:0:0:
426,82,21596,2,0,B|430:138|430:138|384:163,1,100,0|0,2:0|2:0,2:0:0:0:
251,91,22226,2,0,P|215:154|225:192,1,100,0|0,2:0|2:0,2:0:0:0:
319,322,22697,2,0,P|355:259|345:221,1,100,0|0,2:0|2:0,2:0:0:0:
450,151,23169,1,0,2:0:0:0:
450,151,23324,2,0,B|374:168|330:95|330:95|235:137|203:45,1,300,0|0,2:0|2:0,2:0:0:0:
84,183,24581,5,0,2:0:0:0:
84,183,24738,2,0,L|140:223,1,50,0|0,2:0|2:0,2:0:0:0:
291,184,25052,2,0,L|235:224,1,50,0|0,2:0|2:0,2:0:0:0:
188,340,25366,2,0,L|189:282,1,50,0|0,2:0|2:0,2:0:0:0:
188,140,25680,1,0,2:0:0:0:
422,272,25994,6,0,P|407:231|427:174,1,100,0|0,2:0|2:0,2:0:0:0:
401,88,26466,2,0,L|283:88,1,100,0|0,2:0|2:0,2:0:0:0:
191,217,26937,2,0,L|252:216,1,50,0|0,2:0|2:0,2:0:0:0:
400,212,27251,1,0,2:0:0:0:
168,316,27722,1,0,2:0:0:0:
168,121,28193,2,0,P|216:95|272:100,1,100,0|0,2:0|2:0,2:0:0:0:
154,278,28822,5,0,2:0:0:0:
105,153,29136,1,0,2:0:0:0:
230,104,29451,1,0,2:0:0:0:
154,278,29607,6,0,L|197:241,1,50,0|0,2:0|2:0,2:0:0:0:
358,106,29921,6,0,L|315:143,1,50,0|0,2:0|2:0,2:0:0:0:
359,300,30235,2,0,L|319:264,1,50,0|0,2:0|2:0,2:0:0:0:
496,184,30549,1,0,2:0:0:0:
482,306,30706,6,0,P|474:356|421:388,1,100,0|0,2:0|2:0,2:0:0:0:
161,252,31335,2,0,P|101:198|110:122,1,150,0|0,2:0|2:0,2:0:0:0:
245,161,31963,1,0,2:0:0:0:
29,362,32591,1,0,2:0:0:0:
45,71,33220,2,0,P|117:43|201:126,1,200,0|0,2:0|2:0,2:0:0:0:
216,359,34320,5,0,2:0:0:0:
216,359,34475,2,0,L|211:288,1,50,0|0,2:0|2:0,2:0:0:0:
332,228,34789,2,0,L|320:164,1,50,0|0,2:0|2:0,2:0:0:0:
425,75,35103,2,0,L|374:39,1,50,0|0,2:0|2:0,2:0:0:0:
240,54,35417,1,0,2:0:0:0:
185,131,35575,1,0,2:0:0:0:
233,217,35732,1,0,2:0:0:0:
476,59,36048,6,0,B|492:136|440:160|440:160|480:244|420:296,1,250,0|0,2:0|2:0,2:0:0:0:
296,292,36990,1,0,2:0:0:0:
200,100,37304,1,0,2:0:0:0:
420,136,37618,2,0,P|383:188|333:201,1,100,0|0,2:0|2:0,2:0:0:0:
304,56,38247,1,0,2:0:0:0:
256,192,38325,12,0,39660,2:0:0:0:
381,171,39817,6,0,L|300:167,2,75,0|0|0,2:2|2:2|2:2,2:2:0:0:
112,252,40446,6,0,L|186:255,2,75,0|0|0,2:2|2:2|2:2,2:2:0:0:
157,66,41074,5,0,2:2:0:0:
181,69,41152,1,0,2:2:0:0:
202,83,41231,1,0,2:2:0:0:
216,104,41310,1,0,2:2:0:0:
226,125,41388,2,0,L|231:191,1,50,0|0,2:2|2:2,2:2:0:0:
118,329,41702,2,0,L|116:280,1,50,0|0,2:2|2:2,2:2:0:0:
231,191,42016,2,0,L|236:257,1,50,0|0,2:2|2:2,2:2:0:0:
238,263,42252,1,0,2:2:0:0:
246,286,42330,1,0,2:2:0:0:
264,302,42409,1,0,2:2:0:0:
288,309,42488,1,0,2:2:0:0:
310,305,42566,1,0,2:2:0:0:
328,295,42645,6,0,L|307:245,1,50,0|0,2:2|2:2,2:2:0:0:
329,47,42959,2,0,L|353:108,1,50,0|0,2:2|2:2,2:2:0:0:
303,238,43273,2,0,L|281:178,1,50,0|0,2:2|2:2,2:2:0:0:
485,217,43587,5,0,2:2:0:0:
291,119,43823,1,0,2:2:0:0:
471,239,44058,1,0,2:2:0:0:
429,100,44215,5,0,2:2:0:0:
299,275,44451,1,0,2:2:0:0:
413,89,44686,1,0,2:2:0:0:
414,233,44844,5,0,2:2:0:0:
213,151,45079,1,0,2:2:0:0:
207,368,45315,1,0,2:2:0:0:
288,248,45472,5,0,2:2:0:0:
76,200,45707,1,0,2:2:0:0:
264,317,45943,1,0,2:2:0:0:
399,170,46100,5,0,2:2:0:0:
395,137,46179,1,0,2:2:0:0:
383,107,46257,1,0,2:2:0:0:
362,81,46336,1,0,2:2:0:0:
336,62,46414,2,0,P|290:58|272:70,1,50,0|0,2:2|2:2,2:2:0:0:
230,203,46728,2,0,P|253:209|278:205,1,50,0|0,2:2|2:2,2:2:0:0:
170,106,47043,1,0,2:2:0:0:
57,262,47200,5,0,2:2:0:0:
56,297,47278,1,0,2:2:0:0:
69,330,47357,1,0,2:2:0:0:
90,353,47435,1,0,2:2:0:0:
121,362,47514,1,0,2:2:0:0:
152,354,47592,1,0,2:2:0:0:
182,336,47671,2,0,L|222:288,1,50,0|0,2:2|2:2,2:2:0:0:
332,128,47985,2,0,L|292:176,1,50,0|0,2:2|2:2,2:2:0:0:
182,336,48299,2,0,L|222:288,1,50,0|0,2:2|2:2,2:2:0:0:
195,183,48613,5,0,2:2:0:0:
422,130,48849,1,0,2:2:0:0:
327,325,49084,5,0,2:2:0:0:
321,180,49241,1,0,2:2:0:0:
469,339,49477,5,0,2:2:0:0:
272,248,49713,1,0,2:2:0:0:
430,193,49870,6,0,P|396:80|396:80,1,112.500004291535,0|0,2:2|2:2,2:2:0:0:
256,71,50341,1,0,2:2:0:0:
260,220,50498,1,0,2:2:0:0:
49,265,50655,6,0,L|79:286,5,37.5000014305115,0|0|0|0|0|0,1:2|1:2|1:2|1:2|1:2|1:2,1:2:0:0:
107,287,51126,1,4,2:2:0:0:
133,276,51205,1,0,2:2:0:0:
153,256,51283,1,0,2:2:0:0:
163,230,51362,1,0,2:2:0:0:
160,200,51440,2,0,L|132:116,1,75.0000028610231,0|0,1:2|2:2,2:2:0:0:
250,98,51755,6,0,L|272:160,1,50,0|0,1:2|2:2,2:2:0:0:
176,240,52069,2,0,L|195:300,1,50,0|0,1:2|2:2,2:2:0:0:
208,312,52304,1,0,2:2:0:0:
224,336,52383,1,0,1:2:0:0:
240,352,52461,1,0,2:2:0:0:
264,360,52540,1,0,2:2:0:0:
288,360,52618,1,0,2:2:0:0:
312,352,52697,2,0,L|288:300,1,50,0|0,1:2|2:2,2:2:0:0:
129,286,53011,6,0,L|97:241,1,50,0|0,1:2|2:2,2:2:0:0:
115,117,53325,2,0,L|78:61,1,50,0|0,1:2|2:2,2:2:0:0:
248,70,53640,6,0,P|293:86|318:115,1,75,4|0,1:2|2:2,2:2:0:0:
333,149,53954,1,0,1:2:0:0:
405,269,54111,1,0,2:2:0:0:
282,202,54268,1,0,1:2:0:0:
382,91,54503,5,0,2:2:0:0:
224,250,54739,1,0,2:2:0:0:
177,107,54896,5,0,1:2:0:0:
362,220,55132,1,0,2:2:0:0:
164,318,55367,5,0,2:2:0:0:
268,157,55524,2,0,L|289:124,3,25,0|0|0|0,1:2|1:2|1:2|1:2,1:2:0:0:
282,251,55838,2,0,L|308:278,3,25,0|0|0|0,1:2|1:2|1:2|1:2,1:2:0:0:
167,209,56152,6,0,L|171:174,3,25,4|4|4|4,1:2|1:2|1:2|1:2,1:2:0:0:
60,160,56467,2,0,L|86:137,3,25,0|0|0|0,1:2|1:2|1:2|1:2,1:2:0:0:
187,91,56781,6,0,L|156:116,3,25,0|0|0|0,1:2|1:2|1:2|1:2,1:2:0:0:
121,29,57095,2,0,L|164:12,3,25,0|0|0|0,1:2|1:2|1:2|1:2,1:2:0:0:
238,13,57409,5,4,1:2:0:0:
265,14,57488,1,0,1:2:0:0:
291,19,57566,1,0,1:2:0:0:
314,33,57645,1,0,1:2:0:0:
334,51,57723,1,0,1:2:0:0:
344,76,57802,1,0,1:2:0:0:
342,103,57880,1,0,1:2:0:0:
333,129,57959,1,0,1:2:0:0:
317,151,58037,1,0,1:2:0:0:
294,167,58116,1,0,1:2:0:0:
271,182,58194,1,0,1:2:0:0:
252,202,58273,1,0,1:2:0:0:
244,228,58351,1,0,1:2:0:0:
251,254,58430,1,0,1:2:0:0:
270,273,58508,1,0,1:2:0:0:
297,276,58587,1,0,1:2:0:0:
325,251,58666,5,4,1:2:0:0:
328,208,58744,1,0,1:2:0:0:
308,153,58823,1,0,1:2:0:0:
262,119,58901,1,0,1:2:0:0:
216,105,58980,1,0,1:2:0:0:
169,110,59058,1,0,1:2:0:0:
128,133,59137,1,0,1:2:0:0:
103,177,59215,1,0,1:2:0:0:
110,230,59294,1,0,1:2:0:0:
151,272,59372,1,0,1:2:0:0:
206,271,59451,1,0,1:2:0:0:
248,237,59529,1,0,1:2:0:0:
258,183,59608,1,0,1:2:0:0:
276,128,59686,1,0,1:2:0:0:
325,98,59765,1,0,1:2:0:0:
385,112,59844,1,0,1:2:0:0:
421,171,59923,6,4,B|397:223|397:223|422:276,2,100,0|0|0,1:2|1:2|1:2,1:2:0:0:
255,192,60865,5,10,1:0:0:0:
332,289,61183,5,0,0:0:0:0:
366,284,61261,1,0,0:0:0:0:
394,263,61340,1,0,0:0:0:0:
412,233,61418,1,0,0:0:0:0:
414,197,61497,2,0,P|372:166|314:163,1,100
137,234,61807,2,0,P|179:265|237:268,1,100
142,112,62121,1,0,0:0:0:0:
40,236,62278,5,0,0:0:0:0:
47,270,62357,1,0,0:0:0:0:
67,297,62435,1,0,0:0:0:0:
97,314,62514,1,0,0:0:0:0:
131,319,62592,1,0,0:0:0:0:
165,312,62671,1,0,0:0:0:0:
193,292,62749,2,0,P|246:278|294:292,1,100
359,355,63063,5,0,0:0:0:0:
448,221,63221,1,0,0:0:0:0:
236,178,63378,5,0,0:0:0:0:
390,131,63536,1,0,0:0:0:0:
179,53,63692,2,0,B|129:78|129:78|107:124,1,100
98,151,63927,1,0,0:0:0:0:
98,151,64006,1,0,0:0:0:0:
236,178,64163,1,0,0:0:0:0:
72,282,64320,6,0,B|128:297|128:297|177:290,1,100
199,277,64556,1,0,0:0:0:0:
199,277,64634,1,0,0:0:0:0:
98,151,64791,1,0,0:0:0:0:
237,54,64948,2,0,B|277:101|277:101|278:147,1,100
277,176,65184,1,0,0:0:0:0:
277,176,65262,1,0,0:0:0:0:
431,148,65419,1,0,0:0:0:0:
311,319,65577,5,0,0:0:0:0:
276,318,65655,1,0,0:0:0:0:
240,318,65734,1,0,0:0:0:0:
207,317,65812,1,0,0:0:0:0:
182,291,65891,1,0,0:0:0:0:
147,291,65969,1,0,0:0:0:0:
111,291,66048,1,0,0:0:0:0:
76,293,66126,1,0,0:0:0:0:
55,264,66205,5,0,0:0:0:0:
65,231,66283,1,0,0:0:0:0:
89,205,66362,1,0,0:0:0:0:
118,187,66440,1,0,0:0:0:0:
152,182,66519,2,0,P|198:151|214:84,1,100
334,45,66833,2,0,P|282:25|218:50,1,100
147,291,67147,2,0,P|198:322|256:311,1,100
305,260,67383,1,0,0:0:0:0:
328,234,67461,1,0,0:0:0:0:
360,221,67540,1,0,0:0:0:0:
394,219,67618,1,0,0:0:0:0:
427,229,67697,1,0,0:0:0:0:
454,250,67775,2,0,B|437:299|437:299|383:341,1,100
305,260,68090,5,0,0:0:0:0:
435,68,68247,1,0,0:0:0:0:
305,260,68404,5,0,3:3:0:0:
307,49,68561,1,0,3:3:0:0:
305,260,68718,6,0,B|246:255|246:255|190:228,1,100
176,214,68954,1,0,0:0:0:0:
176,214,69032,1,0,0:0:0:0:
307,49,69189,1,0,0:0:0:0:
85,87,69346,2,0,B|52:138|52:138|47:189,1,100
48,212,69582,1,0,0:0:0:0:
48,212,69660,1,0,0:0:0:0:
307,147,69817,1,0,0:0:0:0:
203,340,69974,2,0,B|148:328|148:328|103:299,1,100
89,280,70210,1,0,0:0:0:0:
89,280,70289,1,0,0:0:0:0:
305,260,70446,1,0,0:0:0:0:
152,56,70603,6,0,P|136:120|144:160,1,100
360,57,70917,6,0,P|376:121|368:161,1,100
260,314,71231,5,0,0:0:0:0:
262,278,71310,1,0,0:0:0:0:
262,243,71388,1,0,0:0:0:0:
261,207,71467,1,0,0:0:0:0:
261,172,71545,2,0,B|261:98|261:98|220:119,1,100
97,207,71859,2,0,B|138:261|138:261|145:224,1,100
138,91,72173,2,0,B|97:37|97:37|90:74,1,100
99,208,72409,5,0,0:0:0:0:
114,239,72488,1,0,0:0:0:0:
139,262,72566,1,0,0:0:0:0:
170,277,72645,1,0,0:0:0:0:
203,284,72723,1,0,0:0:0:0:
234,271,72802,2,0,P|289:241|342:258,1,100
462,339,73116,6,0,L|457:222,1,100
347,33,73430,2,0,L|353:166,1,100
295,315,73744,6,0,B|233:311|233:311|193:276,1,100
178,260,73980,1,0,0:0:0:0:
178,260,74058,1,0,0:0:0:0:
351,132,74215,1,0,0:0:0:0:
117,39,74372,6,0,B|88:83|88:83|88:132,1,100
90,164,74608,1,0,0:0:0:0:
90,164,74686,5,0,0:0:0:0:
351,132,74844,1,0,0:0:0:0:
96,292,75001,2,0,B|134:332|134:332|180:341,1,100
211,345,75236,1,0,0:0:0:0:
211,345,75315,1,0,0:0:0:0:
219,118,75472,1,0,0:0:0:0:
384,263,75629,6,0,B|326:269|326:269|284:258,1,100
259,245,75864,1,0,0:0:0:0:
259,245,75943,1,0,0:0:0:0:
430,65,76100,1,0,0:0:0:0:
384,262,76257,5,0,0:0:0:0:
375,227,76336,1,0,0:0:0:0:
358,196,76414,1,0,0:0:0:0:
329,174,76493,1,0,0:0:0:0:
294,167,76571,2,0,P|224:164|195:141,1,100
47,68,76885,2,0,P|117:71|146:94,1,100
122,262,77200,1,0,0:0:0:0:
44,66,77357,5,0,0:0:0:0:
75,80,77435,1,0,0:0:0:0:
108,90,77514,1,0,0:0:0:0:
142,91,77592,1,0,0:0:0:0:
176,83,77671,1,0,0:0:0:0:
206,67,77749,1,0,0:0:0:0:
228,40,77828,6,0,P|284:37|323:63,1,100
298,253,78142,1,0,0:0:0:0:
394,184,78299,1,0,0:0:0:0:
153,212,78456,1,0,0:0:0:0:
394,184,78613,1,0,0:0:0:0:
134,331,78770,6,0,B|73:313|73:313|40:273,1,100
34,253,79006,1,0,0:0:0:0:
34,253,79084,1,0,0:0:0:0:
254,166,79241,1,0,0:0:0:0:
134,53,79399,6,0,B|73:71|73:71|40:111,1,100
34,131,79635,1,0,0:0:0:0:
34,131,79713,1,0,0:0:0:0:
200,256,79870,1,0,0:0:0:0:
372,98,80027,6,0,P|413:155|306:330,1,300
81,228,81283,5,4,0:0:0:0:
57,199,81361,1,0,0:0:0:0:
49,163,81440,1,0,0:0:0:0:
57,126,81518,1,0,0:0:0:0:
81,98,81597,1,0,0:0:0:0:
114,82,81675,1,0,0:0:0:0:
152,83,81754,1,0,0:0:0:0:
184,101,81832,1,0,0:0:0:0:
211,137,81912,1,0,0:0:0:0:
230,168,81990,1,0,0:0:0:0:
261,189,82069,1,0,0:0:0:0:
298,192,82147,1,0,0:0:0:0:
333,179,82226,1,0,0:0:0:0:
358,152,82304,1,0,0:0:0:0:
368,117,82383,1,0,0:0:0:0:
362,80,82461,1,0,0:0:0:0:
340,50,82540,6,0,L|302:73,3,37.5000014305115
251,129,82854,2,0,L|259:172,3,37.5000014305115,0|0|0|0,0:0|0:0|0:0|0:0,0:0:0:0:
265,207,83168,5,0,0:0:0:0:
264,244,83246,1,0,0:0:0:0:
247,277,83325,1,0,0:0:0:0:
218,300,83403,1,0,0:0:0:0:
182,309,83482,1,0,0:0:0:0:
146,302,83560,1,0,0:0:0:0:
116,280,83639,1,0,0:0:0:0:
98,247,83717,1,0,0:0:0:0:
94,209,83796,6,0,L|128:180,3,37.5000014305115
208,136,84111,2,0,L|271:133,3,37.5000014305115,0|0|0|0,0:0|0:0|0:0|0:0,0:0:0:0:
290,136,84425,5,0,0:0:0:0:
322,154,84503,1,0,0:0:0:0:
345,183,84582,1,0,0:0:0:0:
355,219,84660,1,0,0:0:0:0:
349,256,84739,1,0,0:0:0:0:
330,287,84817,1,0,0:0:0:0:
299,309,84896,1,0,0:0:0:0:
263,317,84974,1,0,0:0:0:0:
227,304,85053,5,0,0:0:0:0:
226,266,85131,1,0,0:0:0:0:
211,232,85210,1,0,0:0:0:0:
184,207,85288,1,0,0:0:0:0:
148,196,85367,1,0,0:0:0:0:
111,200,85445,1,0,0:0:0:0:
79,219,85524,1,0,0:0:0:0:
57,249,85602,1,0,0:0:0:0:
51,288,85681,6,0,L|113:310,3,37.5000014305115
195,305,85995,2,0,L|228:256,3,37.5000014305115,0|0|0|0,0:0|0:0|0:0|0:0,0:0:0:0:
237,242,86310,5,4,0:0:0:0:
259,212,86388,1,0,0:0:0:0:
284,183,86467,1,0,0:0:0:0:
309,155,86545,1,0,0:0:0:0:
336,129,86624,1,0,0:0:0:0:
361,101,86702,1,0,0:0:0:0:
389,76,86781,1,0,0:0:0:0:
416,50,86859,1,0,0:0:0:0:
445,25,86938,6,0,P|469:45|475:64,3,37.5000014305115
468,144,87252,2,0,P|430:164|409:156,3,37.5000014305115,0|0|0|0,0:0|0:0|0:0|0:0,0:0:0:0:
391,164,87566,5,0,0:0:0:0:
362,140,87644,1,0,0:0:0:0:
326,129,87723,1,0,0:0:0:0:
289,131,87801,1,0,0:0:0:0:
255,147,87880,1,0,0:0:0:0:
230,174,87958,1,0,0:0:0:0:
216,209,88037,1,0,0:0:0:0:
215,246,88115,1,0,0:0:0:0:
226,284,88194,6,0,L|239:328,3,37.5000014305115
350,323,88508,2,0,L|335:275,3,37.5000014305115,0|0|0|0,0:0|0:0|0:0|0:0,0:0:0:0:
327,250,88823,5,0,0:0:0:0:
315,214,88901,1,0,0:0:0:0:
291,185,88980,1,0,0:0:0:0:
259,166,89058,1,0,0:0:0:0:
222,160,89137,1,0,0:0:0:0:
185,167,89215,1,0,0:0:0:0:
153,187,89294,1,0,0:0:0:0:
131,216,89372,1,0,0:0:0:0:
122,253,89451,1,0,0:0:0:0:
84,255,89529,1,0,0:0:0:0:
50,241,89608,1,0,0:0:0:0:
24,214,89686,1,0,0:0:0:0:
13,179,89765,1,0,0:0:0:0:
18,142,89843,1,0,0:0:0:0:
39,111,89922,1,0,0:0:0:0:
71,92,90000,1,0,0:0:0:0:
110,86,90079,6,0,L|147:106,3,37.5000014305115
237,122,90393,2,0,L|248:179,3,37.5000014305115,0|0|0|0,0:0|0:0|0:0|0:0,0:0:0:0:
331,211,90707,2,0,L|297:241,3,37.5000014305115
190,296,91022,6,0,L|179:256,3,37.5000014305115,0|0|0|0,0:0|0:0|0:0|0:0,0:0:0:0:
167,217,91336,1,4,0:0:0:0:
158,180,91414,1,0,0:0:0:0:
166,144,91493,1,0,0:0:0:0:
190,115,91571,1,0,0:0:0:0:
224,100,91650,1,0,0:0:0:0:
261,102,91728,1,0,0:0:0:0:
293,120,91807,1,0,0:0:0:0:
314,151,91885,1,0,0:0:0:0:
318,188,91964,1,0,0:0:0:0:
312,225,92042,1,0,0:0:0:0:
322,260,92121,1,0,0:0:0:0:
346,289,92199,1,0,0:0:0:0:
379,306,92278,1,0,0:0:0:0:
417,307,92356,1,0,0:0:0:0:
451,293,92435,1,0,0:0:0:0:
477,266,92513,1,0,0:0:0:0:
479,228,92592,5,0,0:0:0:0:
442,236,92670,1,0,0:0:0:0:
406,227,92749,1,0,0:0:0:0:
377,204,92827,1,0,0:0:0:0:
360,171,92906,1,0,0:0:0:0:
360,134,92984,1,0,0:0:0:0:
376,100,93063,1,0,0:0:0:0:
404,76,93141,1,0,0:0:0:0:
442,70,93221,1,0,0:0:0:0:
439,107,93299,1,0,0:0:0:0:
425,141,93378,1,0,0:0:0:0:
400,169,93456,1,0,0:0:0:0:
367,187,93535,1,0,0:0:0:0:
331,193,93613,1,0,0:0:0:0:
294,186,93692,1,0,0:0:0:0:
262,167,93770,1,0,0:0:0:0:
251,131,93849,5,0,0:0:0:0:
221,153,93927,1,0,0:0:0:0:
202,185,94006,1,0,0:0:0:0:
197,222,94084,1,0,0:0:0:0:
207,258,94163,1,0,0:0:0:0:
231,286,94241,1,0,0:0:0:0:
264,304,94320,1,0,0:0:0:0:
301,307,94398,1,0,0:0:0:0:
336,295,94477,1,0,0:0:0:0:
361,262,94556,1,0,0:0:0:0:
373,222,94634,1,0,0:0:0:0:
363,181,94713,1,0,0:0:0:0:
333,152,94791,6,0,L|281:165,3,37.5000014305115,0|0|0|0,0:0|0:0|0:0|0:0,0:0:0:0:
243,75,95105,2,0,L|221:121,3,37.5000014305115
157,15,95419,2,0,L|140:69,3,37.5000014305115,0|0|0|0,0:0|0:0|0:0|0:0,0:0:0:0:
138,75,95734,5,0,0:0:0:0:
132,96,95812,1,0,0:0:0:0:
126,117,95891,1,0,0:0:0:0:
119,138,95969,1,0,0:0:0:0:
113,160,96048,1,0,0:0:0:0:
105,181,96126,1,0,0:0:0:0:
98,202,96205,1,0,0:0:0:0:
90,223,96283,1,0,0:0:0:0:
80,259,96362,5,4,0:0:0:0:
110,281,96440,1,0,0:0:0:0:
145,292,96519,1,0,0:0:0:0:
183,290,96597,1,0,0:0:0:0:
217,277,96676,1,0,0:0:0:0:
246,253,96754,1,0,0:0:0:0:
265,220,96833,1,0,0:0:0:0:
272,184,96911,1,0,0:0:0:0:
263,147,96990,6,0,L|287:110,3,37.5000014305115
412,95,97304,2,0,L|387:132,3,37.5000014305115,0|0|0|0,0:0|0:0|0:0|0:0,0:0:0:0:
372,158,97618,5,0,0:0:0:0:
353,190,97696,1,0,0:0:0:0:
324,214,97775,1,0,0:0:0:0:
290,228,97853,1,0,0:0:0:0:
252,230,97932,1,0,0:0:0:0:
216,219,98010,1,0,0:0:0:0:
186,198,98089,1,0,0:0:0:0:
164,168,98167,1,0,0:0:0:0:
158,130,98247,1,0,0:0:0:0:
121,135,98325,1,0,0:0:0:0:
89,154,98404,1,0,0:0:0:0:
66,184,98482,1,0,0:0:0:0:
57,220,98561,1,0,0:0:0:0:
61,257,98639,1,0,0:0:0:0:
80,289,98718,1,0,0:0:0:0:
109,312,98796,1,0,0:0:0:0:
146,318,98875,5,0,0:0:0:0:
148,280,98953,1,0,0:0:0:0:
163,246,99032,1,0,0:0:0:0:
188,218,99110,1,0,0:0:0:0:
221,201,99189,1,0,0:0:0:0:
258,195,99267,1,0,0:0:0:0:
294,202,99346,1,0,0:0:0:0:
326,221,99424,1,0,0:0:0:0:
344,255,99503,1,0,0:0:0:0:
380,249,99581,1,0,0:0:0:0:
412,229,99660,1,0,0:0:0:0:
431,198,99738,1,0,0:0:0:0:
436,161,99817,1,0,0:0:0:0:
424,126,99895,1,0,0:0:0:0:
399,99,99974,1,0,0:0:0:0:
364,85,100052,1,0,0:0:0:0:
328,88,100132,6,0,P|264:120|240:200,1,150.000005722046,4|4,0:0|0:0,0:0:0:0:
96,296,100603,1,4,0:0:0:0:
96,104,100760,2,0,L|152:104,3,37.5000014305115
168,104,101074,1,0,0:0:0:0:
208,104,101152,1,0,0:0:0:0:
248,104,101231,1,0,0:0:0:0:
288,104,101310,1,0,0:0:0:0:
328,104,101388,1,0,0:0:0:0:
435,122,111440,5,0,1:0:0:0:
423,149,111755,1,0,1:0:0:0:
407,174,112069,1,0,1:0:0:0:
390,198,112383,1,0,1:0:0:0:
233,86,112697,5,0,1:0:0:0:
232,115,113011,1,0,1:0:0:0:
231,144,113325,1,0,1:0:0:0:
230,173,113639,1,0,1:0:0:0:
77,262,113954,5,0,1:0:0:0:
89,235,114268,1,0,1:0:0:0:
105,210,114582,1,0,1:0:0:0:
122,186,114896,1,0,1:0:0:0:
279,298,115210,5,0,1:0:0:0:
276,268,115524,1,0,1:0:0:0:
272,238,115838,1,0,1:0:0:0:
270,208,116152,1,0,1:0:0:0:
256,192,116467,12,0,120236,1:0:0:0:
147,161,121493,6,0,P|173:218|206:233,1,75.0000028610231,0|0,2:0|2:0,2:0:0:0:
310,147,121807,2,0,L|349:163,3,37.5000014305115,0|0|0|0,2:0|2:0|2:0|2:0,2:0:0:0:
427,195,122121,1,0,2:0:0:0:
201,106,122357,1,0,2:0:0:0:
426,104,122553,1,0,2:0:0:0:
293,173,122749,2,0,L|293:271,1,75.0000028610231,0|0,2:0|2:0,2:0:0:0:
170,334,123063,5,0,2:0:0:0:
133,327,123142,1,0,2:0:0:0:
102,306,123221,1,0,2:0:0:0:
83,274,123299,1,0,2:0:0:0:
79,237,123378,1,0,2:0:0:0:
297,180,123613,5,0,2:0:0:0:
195,107,123810,1,0,2:0:0:0:
209,256,124006,2,0,P|259:301|300:308,1,75.0000028610231,0|0,2:0|2:0,2:0:0:0:
379,206,124320,5,0,2:0:0:0:
397,173,124399,1,0,2:0:0:0:
399,136,124477,1,0,2:0:0:0:
384,102,124556,1,0,2:0:0:0:
356,79,124634,1,0,2:0:0:0:
166,239,124870,5,0,2:0:0:0:
356,79,125066,1,0,2:0:0:0:
206,84,125262,5,0,2:0:0:0:
410,181,125478,1,0,2:0:0:0:
201,91,125675,5,0,2:0:0:0:
283,210,125891,1,0,2:0:0:0:
100,105,126107,5,0,2:0:0:0:
164,322,126323,1,0,2:0:0:0:
258,139,126519,2,0,P|306:95|342:88,1,75.0000028610231,0|0,2:0|2:0,2:0:0:0:
384,147,126833,5,0,2:0:0:0:
384,184,126912,1,0,2:0:0:0:
384,221,126990,1,0,2:0:0:0:
384,259,127069,1,0,2:0:0:0:
384,296,127147,1,0,2:0:0:0:
234,296,127363,1,0,2:0:0:0:
237,78,127579,1,0,2:0:0:0:
91,195,127775,2,0,P|104:240|148:264,1,75.0000028610231,0|0,2:0|2:0,2:0:0:0:
384,296,128090,5,0,2:0:0:0:
384,259,128168,1,0,2:0:0:0:
384,221,128247,1,0,2:0:0:0:
384,184,128325,1,0,2:0:0:0:
384,147,128404,1,0,2:0:0:0:
137,193,128620,5,0,2:0:0:0:
327,74,128836,1,0,2:0:0:0:
234,191,129032,2,0,L|182:266,1,75.0000028610231,0|0,2:0|2:0,2:0:0:0:
68,104,129346,1,0,2:0:0:0:
88,80,129425,1,0,2:0:0:0:
112,64,129503,1,0,2:0:0:0:
140,52,129582,1,0,2:0:0:0:
168,48,129660,1,0,2:0:0:0:
256,252,129876,1,0,2:0:0:0:
80,324,130073,1,0,2:0:0:0:
168,160,130289,5,0,2:0:0:0:
168,384,130505,1,0,2:0:0:0:
72,224,130701,5,0,2:0:0:0:
296,224,130936,1,0,2:0:0:0:
124,300,131133,5,0,2:0:0:0:
128,112,131329,1,0,2:0:0:0:
298,200,131545,6,0,L|296:363,1,159.375006079674,4|0,2:0|2:0,2:0:0:0:
247,150,132802,6,0,L|88:151,1,159.375006079674,0|0,2:0|2:0,2:0:0:0:
264,234,134058,6,0,L|423:232,1,159.375006079674,0|0,2:0|2:0,2:0:0:0:
122,103,135001,5,0,2:0:0:0:
122,103,135079,1,0,2:0:0:0:
122,103,135158,1,0,2:0:0:0:
122,103,135236,1,0,2:0:0:0:
122,103,135315,2,0,L|185:191,1,103.125003933907,0|0,2:0|2:0,2:0:0:0:
318,342,135727,1,0,2:0:0:0:
322,154,135943,1,0,2:0:0:0:
139,250,136139,5,0,2:0:0:0:
339,250,136375,1,0,2:0:0:0:
214,110,136571,2,0,L|216:274,1,159.375006079674,4|0,2:0|2:0,2:0:0:0:
512,84,137828,2,0,L|348:86,1,159.375006079674,0|0,2:0|2:0,2:0:0:0:
0,170,139084,2,0,L|164:168,1,159.375006079674,0|0,2:0|2:0,2:0:0:0:
441,166,139713,5,0,2:0:0:0:
300,317,139909,1,0,2:0:0:0:
302,110,140125,5,0,2:0:0:0:
400,291,140341,1,0,2:0:0:0:
239,195,140557,5,0,2:0:0:0:
341,373,140753,1,0,2:0:0:0:
156,279,140969,1,0,2:0:0:0:
362,274,141185,1,0,2:0:0:0:
191,350,141401,1,0,2:0:0:0:
193,177,141597,2,0,L|194:17,1,159.375006079674,4|0,2:0|2:0,2:0:0:0:
86,108,142226,1,0,2:0:0:0:
86,227,142540,1,0,2:0:0:0:
369,129,142854,2,0,L|367:288,1,159.375006079674,0|0,2:0|2:0,2:0:0:0:
188,205,143482,1,0,2:0:0:0:
306,125,143796,1,0,2:0:0:0:
271,332,144111,2,0,L|111:330,1,159.375006079674,0|0,2:0|2:0,2:0:0:0:
103,133,144739,5,0,2:0:0:0:
250,135,145053,1,0,2:0:0:0:
249,344,145367,2,0,L|408:342,1,159.375006079674,0|0,2:0|2:0,2:0:0:0:
412,144,145995,1,0,2:0:0:0:
331,253,146310,1,0,2:0:0:0:
243,145,146624,1,0,2:0:0:0:
256,192,146754,12,0,147932,1:0:0:0:
256,192,147959,12,0,149137,1:0:0:0:
256,192,149215,12,4,150413,1:0:0:0:
219,99,150688,5,0,1:0:0:0:
368,96,151022,1,0,1:0:0:0:
121,318,151336,5,0,1:0:0:0:
313,263,151650,2,4,P|284:196|224:163,1,100,6|0,1:0|1:0,1:0:0:0:
57,194,151964,5,0,1:0:0:0:
56,231,152043,1,0,1:0:0:0:
64,267,152121,1,0,1:0:0:0:
81,299,152200,1,0,1:0:0:0:
108,323,152278,2,0,P|176:330|231:308,1,100,0|0,1:0|1:0,1:0:0:0:
156,160,152592,1,2,1:0:0:0:
109,329,152749,1,0,1:0:0:0:
304,336,152906,6,0,L|304:232,1,100,2|0,1:0|1:0,1:0:0:0:
348,43,153221,5,0,1:0:0:0:
380,26,153299,1,0,1:0:0:0:
418,22,153378,1,0,1:0:0:0:
454,34,153456,1,0,1:0:0:0:
480,59,153535,2,0,P|491:132|478:180,1,100,2|0,1:0|1:0,1:0:0:0:
350,250,153849,2,0,P|344:200|356:152,1,100,0|0,1:0|1:0,1:0:0:0:
480,364,154163,6,0,L|373:364,1,100,2|0,1:0|1:0,1:0:0:0:
245,249,154477,1,0,1:0:0:0:
245,249,154556,1,0,1:0:0:0:
245,249,154634,1,0,1:0:0:0:
420,134,154791,6,0,L|303:142,1,100,2|0,1:0|1:0,1:0:0:0:
149,161,155105,1,0,1:0:0:0:
245,249,155262,1,0,1:0:0:0:
33,124,155419,1,2,1:0:0:0:
256,125,155577,1,0,1:0:0:0:
149,250,155734,1,0,1:0:0:0:
148,40,155891,1,0,1:0:0:0:
255,291,156048,6,0,P|265:236|254:182,1,100,2|0,1:0|1:0,1:0:0:0:
150,68,156362,2,0,P|138:115|147:169,1,100,0|0,1:0|1:0,1:0:0:0:
392,264,156676,6,0,B|408:216|408:216|384:152,1,100,6|0,1:0|1:0,1:0:0:0:
96,45,156990,1,0,1:0:0:0:
90,80,157069,1,0,1:0:0:0:
96,115,157147,1,0,1:0:0:0:
116,144,157226,1,0,1:0:0:0:
150,158,157304,2,0,P|210:167|266:139,1,100,0|0,1:0|1:0,1:0:0:0:
308,60,157618,2,0,P|348:120|344:160,1,100,0|0,1:0|1:0,1:0:0:0:
144,300,157933,6,0,B|99:267|99:267|74:200,1,100,2|0,1:0|1:0,1:0:0:0:
348,144,158247,1,0,1:0:0:0:
348,172,158325,1,0,1:0:0:0:
348,204,158404,1,0,1:0:0:0:
348,232,158482,1,0,1:0:0:0:
348,264,158561,2,0,P|300:304|244:300,1,100,2|0,1:0|1:0,1:0:0:0:
136,104,158875,2,0,B|192:92|192:92|223:133,1,100,0|0,1:0|1:0,1:0:0:0:
140,304,159189,2,0,L|-5:307,1,100,2|0,1:0|1:0,1:0:0:0:
320,216,159503,5,0,1:0:0:0:
348,192,159582,1,0,1:0:0:0:
366,160,159660,1,0,1:0:0:0:
375,124,159739,1,0,1:0:0:0:
369,87,159817,6,0,B|331:56|331:56|252:52,1,100,2|0,1:0|1:0,1:0:0:0:
232,228,160132,2,0,P|247:274|297:298,1,100,0|0,1:0|1:0,1:0:0:0:
249,68,160446,2,0,L|156:104,1,100,2|0,1:0|1:0,1:0:0:0:
68,324,160760,2,0,L|155:276,1,100,0|0,1:0|1:0,1:0:0:0:
96,56,161074,2,0,P|68:104|72:164,1,100,6|0,1:0|1:0,1:0:0:0:
316,197,161388,2,0,L|216:197,1,100,0|0,1:0|1:0,1:0:0:0:
428,304,161702,6,0,L|428:176,1,100,6|0,1:0|1:0,1:0:0:0:
282,69,162016,1,0,1:0:0:0:
246,59,162095,1,0,1:0:0:0:
208,63,162173,1,0,1:0:0:0:
174,80,162252,1,0,1:0:0:0:
150,109,162330,2,0,P|132:165|161:236,1,100,2|0,1:0|1:0,1:0:0:0:
341,290,162645,2,0,P|348:241|330:194,1,100,0|0,1:0|1:0,1:0:0:0:
216,304,162959,2,0,B|153:323|153:323|149:283,1,100,2|0,1:0|1:0,1:0:0:0:
364,144,163273,5,0,1:0:0:0:
400,154,163351,1,0,1:0:0:0:
428,162,163430,1,0,1:0:0:0:
456,174,163508,1,0,1:0:0:0:
484,186,163587,2,0,P|508:230|496:294,1,100,2|0,1:0|1:0,1:0:0:0:
280,172,163901,2,0,P|281:106|320:68,1,100,0|0,1:0|1:0,1:0:0:0:
348,320,164215,2,0,B|301:339|301:339|233:322,1,100,2|0,1:0|1:0,1:0:0:0:
71,178,164529,5,0,1:0:0:0:
52,146,164608,1,0,1:0:0:0:
50,108,164686,1,0,1:0:0:0:
61,71,164765,1,0,1:0:0:0:
89,45,164844,2,0,P|141:44|198:82,1,100,2|0,1:0|1:0,1:0:0:0:
250,233,165158,1,0,1:0:0:0:
111,210,165315,1,0,1:0:0:0:
271,90,165472,1,6,1:0:0:0:
250,233,165629,1,0,1:0:0:0:
174,46,165786,1,0,1:0:0:0:
356,127,165943,5,0,1:0:0:0:
136,131,166100,1,6,1:0:0:0:
356,264,166257,5,0,1:0:0:0:
136,263,166414,1,0,1:0:0:0:
255,75,166571,1,0,1:0:0:0:
254,373,166728,2,0,L|377:372,1,100,6|0,1:0|1:0,1:0:0:0:
460,169,167043,5,0,1:0:0:0:
459,131,167121,1,0,1:0:0:0:
442,96,167200,1,0,1:0:0:0:
414,69,167278,1,0,1:0:0:0:
376,60,167357,2,0,P|319:72|282:137,1,100,2|0,1:0|1:0,1:0:0:0:
454,202,167671,1,0,1:0:0:0:
383,60,167828,1,0,1:0:0:0:
257,332,167985,6,0,L|256:203,1,100,2|0,1:0|1:0,1:0:0:0:
105,87,168299,1,0,1:0:0:0:
84,108,168378,1,0,1:0:0:0:
64,132,168456,1,0,1:0:0:0:
48,156,168535,1,0,1:0:0:0:
32,180,168613,2,0,P|54:235|129:262,1,100,2|0,1:0|1:0,1:0:0:0:
128,62,168927,1,0,1:0:0:0:
112,272,169084,1,0,1:0:0:0:
389,319,169241,6,0,B|490:308,1,100,6|0,1:0|1:0,1:0:0:0:
293,315,169556,1,0,1:0:0:0:
244,308,169634,1,0,1:0:0:0:
203,279,169713,1,0,1:0:0:0:
181,235,169791,1,0,1:0:0:0:
177,191,169870,2,0,P|231:142|298:145,1,100,2|0,1:0|1:0,1:0:0:0:
364,167,170184,2,0,P|310:216|243:213,1,100,2|0,1:0|1:0,1:0:0:0:
17,64,170498,6,0,L|168:64,1,150,4|2,1:0|1:0,1:0:0:0:
316,287,170930,1,0,1:0:0:0:
123,126,171126,6,0,L|272:128,1,150,4|2,1:0|1:0,1:0:0:0:
414,327,171558,1,0,1:0:0:0:
177,251,171755,5,0,1:0:0:0:
177,251,171833,1,0,1:0:0:0:
177,251,171912,1,0,1:0:0:0:
318,70,172069,1,2,1:0:0:0:
319,172,172226,1,0,1:0:0:0:
177,131,172383,2,0,L|277:54,1,100,2|0,1:0|1:0,1:0:0:0:
397,131,172697,2,0,L|317:69,1,100,2|0,1:0|1:0,1:0:0:0:
178,216,173011,5,0,1:0:0:0:
177,251,173090,1,0,1:0:0:0:
175,289,173168,1,0,1:0:0:0:
175,323,173247,1,0,1:0:0:0:
177,359,173325,2,0,L|291:359,1,100,2|0,1:0|1:0,1:0:0:0:
448,259,173639,2,0,L|342:264,1,100,2|0,1:0|1:0,1:0:0:0:
177,251,173954,2,0,P|180:188|210:156,1,100,2|0,1:0|1:0,1:0:0:0:
370,147,174268,5,0,1:0:0:0:
269,254,174425,1,0,1:0:0:0:
268,69,174582,1,0,1:0:0:0:
370,147,174739,1,0,1:0:0:0:
176,147,174896,2,2,P|139:100|138:56,1,100,2|0,1:0|1:0,1:0:0:0:
370,147,175210,1,0,1:0:0:0:
232,264,175367,6,0,B|145:312|113:265|113:265|145:248|152:221|148:182,1,200,2|0,1:0|1:0,1:0:0:0:
58,44,175838,1,0,1:0:0:0:
57,184,175995,1,0,1:0:0:0:
181,57,176152,2,0,P|231:88|250:137,1,100,2|0,1:0|1:0,1:0:0:0:
358,127,176467,2,0,P|344:185|303:218,1,100,2|0,1:0|1:0,1:0:0:0:
56,219,176781,5,0,1:0:0:0:
57,252,176859,1,0,1:0:0:0:
58,286,176938,1,0,1:0:0:0:
58,320,177016,1,0,1:0:0:0:
59,354,177095,2,0,P|139:344|160:311,1,100,2|0,1:0|1:0,1:0:0:0:
253,138,177409,2,0,P|173:148|152:181,1,100,2|0,1:0|1:0,1:0:0:0:
301,273,177723,1,2,1:0:0:0:
346,153,177880,1,0,1:0:0:0:
480,218,178037,5,0,1:0:0:0:
481,252,178116,1,0,1:0:0:0:
483,287,178194,1,0,1:0:0:0:
483,322,178273,1,0,1:0:0:0:
484,357,178351,2,0,P|434:362|391:311,1,100,2|0,1:0|1:0,1:0:0:0:
253,138,178666,2,0,P|303:133|355:163,1,100,2|0,1:0|1:0,1:0:0:0:
217,325,178980,1,0,1:0:0:0:
155,228,179137,1,0,1:0:0:0:
346,154,179294,6,0,B|370:154|370:154|392:170|392:170|413:154|413:154|435:154,1,100,0|0,1:0|1:0,1:0:0:0:
201,70,179608,2,0,L|126:143,1,100,2|0,1:0|1:0,1:0:0:0:
234,337,179922,2,0,L|235:223,1,100,0|0,1:0|1:0,1:0:0:0:
345,54,180236,2,0,L|346:178,1,100,0|0,1:0|1:0,1:0:0:0:
75,178,180550,6,0,B|99:178|99:178|121:162|121:162|142:178|142:178|164:178,1,100,0|0,1:0|1:0,1:0:0:0:
433,258,180864,2,0,L|306:258,1,100,2|0,1:0|1:0,1:0:0:0:
82,253,181179,2,0,L|85:357,1,100,2|0,1:0|1:0,1:0:0:0:
330,243,181493,1,0,1:0:0:0:
329,223,181571,1,0,1:0:0:0:
329,203,181650,1,0,1:0:0:0:
328,183,181728,1,0,1:0:0:0:
328,168,181807,6,0,P|303:115|260:89,1,100,2|0,1:0|1:0,1:0:0:0:
211,59,182121,1,0,1:0:0:0:
155,184,182278,1,0,1:0:0:0:
343,118,182435,1,0,1:0:0:0:
211,59,182592,1,0,1:0:0:0:
217,258,182749,1,0,1:0:0:0:
324,143,182906,1,0,1:0:0:0:
155,184,183063,6,0,B|112:140|112:140|109:75,1,100,2|0,1:0|1:0,1:0:0:0:
300,257,183378,2,0,P|267:321|200:335,1,100,0|0,1:0|1:0,1:0:0:0:
61,218,183692,1,0,1:0:0:0:
180,114,183849,1,0,1:0:0:0:
174,313,184006,1,0,1:0:0:0:
180,114,184163,1,0,1:0:0:0:
174,313,184320,6,0,L|297:316,1,100,2|0,1:0|1:0,1:0:0:0:
423,140,184634,2,0,L|316:143,1,100,0|0,1:0|1:0,1:0:0:0:
112,226,184948,2,0,L|224:221,1,100,0|0,1:0|1:0,1:0:0:0:
411,216,185262,1,0,1:0:0:0:
363,123,185419,6,0,B|331:167|276:169|276:169|312:223|269:291,1,200,2|0,1:0|1:0,1:0:0:0:
340,326,185891,1,0,1:0:0:0:
421,188,186048,1,0,1:0:0:0:
211,221,186205,1,0,1:0:0:0:
384,259,186362,1,0,1:0:0:0:
285,89,186519,1,0,1:0:0:0:
243,307,186676,1,0,1:0:0:0:
384,259,186833,6,0,B|396:174|396:174|351:190,1,100,6|0,1:0|1:0,1:0:0:0:
171,249,187147,1,0,1:0:0:0:
266,322,187304,1,0,1:0:0:0:
266,120,187461,1,0,1:0:0:0:
171,249,187618,1,0,1:0:0:0:
360,186,187775,1,0,1:0:0:0:
162,149,187933,1,0,1:0:0:0:
348,272,188090,6,0,B|360:187|360:187|315:203,1,100,6|0,1:0|1:0,1:0:0:0:
123,214,188404,1,0,1:0:0:0:
200,319,188561,1,0,1:0:0:0:
199,115,188718,1,0,1:0:0:0:
86,280,188875,1,0,1:0:0:0:
270,278,189032,1,0,1:0:0:0:
119,168,189189,1,0,1:0:0:0:
270,278,189346,6,0,L|271:156,1,100,6|0,1:0|1:0,1:0:0:0:
410,176,189660,2,0,L|407:67,1,100,0|0,1:0|1:0,1:0:0:0:
270,78,189974,2,0,L|270:182,1,100,0|0,1:0|1:0,1:0:0:0:
412,275,190289,2,0,L|409:166,1,100,0|0,1:0|1:0,1:0:0:0:
206,251,190603,2,0,B|265:249|264:249|285:180,1,100,6|0,1:0|1:0,1:0:0:0:
270,78,190917,1,0,1:0:0:0:
149,86,191074,2,0,B|90:88|91:88|70:157,1,100,6|0,1:0|1:0,1:0:0:0:
73,174,191310,5,0,1:0:0:0:
88,205,191388,1,0,1:0:0:0:
116,225,191467,1,0,1:0:0:0:
150,229,191545,1,0,1:0:0:0:
182,215,191624,1,0,1:0:0:0:
203,188,191702,1,0,1:0:0:0:
208,154,191781,1,0,1:0:0:0:
199,121,191859,1,0,0:0:0:0:
256,192,209459,12,0,213071,0:0:0:0:
248,188,213076,5,0,1:0:0:0:
389,149,217402,1,0,1:0:0:0:
398,172,217475,1,0,1:0:0:0:
401,195,217547,1,0,1:0:0:0:
401,220,217619,1,0,1:0:0:0:
398,242,217691,1,0,1:0:0:0:
210,50,218124,6,0,P|220:113|208:158,1,75.0000028610231,0|0,1:0|1:0,1:0:0:0:
218,123,218412,1,0,1:0:0:0:
69,103,218556,1,0,1:0:0:0:
69,103,218701,1,0,1:0:0:0:
306,296,219710,5,0,1:0:0:0:
304,269,219782,1,0,1:0:0:0:
304,241,219854,1,0,1:0:0:0:
303,213,219926,1,0,1:0:0:0:
303,185,219999,1,0,1:0:0:0:
111,178,220431,6,0,L|167:113,1,75.0000028610231,0|0,1:0|1:0,1:0:0:0:
459,140,220864,1,0,1:0:0:0:
332,219,221008,1,0,1:0:0:0:
332,219,221080,1,0,1:0:0:0:
332,219,221152,1,0,1:0:0:0:
456,36,221369,1,0,1:0:0:0:
458,259,221585,1,0,1:0:0:0:
332,155,221729,2,0,P|270:194|292:267,1,150.000005722046,6|0,1:0|1:0,1:0:0:0:
299,282,222090,1,0,1:0:0:0:
299,282,222162,1,0,1:0:0:0:
141,155,222306,6,0,L|184:78,1,75.0000028610231,2|0,1:0|1:0,1:0:0:0:
138,274,222595,2,0,L|47:276,1,75.0000028610231,0|0,1:0|1:0,1:0:0:0:
236,205,222883,2,0,L|317:204,1,75.0000028610231,0|0,1:0|1:0,1:0:0:0:
141,155,223172,2,0,L|65:76,1,75.0000028610231,0|0,1:0|1:0,1:0:0:0:
231,131,223460,6,0,P|239:179|223:237,1,75.0000028610231,2|0,1:0|1:0,1:0:0:0:
151,346,223749,2,0,P|137:293|138:254,1,75.0000028610231,0|0,1:0|1:0,1:0:0:0:
141,155,224037,1,0,1:0:0:0:
322,176,224181,1,0,1:0:0:0:
218,276,224325,1,0,1:0:0:0:
262,79,224470,1,0,1:0:0:0:
262,79,224542,1,0,1:0:0:0:
262,79,224614,2,0,P|306:55|354:59,1,75.0000028610231,0|0,1:0|1:0,1:0:0:0:
432,192,224902,5,0,1:0:0:0:
421,215,224975,1,0,1:0:0:0:
410,239,225047,1,0,1:0:0:0:
399,263,225119,1,0,1:0:0:0:
364,276,225191,5,0,1:0:0:0:
353,299,225263,1,0,1:0:0:0:
342,323,225335,1,0,1:0:0:0:
334,345,225407,1,0,1:0:0:0:
322,370,225479,2,0,P|268:364|236:340,1,93.7500035762788,0|0,1:0|1:0,1:0:0:0:
168,168,225768,1,0,1:0:0:0:
487,177,226056,5,2,1:0:0:0:
386,296,226200,1,2,1:0:0:0:
282,139,226345,6,0,L|327:151,1,37.5000014305115,0|0,1:0|1:0,1:0:0:0:
219,218,226489,2,0,L|162:201,1,37.5000014305115,0|0,1:0|1:0,1:0:0:0:
149,105,226633,2,0,L|194:116,1,37.5000014305115,0|0,1:0|1:0,1:0:0:0:
277,64,226777,5,0,1:0:0:0:
277,64,226850,1,0,1:0:0:0:
277,64,226919,2,0,L|353:82,1,75.0000028610231,0|2,1:0|1:0,1:0:0:0:
423,178,227207,2,0,L|346:160,1,75.0000028610231,0|2,1:0|1:0,1:0:0:0:
240,211,227496,2,0,L|324:234,1,75.0000028610231,0|2,1:0|1:0,1:0:0:0:
160,144,227784,2,0,L|156:239,1,75.0000028610231,0|2,1:0|1:0,1:0:0:0:
74,319,228075,2,0,L|81:225,1,75.0000028610231,0|2,1:0|1:0,1:0:0:0:
161,346,228361,2,0,L|258:340,1,75.0000028610231,0|2,1:0|1:0,1:0:0:0:
397,285,228649,2,0,L|314:280,1,75.0000028610231,0|2,1:0|1:0,1:0:0:0:
199,236,228941,2,2,P|208:176|232:144,1,75.0000028610231,2|2,1:0|1:0,1:0:0:0:
385,114,229229,6,0,L|425:154,3,37.5000014305115,0|0|0|0,1:0|1:0|1:0|1:0,1:0:0:0:
355,216,229518,2,0,L|319:178,3,37.5000014305115,0|0|0|0,1:0|1:0|1:0|1:0,1:0:0:0:
265,242,229806,2,0,L|299:285,3,37.5000014305115,0|0|0|0,1:0|1:0|1:0|1:0,1:0:0:0:
176,248,230095,2,0,L|185:202,3,37.5000014305115,0|0|0|0,1:0|1:0|1:0|1:0,1:0:0:0:
184,185,230383,1,2,1:0:0:0:
184,170,230455,1,0,1:0:0:0:
186,155,230527,1,0,1:0:0:0:
190,140,230600,1,2,1:0:0:0:
196,127,230672,1,0,1:0:0:0:
205,114,230744,1,0,1:0:0:0:
216,104,230816,1,0,1:0:0:0:
229,97,230888,1,0,1:0:0:0:
243,97,230960,5,0,1:0:0:0:
250,121,231032,1,0,1:0:0:0:
266,142,231104,1,0,1:0:0:0:
288,156,231176,1,0,1:0:0:0:
314,162,231249,1,2,1:0:0:0:
340,159,231321,1,0,1:0:0:0:
363,147,231393,1,0,1:0:0:0:
381,128,231465,1,0,1:0:0:0:
391,103,231537,1,0,1:0:0:0:
87,155,232114,5,0,1:0:0:0:
88,169,232186,1,0,1:0:0:0:
90,184,232258,1,0,1:0:0:0:
92,199,232330,1,0,1:0:0:0:
94,214,232402,1,0,1:0:0:0:
96,229,232475,1,0,1:0:0:0:
98,244,232547,1,0,1:0:0:0:
100,259,232619,1,0,1:0:0:0:
102,273,232691,1,0,1:0:0:0:
109,297,232763,5,0,1:0:0:0:
122,320,232835,1,0,1:0:0:0:
139,340,232907,1,0,1:0:0:0:
160,356,232979,1,0,1:0:0:0:
184,368,233051,1,0,1:0:0:0:
209,374,233124,1,0,1:0:0:0:
235,376,233196,1,0,1:0:0:0:
259,368,233268,1,0,1:0:0:0:
260,330,233340,1,0,1:0:0:0:
250,295,233412,1,0,1:0:0:0:
243,264,233484,5,0,1:0:0:0:
274,242,233556,1,0,1:0:0:0:
305,221,233628,1,0,1:0:0:0:
335,199,233700,1,0,1:0:0:0:
366,177,233773,1,0,1:0:0:0:
387,164,233845,5,0,1:0:0:0:
387,178,233917,1,0,1:0:0:0:
387,193,233989,1,0,1:0:0:0:
388,208,234061,1,0,1:0:0:0:
388,223,234133,1,0,1:0:0:0:
389,238,234205,1,0,1:0:0:0:
389,253,234277,1,0,1:0:0:0:
390,268,234350,1,0,1:0:0:0:
390,285,234422,1,0,1:0:0:0:
374,305,234494,5,0,1:0:0:0:
354,322,234566,1,0,1:0:0:0:
330,334,234638,1,0,1:0:0:0:
305,340,234710,1,0,1:0:0:0:
279,340,234782,1,0,1:0:0:0:
253,334,234854,1,0,1:0:0:0:
230,322,234926,1,0,1:0:0:0:
210,306,234999,1,0,1:0:0:0:
194,285,235071,1,0,1:0:0:0:
183,261,235143,1,0,1:0:0:0:
182,236,235215,1,0,1:0:0:0:
193,200,235287,1,0,1:0:0:0:
219,174,235359,1,0,1:0:0:0:
255,164,235431,1,0,1:0:0:0:
291,171,235503,1,0,1:0:0:0:
320,196,235575,5,0,1:0:0:0:
326,241,235648,1,0,1:0:0:0:
314,285,235720,1,0,1:0:0:0:
288,324,235792,1,0,1:0:0:0:
244,337,235864,1,0,1:0:0:0:
193,332,235936,1,0,1:0:0:0:
152,303,236008,1,0,1:0:0:0:
135,257,236080,1,0,1:0:0:0:
143,211,236149,6,0,P|168:173|127:102,1,115.000002193451,0|0,1:0|1:0,1:0:0:0:
27,200,236438,1,0,1:0:0:0:
152,303,236582,1,0,1:0:0:0:
260,104,236726,2,0,L|144:112,1,115.000002193451,0|0,1:0|1:0,1:0:0:0:
280,197,237015,2,0,L|408:189,1,115.000002193451,0|0,1:0|1:0,1:0:0:0:
394,189,237303,1,0,1:0:0:0:
291,350,237447,1,0,1:0:0:0:
371,112,237589,1,0,1:0:0:0:
246,255,237736,1,0,1:0:0:0:
371,112,237880,5,0,1:0:0:0:
431,319,238024,1,0,1:0:0:0:
272,140,238169,5,0,1:0:0:0:
325,342,238313,1,0,1:0:0:0:
165,189,238457,6,0,P|215:251|259:256,1,115.000002193451,0|0,1:0|1:0,1:0:0:0:
374,205,238746,1,0,1:0:0:0:
199,91,238890,2,0,P|152:83|83:133,1,115.000002193451,0|0,1:0|1:0,1:0:0:0:
72,213,239178,1,0,1:0:0:0:
262,303,239322,1,0,1:0:0:0:
165,189,239467,1,0,1:0:0:0:
125,340,239611,2,0,L|4:332,1,115.000002193451,0|0,1:0|1:0,1:0:0:0:
165,189,239899,2,0,L|285:201,1,115.000002193451,0|0,1:0|1:0,1:0:0:0:
447,194,240188,1,0,1:0:0:0:
284,316,240332,5,0,1:0:0:0:
344,104,240476,1,0,1:0:0:0:
284,316,240621,1,0,1:0:0:0:
447,194,240762,6,0,B|447:254|447:254|422:315,1,115.000002193451,0|0,1:0|1:0,1:0:0:0:
357,384,241053,1,0,1:0:0:0:
352,111,241197,2,0,P|395:63|480:66,1,115.000002193451,0|0,1:0|1:0,1:0:0:0:
444,197,241486,2,0,P|421:264|367:297,1,115.000002193451
352,111,241774,1,0,1:0:0:0:
338,303,241919,2,0,L|216:284,1,115.000002193451,0|0,1:0|1:0,1:0:0:0:
135,85,242207,1,0,1:0:0:0:
112,288,242351,1,0,1:0:0:0:
235,76,242496,2,0,L|228:195,1,115.000002193451,0|0,1:0|1:0,1:0:0:0:
223,311,242784,5,0,1:0:0:0:
240,80,242928,1,0,1:0:0:0:
424,312,243072,6,0,L|416:184,1,115.000002193451,0|0,1:0|1:0,1:0:0:0:
415,82,243361,1,0,1:0:0:0:
320,262,243505,2,0,L|457:328,1,115.000002193451,0|0,1:0|1:0,1:0:0:0:
336,80,243794,1,0,1:0:0:0:
144,264,243938,2,0,L|260:323,1,115.000002193451,0|0,1:0|1:0,1:0:0:0:
251,79,244226,1,0,1:0:0:0:
379,278,244371,5,0,1:0:0:0:
379,278,244443,1,0,1:0:0:0:
379,278,244515,2,0,L|359:158,1,115.000002193451,0|0,1:0|1:0,1:0:0:0:
153,168,244803,1,0,1:0:0:0:
264,341,244947,5,0,1:0:0:0:
264,341,245020,1,0,1:0:0:0:
264,341,245092,2,0,L|234:209,1,115.000002193451,0|0,1:0|1:0,1:0:0:0:
32,143,245380,6,0,B|67:83|67:83|111:112,1,115.000002193451,0|0,1:0|1:0,1:0:0:0:
249,269,245669,1,0,1:0:0:0:
84,320,245813,1,0,1:0:0:0:
246,161,245957,2,0,P|311:177|348:222,1,115.000002193451,0|0,1:0|1:0,1:0:0:0:
84,320,246246,2,0,P|46:265|55:199,1,115.000002193451,0|0,1:0|1:0,1:0:0:0:
248,21,246534,1,0,1:0:0:0:
246,161,246678,1,0,1:0:0:0:
137,129,246822,2,0,P|93:68|98:23,1,115.000002193451,0|0,1:0|1:0,1:0:0:0:
347,148,247111,2,0,P|355:233|322:275,1,115.000002193451,0|0,1:0|1:0,1:0:0:0:
117,306,247399,1,0,1:0:0:0:
246,161,247544,1,0,1:0:0:0:
363,326,247688,6,0,L|239:330,1,115.000002193451,0|0,1:0|1:0,1:0:0:0:
92,171,247976,2,0,L|222:167,1,115.000002193451,0|0,1:0|1:0,1:0:0:0:
424,158,248265,1,0,1:0:0:0:
285,63,248409,1,0,1:0:0:0:
353,325,248553,1,0,1:0:0:0:
355,110,248697,1,0,1:0:0:0:
114,160,248842,2,0,P|134:235|179:256,1,115.000002193451,0|0,1:0|1:0,1:0:0:0:
355,110,249130,1,0,1:0:0:0:
176,56,249274,2,0,P|196:131|241:152,1,115.000002193451,0|0,1:0|1:0,1:0:0:0:
376,40,249563,1,0,1:0:0:0:
176,56,249707,1,0,1:0:0:0:
376,40,249851,1,0,1:0:0:0:
176,170,249996,6,0,P|93:182|58:133,1,115.000002193451,0|0,1:0|1:0,1:0:0:0:
176,56,250284,1,0,1:0:0:0:
178,280,250428,2,0,P|89:285|56:261,1,115.000002193451,0|0,1:0|1:0,1:0:0:0:
176,56,250717,1,0,1:0:0:0:
295,214,250861,2,0,L|288:336,1,115.000002193451,0|0,1:0|1:0,1:0:0:0:
157,176,251149,5,0,1:0:0:0:
157,176,251222,1,0,1:0:0:0:
157,176,251294,1,0,1:0:0:0:
157,176,251366,1,0,1:0:0:0:
157,176,251438,2,0,L|267:140,1,115.000002193451,0|0,1:0|1:0,1:0:0:0:
266,140,251654,1,0,1:0:0:0:
266,140,251726,1,0,1:0:0:0:
283,263,251871,1,0,1:0:0:0:
76,255,252015,2,0,P|43:185|58:132,1,115.000002193451,0|0,1:0|1:0,1:0:0:0:
65,131,252231,1,0,1:0:0:0:
65,131,252303,1,0,1:0:0:0:
283,263,252447,5,0,1:0:0:0:
212,108,252592,1,0,1:0:0:0:
156,268,252736,1,0,1:0:0:0:
353,160,252880,5,0,1:0:0:0:
284,32,253024,1,0,1:0:0:0:
288,280,253169,5,0,1:0:0:0:
404,277,253313,1,0,1:0:0:0:
227,169,253457,2,0,P|171:228|180:312,1,115.000002193451,0|0,1:0|1:0,1:0:0:0:
174,287,253673,1,0,1:0:0:0:
174,287,253746,1,0,1:0:0:0:
360,190,253890,5,0,1:0:0:0:
360,190,253962,1,0,1:0:0:0:
360,190,254034,1,0,1:0:0:0:
183,82,254178,1,0,1:0:0:0:
160,87,254250,1,0,1:0:0:0:
139,96,254322,1,0,1:0:0:0:
121,110,254395,1,0,1:0:0:0:
105,127,254467,1,0,1:0:0:0:
93,146,254539,1,0,1:0:0:0:
86,168,254611,6,0,P|114:238|156:265,1,100,0|0,1:0|1:0,1:0:0:0:
157,266,254827,1,0,1:0:0:0:
157,266,254899,1,0,1:0:0:0:
242,164,255044,1,0,1:0:0:0:
99,68,255188,2,0,L|85:174,1,100,0|0,1:0|1:0,1:0:0:0:
244,237,255476,1,0,1:0:0:0:
336,131,255621,1,0,1:0:0:0:
173,152,255765,2,0,P|133:238|142:275,1,100,0|0,1:0|1:0,1:0:0:0:
312,222,256053,2,0,P|352:308|343:345,1,100,0|0,1:0|1:0,1:0:0:0:
124,333,256342,2,0,P|118:268|147:224,1,100,0|0,1:0|1:0,1:0:0:0:
165,216,256558,5,0,1:0:0:0:
165,216,256630,1,0,1:0:0:0:
350,308,256774,1,0,1:0:0:0:
343,107,256919,2,0,P|304:56|265:50,1,100,0|0,1:0|1:0,1:0:0:0:
156,65,257207,1,0,1:0:0:0:
239,189,257351,1,0,1:0:0:0:
334,108,257496,1,0,1:0:0:0:
139,64,257640,1,0,1:0:0:0:
324,106,257784,1,0,1:0:0:0:
136,82,257928,1,0,1:0:0:0:
334,111,258072,6,0,P|392:148|411:201,1,100,0|0,1:0|1:0,1:0:0:0:
218,247,258361,2,0,P|277:321|275:353,1,100,0|0,1:0|1:0,1:0:0:0:
89,252,258649,1,0,1:0:0:0:
88,232,258722,1,0,1:0:0:0:
88,212,258794,1,0,1:0:0:0:
88,192,258866,1,0,1:0:0:0:
114,175,258938,5,0,1:0:0:0:
113,155,259010,1,0,1:0:0:0:
113,135,259082,1,0,1:0:0:0:
113,115,259154,1,0,1:0:0:0:
113,95,259226,2,0,P|180:100|222:148,1,100,0|0,1:0|1:0,1:0:0:0:
272,210,259515,1,0,1:0:0:0:
128,312,259659,1,0,1:0:0:0:
192,208,259803,1,0,1:0:0:0:
256,320,259947,1,0,1:0:0:0:
404,196,260092,2,0,L|405:93,1,100,0|0,1:0|1:0,1:0:0:0:
272,210,260380,6,0,P|304:257|362:282,1,100,0|0,1:0|1:0,1:0:0:0:
404,196,260669,1,0,1:0:0:0:
404,96,260813,2,0,P|314:80|282:100,1,100,0|0,1:0|1:0,1:0:0:0:
403,265,261101,1,0,1:0:0:0:
306,80,261246,5,0,1:0:0:0:
284,52,261318,1,0,1:0:0:0:
256,31,261390,1,0,1:0:0:0:
223,19,261462,1,0,1:0:0:0:
189,18,261534,2,0,L|197:126,1,100,0|0,1:0|1:0,1:0:0:0:
56,147,261822,1,0,1:0:0:0:
255,175,261967,2,0,L|248:288,1,100,0|0,1:0|1:0,1:0:0:0:
56,147,262255,1,0,1:0:0:0:
248,280,262399,2,0,P|216:336|176:352,1,100,0|0,1:0|1:0,1:0:0:0:
56,147,262688,5,0,1:0:0:0:
189,75,262832,1,0,1:0:0:0:
132,266,262976,1,0,1:0:0:0:
34,90,263121,1,0,1:0:0:0:
216,171,263265,5,0,1:0:0:0:
215,190,263337,1,0,1:0:0:0:
215,210,263409,1,0,1:0:0:0:
215,230,263481,1,0,1:0:0:0:
241,248,263553,5,0,1:0:0:0:
241,268,263625,1,0,1:0:0:0:
240,288,263697,1,0,1:0:0:0:
240,308,263770,1,0,1:0:0:0:
240,324,263842,6,0,L|128:320,2,100,0|0|0,1:0|1:0|1:0,1:0:0:0:
369,269,264274,1,0,1:0:0:0:
244,171,264419,2,0,P|177:184|132:235,1,100,0|0,1:0|1:0,1:0:0:0:
369,269,264707,1,0,1:0:0:0:
244,171,264851,1,0,1:0:0:0:
242,372,264996,2,0,L|299:266,1,100,0|0,1:0|1:0,1:0:0:0:
107,200,265284,2,0,L|162:100,1,100,0|0,1:0|1:0,1:0:0:0:
348,60,265572,1,0,1:0:0:0:
424,172,265717,1,0,1:0:0:0:
340,288,265861,2,0,B|295:306|295:306|251:277,1,100,0|0,1:0|1:0,1:0:0:0:
236,248,266077,1,0,1:0:0:0:
232,216,266149,6,0,P|302:186|335:196,1,100,0|0,1:0|1:0,1:0:0:0:
145,245,266438,2,0,P|137:189|173:145,1,100,0|0,1:0|1:0,1:0:0:0:
183,131,266654,1,0,1:0:0:0:
209,109,266726,1,0,1:0:0:0:
237,89,266798,1,0,1:0:0:0:
266,69,266871,1,0,1:0:0:0:
295,49,266943,1,0,1:0:0:0:
327,30,267015,2,0,L|406:104,1,100,0|0,1:0|1:0,1:0:0:0:
420,119,267231,1,0,1:0:0:0:
420,119,267303,1,0,1:0:0:0:
351,246,267447,1,0,1:0:0:0:
209,109,267592,2,0,L|213:7,1,100,0|0,1:0|1:0,1:0:0:0:
420,119,267880,5,0,1:0:0:0:
430,152,267952,1,0,1:0:0:0:
428,187,268024,1,0,1:0:0:0:
415,219,268097,1,0,1:0:0:0:
389,245,268169,1,0,1:0:0:0:
358,205,268241,1,0,1:0:0:0:
315,180,268313,1,0,1:0:0:0:
266,173,268385,1,0,1:0:0:0:
218,187,268457,6,0,P|178:238|232:315,1,150,0|0,1:0|1:0,1:0:0:0:
312,311,268746,1,0,1:0:0:0:
315,111,268890,1,0,1:0:0:0:
512,214,269034,2,0,L|404:220,1,100,0|0,1:0|1:0,1:0:0:0:
206,222,269322,1,0,1:0:0:0:
382,60,269467,1,0,1:0:0:0:
382,60,269539,1,0,1:0:0:0:
382,60,269611,1,0,1:0:0:0:
364,272,269755,5,0,1:0:0:0:
364,272,269827,1,0,1:0:0:0:
364,272,269899,1,0,1:0:0:0:
133,197,270044,1,0,1:0:0:0:
405,161,270188,2,0,P|465:197|474:232,1,100,0|0,1:0|1:0,1:0:0:0:
256,178,270476,2,0,P|261:109|297:76,1,100,0|0,1:0|1:0,1:0:0:0:
267,315,270765,6,0,B|166:351|166:271|44:304,1,200,0|0,1:0|1:0,1:0:0:0:
72,297,271197,1,0,1:0:0:0:
287,94,271486,1,0,1:0:0:0:
75,118,271774,1,0,1:0:0:0:
330,262,272063,1,0,1:0:0:0:
330,262,272207,1,0,1:0:0:0:
163,67,272496,5,0,1:0:0:0:
129,75,272568,1,0,1:0:0:0:
99,93,272640,1,0,1:0:0:0:
75,118,272712,1,0,1:0:0:0:
60,150,272784,1,0,1:0:0:0:
54,184,272856,1,0,1:0:0:0:
59,219,272928,1,0,1:0:0:0:
73,250,273000,1,0,1:0:0:0:
100,274,273072,6,0,P|172:292|216:278,1,100,0|0,1:0|1:0,1:0:0:0:
386,111,273505,6,0,L|272:120,1,100,0|0,1:0|1:0,1:0:0:0:
180,203,273938,2,0,L|184:312,1,100,0|0,1:0|1:0,1:0:0:0:
335,239,274371,1,0,1:0:0:0:
335,239,274515,1,0,1:0:0:0:
83,74,275380,6,0,L|89:215,1,100,0|0,1:0|1:0,1:0:0:0:
97,51,275813,2,0,L|103:192,1,100,0|0,1:0|1:0,1:0:0:0:
189,163,276101,1,0,1:0:0:0:
284,52,276246,2,0,L|279:152,1,100,0|0,1:0|1:0,1:0:0:0:
40,340,276678,1,0,1:0:0:0:
159,344,276822,1,0,1:0:0:0:
159,344,276967,1,0,1:0:0:0:
41,201,277111,2,0,L|48:80,1,100,0|0,1:0|1:0,1:0:0:0:
189,104,277399,1,0,1:0:0:0:
46,101,277544,1,0,1:0:0:0:
195,227,277688,6,0,P|278:248|326:225,1,100,0|0,1:0|1:0,1:0:0:0:
372,94,277976,1,0,1:0:0:0:
374,224,278121,1,0,1:0:0:0:
189,104,278409,1,0,1:0:0:0:
190,333,278697,1,0,1:0:0:0:
471,85,278986,5,0,1:0:0:0:
471,85,279130,2,0,L|358:95,1,100,0|0,1:0|1:0,1:0:0:0:
342,97,279347,1,0,1:0:0:0:
342,97,279419,1,0,1:0:0:0:
296,269,279563,1,0,1:0:0:0:
435,256,279707,2,0,P|483:202|475:142,1,100,0|0,1:0|1:0,1:0:0:0:
182,105,279996,5,0,1:0:0:0:
300,204,280140,1,0,1:0:0:0:
182,105,280284,2,0,L|290:92,1,100,0|0,1:0|1:0,1:0:0:0:
423,191,280717,1,0,1:0:0:0:
427,267,280861,2,0,P|387:315|344:330,1,100,0|0,1:0|1:0,1:0:0:0:
325,329,281077,1,0,1:0:0:0:
305,329,281149,1,0,1:0:0:0:
285,325,281222,1,0,1:0:0:0:
266,318,281294,1,0,1:0:0:0:
250,307,281366,1,0,1:0:0:0:
239,292,281438,2,0,L|326:205,1,100,0|0,1:0|1:0,1:0:0:0:
187,70,281726,6,0,B|144:104|144:104|186:146|186:146|136:146|107:200|141:215|192:235|121:317|34:295|26:246|35:179,1,400,0|0,1:0|1:0,1:0:0:0:
35,173,282375,1,0,1:0:0:0:
35,173,282447,1,0,1:0:0:0:
236,173,282592,2,0,L|336:172,1,100,0|0,1:0|1:0,1:0:0:0:
368,172,282808,1,0,1:0:0:0:
368,172,282880,1,0,1:0:0:0:
232,308,283024,1,0,1:0:0:0:
232,308,283097,1,0,1:0:0:0:
232,308,283169,1,0,1:0:0:0:
228,132,283313,1,0,1:0:0:0:
368,172,283457,6,0,P|397:250|381:279,1,100,0|0,1:0|1:0,1:0:0:0:
232,308,283746,1,0,1:0:0:0:
228,132,283890,1,0,1:0:0:0:
356,331,284034,1,0,1:0:0:0:
152,240,284178,1,0,1:0:0:0:
356,240,284322,2,0,P|372:186|355:137,1,100,0|0,1:0|1:0,1:0:0:0:
152,133,284611,5,0,1:0:0:0:
152,167,284683,1,0,1:0:0:0:
152,203,284755,1,0,1:0:0:0:
286,328,284899,6,0,L|413:323,1,100,0|0,1:0|1:0,1:0:0:0:
413,324,285116,1,0,1:0:0:0:
413,324,285188,1,0,1:0:0:0:
288,194,285332,1,0,1:0:0:0:
288,194,285404,1,0,1:0:0:0:
288,194,285476,2,0,L|290:61,1,100,0|0,1:0|1:0,1:0:0:0:
116,200,285765,1,0,1:0:0:0:
289,194,285909,1,0,1:0:0:0:
124,280,286053,1,0,1:0:0:0:
288,276,286197,1,0,1:0:0:0:
206,139,286342,6,0,L|210:32,1,100,0|0,1:0|1:0,1:0:0:0:
116,200,286630,2,0,L|120:93,1,100,0|0,1:0|1:0,1:0:0:0:
329,296,286919,6,0,L|388:264,3,50,0|0|0|0,1:0|1:0|1:0|1:0,1:0:0:0:
301,182,287207,2,0,L|358:176,3,50,0|0|0|0,1:0|1:0|1:0|1:0,1:0:0:0:
348,60,287496,2,0,L|412:100,3,50,0|0|0|0,1:0|1:0|1:0|1:0,1:0:0:0:
404,101,287784,5,0,1:0:0:0:
404,121,287856,1,0,1:0:0:0:
404,141,287928,1,0,1:0:0:0:
404,161,288000,1,0,1:0:0:0:
400,180,288072,6,0,L|356:203,3,50,0|0|0|0,1:0|1:0|1:0|1:0,1:0:0:0:
248,253,288361,2,0,L|291:229,3,50,0|0|0|0,1:0|1:0|1:0|1:0,1:0:0:0:
294,137,288649,2,0,L|249:159,3,50,0|0|0|0,1:0|1:0|1:0|1:0,1:0:0:0:
152,140,288938,2,0,L|84:124,3,50,0|0|0|0,1:0|1:0|1:0|1:0,1:0:0:0:
70,157,289226,5,0,1:0:0:0:
62,191,289298,1,0,1:0:0:0:
65,225,289371,1,0,1:0:0:0:
78,258,289443,1,0,1:0:0:0:
101,286,289515,2,0,L|161:279,3,50,0|0|0|0,1:0|1:0|1:0|1:0,1:0:0:0:
195,202,289803,2,0,L|128:204,3,50,0|0|0|0,1:0|1:0|1:0|1:0,1:0:0:0:
224,272,290092,5,0,1:0:0:0:
271,260,290164,1,0,1:0:0:0:
301,221,290236,1,0,1:0:0:0:
300,173,290308,1,0,1:0:0:0:
270,135,290380,1,0,1:0:0:0:
134,99,291534,5,0,1:0:0:0:
140,115,292111,1,0,1:0:0:0:
153,139,292688,1,0,1:0:0:0:
168,165,293265,1,0,1:0:0:0:
417,58,293697,5,0,1:0:0:0:
417,58,293842,1,0,1:0:0:0:
297,148,294419,2,0,P|339:191|372:194,1,75.0000028610231,0|0,1:0|1:0,1:0:0:0:
367,97,294707,2,0,P|327:61|273:64,1,75.0000028610231,0|0,1:0|1:0,1:0:0:0:
227,114,294996,6,0,L|228:201,1,75.0000028610231,0|0,1:0|1:0,1:0:0:0:
134,217,295284,2,0,L|133:306,1,75.0000028610231,0|0,1:0|1:0,1:0:0:0:
230,286,295572,2,0,P|299:258|309:166,1,150.000005722046,0|0,1:0|1:0,1:0:0:0:
143,100,296149,6,0,L|238:99,1,75.0000028610231,0|0,1:0|1:0,1:0:0:0:
221,249,296438,2,0,L|290:208,1,75.0000028610231,0|0,1:0|1:0,1:0:0:0:
136,198,296726,2,0,L|80:275,1,75.0000028610231,0|0,1:0|1:0,1:0:0:0:
214,346,297015,2,0,L|214:244,1,75.0000028610231,0|0,1:0|1:0,1:0:0:0:
213,121,297303,2,0,L|119:122,1,75.0000028610231,0|0,1:0|1:0,1:0:0:0:
260,209,297592,2,0,L|344:203,1,75.0000028610231,0|0,1:0|1:0,1:0:0:0:
384,62,297880,2,0,L|387:170,1,75.0000028610231,0|0,1:0|1:0,1:0:0:0:
391,287,298169,2,0,L|389:203,1,75.0000028610231,0|0,1:0|1:0,1:0:0:0:
241,189,298457,6,0,L|242:133,3,37.5000014305115,0|0|0|0,1:0|1:0|1:0|1:0,1:0:0:0:
177,191,298746,2,0,L|178:135,3,37.5000014305115,0|0|0|0,1:0|1:0|1:0|1:0,1:0:0:0:
113,191,299034,2,0,L|114:135,3,37.5000014305115,0|0|0|0,1:0|1:0|1:0|1:0,1:0:0:0:
164,98,299322,2,0,L|219:96,3,37.5000014305115,0|0|0|0,1:0|1:0|1:0|1:0,1:0:0:0:
239,100,299611,1,0,1:0:0:0:
275,107,299683,1,0,1:0:0:0:
302,132,299755,1,0,1:0:0:0:
313,168,299827,1,0,1:0:0:0:
305,204,299899,1,0,1:0:0:0:
280,231,299972,1,0,1:0:0:0:
244,242,300044,1,0,1:0:0:0:
208,233,300116,1,0,1:0:0:0:
185,204,300188,5,0,1:0:0:0:
162,161,300260,1,0,1:0:0:0:
119,140,300332,1,0,1:0:0:0:
72,148,300404,1,0,1:0:0:0:
39,183,300476,1,0,1:0:0:0:
32,230,300548,1,0,1:0:0:0:
55,272,300621,1,0,1:0:0:0:
97,296,300693,1,0,1:0:0:0:
142,284,300765,1,0,1:0:0:0:
401,69,309999,6,0,P|404:131|384:161,1,75.0000028610231,0|0,1:0|1:0,1:0:0:0:
328,183,310287,5,0,1:0:0:0:
252,151,310431,1,0,1:0:0:0:
401,69,310575,6,0,P|449:74|478:97,1,75.0000028610231,0|0,1:0|1:0,1:0:0:0:
406,208,310864,1,0,1:0:0:0:
334,248,311008,1,0,1:0:0:0:
257,146,311152,1,0,1:0:0:0:
257,63,311297,1,0,1:0:0:0:
334,248,311441,2,0,L|337:325,1,75.0000028610231,0|0,1:0|1:0,1:0:0:0:
183,240,311729,2,0,L|178:147,1,75.0000028610231,0|0,1:0|1:0,1:0:0:0:
334,248,312018,2,0,L|418:241,1,75.0000028610231,0|0,1:0|1:0,1:0:0:0:
421,157,312306,5,0,1:0:0:0:
356,105,312450,1,0,1:0:0:0:
358,248,312595,2,0,L|283:322,1,75.0000028610231,0|0,1:0|1:0,1:0:0:0:
248,240,312883,2,0,L|187:299,1,75.0000028610231,0|0,1:0|1:0,1:0:0:0:
130,238,313172,1,0,1:0:0:0:
191,138,313316,1,0,1:0:0:0:
246,235,313460,1,0,1:0:0:0:
100,217,313604,1,0,1:0:0:0:
222,124,313749,1,0,1:0:0:0:
243,268,313893,1,0,1:0:0:0:
102,187,314037,2,0,L|105:94,1,75.0000028610231,0|0,1:0|1:0,1:0:0:0:
254,158,314325,2,0,L|255:256,1,75.0000028610231,0|0,1:0|1:0,1:0:0:0:
428,78,314614,5,0,1:0:0:0:
308,78,314758,1,0,1:0:0:0:
379,209,314902,2,0,P|326:250|285:249,1,75.0000028610231,0|0,1:0|1:0,1:0:0:0:
171,223,315191,2,0,P|216:190|257:183,1,75.0000028610231,0|0,1:0|1:0,1:0:0:0:
177,323,315479,2,0,L|102:279,1,75.0000028610231,0|0,1:0|1:0,1:0:0:0:
94,135,315768,2,0,L|184:192,1,75.0000028610231,0|0,1:0|1:0,1:0:0:0:
288,257,316056,1,0,1:0:0:0:
146,306,316200,1,0,1:0:0:0:
143,95,316345,1,0,1:0:0:0:
287,257,316489,1,0,1:0:0:0:
69,253,316633,1,0,1:0:0:0:
256,160,316777,1,0,1:0:0:0:
66,339,316922,6,0,L|67:247,1,75.0000028610231,0|0,1:0|1:0,1:0:0:0:
154,65,317210,2,0,L|151:157,1,75.0000028610231,0|0,1:0|1:0,1:0:0:0:
263,327,317499,2,0,L|265:232,1,75.0000028610231,0|0,1:0|1:0,1:0:0:0:
389,74,317787,2,0,L|385:158,1,75.0000028610231,0|0,1:0|1:0,1:0:0:0:
358,328,318075,5,0,1:0:0:0:
189,285,318220,1,0,1:0:0:0:
374,252,318364,1,0,1:0:0:0:
205,209,318508,1,0,1:0:0:0:
388,179,318652,1,0,1:0:0:0:
219,137,318797,1,0,1:0:0:0:
400,104,318941,1,0,1:0:0:0:
238,66,319085,1,0,1:0:0:0:
283,255,319229,6,0,P|244:305|208:317,1,75.0000028610231
73,298,319518,2,0,P|112:255|142:246,1,75.0000028610231
257,191,319806,1,0,0:0:0:0:
94,155,319950,1,0,0:0:0:0:
255,117,320095,2,0,L|258:192,1,75.0000028610231,0|0,1:0|1:0,1:0:0:0:
167,319,320383,2,0,P|212:360|255:363,1,75.0000028610231,0|0,1:0|1:0,1:0:0:0:
315,236,320679,2,0,P|270:195|227:192,1,75.0000028610231,0|0,1:0|1:0,1:0:0:0:
352,352,320960,2,0,P|403:319|424:280,1,75.0000028610231,0|0,1:0|1:0,1:0:0:0:
445,143,321249,1,0,1:0:0:0:
315,236,321393,1,0,1:0:0:0:
504,352,321537,6,0,L|490:266,1,75.0000028610231,0|0,1:0|1:0,1:0:0:0:
375,126,321825,2,0,L|385:204,1,75.0000028610231
479,357,322114,2,0,L|468:269,1,75.0000028610231,0|0,1:0|1:0,1:0:0:0:
375,126,322402,1,0,0:0:0:0:
349,264,322547,1,0,0:0:0:0:
176,188,322691,2,0,L|283:195,1,75.0000028610231,0|0,1:0|1:0,1:0:0:0:
115,298,322979,2,0,P|68:263|67:230,1,75.0000028610231,0|0,1:0|1:0,1:0:0:0:
215,124,323268,1,0,1:0:0:0:
295,289,323412,1,0,1:0:0:0:
215,124,323556,1,0,1:0:0:0:
295,289,323700,1,0,1:0:0:0:
83,188,323845,6,0,L|95:119,15,37.5000014305115,0|0|0|0|0|0|0|0|0|0|0|0|0|0|0|0,1:0|1:0|1:0|1:0|1:0|1:0|1:0|1:0|1:0|1:0|1:0|1:0|1:0|1:0|1:0|1:0,1:0:0:0:
208,164,324999,2,0,L|181:209,7,37.5000014305115,0|0|0|0|0|0|0|0,1:0|1:0|1:0|1:0|1:0|1:0|1:0|1:0,1:0:0:0:
231,67,325575,2,0,L|281:63,7,37.5000014305115,0|0|0|0|0|0|0|0,1:0|1:0|1:0|1:0|1:0|1:0|1:0|1:0,1:0:0:0:
380,99,326152,1,0,1:0:0:0:
409,122,326225,1,0,1:0:0:0:
425,155,326297,1,0,1:0:0:0:
425,192,326369,1,0,1:0:0:0:
409,226,326441,1,0,1:0:0:0:
380,249,326513,1,0,1:0:0:0:
344,258,326585,1,0,1:0:0:0:
308,250,326657,5,0,1:0:0:0:
274,232,326729,1,0,1:0:0:0:
242,213,326801,1,0,1:0:0:0:
222,181,326874,1,0,1:0:0:0:
219,144,326946,1,0,1:0:0:0:
226,103,327018,1,0,1:0:0:0:
208,58,327090,1,0,1:0:0:0:
168,31,327162,1,0,1:0:0:0:
120,30,327234,1,0,1:0:0:0:
81,60,327306,1,0,1:0:0:0:
411,292,328172,5,0,1:0:0:0:
162,163,328460,6,0,L|234:84,1,100,0|0,1:0|1:0,1:0:0:0:
214,264,328749,2,0,P|129:276|101:248,1,100,0|0,1:0|1:0,1:0:0:0:
61,178,329037,1,0,1:0:0:0:
149,83,329181,1,0,1:0:0:0:
121,271,329325,1,0,1:0:0:0:
152,56,329470,1,0,1:0:0:0:
48,248,329614,1,0,1:0:0:0:
248,184,329758,1,0,1:0:0:0:
68,104,329902,2,0,P|88:161|144:187,1,100,0|0,1:0|1:0,1:0:0:0:
242,101,330191,2,0,L|351:95,1,100,0|0,1:0|1:0,1:0:0:0:
345,269,330479,1,0,1:0:0:0:
466,117,330624,5,0,1:0:0:0:
466,117,330696,1,0,1:0:0:0:
466,117,330768,2,0,L|465:220,1,100,0|0,1:0|1:0,1:0:0:0:
462,333,331056,1,0,1:0:0:0:
270,229,331200,1,0,1:0:0:0:
390,158,331345,1,0,1:0:0:0:
344,326,331489,1,0,1:0:0:0:
333,101,331633,6,0,L|191:92,1,100,0|0,1:0|1:0,1:0:0:0:
97,143,331922,1,0,0:0:0:0:
207,252,332066,1,0,0:0:0:0:
233,94,332210,1,0,0:0:0:0:
79,175,332354,1,0,0:0:0:0:
237,238,332498,1,0,0:0:0:0:
196,66,332642,1,0,0:0:0:0:
76,208,332787,1,0,2:0:0:0:
261,210,332931,1,0,2:0:0:0:
121,29,333075,6,0,P|113:85|122:149,1,100
226,300,333364,2,0,P|259:242|255:176,1,100
238,80,333652,1,0,0:0:0:0:
87,146,333797,1,0,0:0:0:0:
261,209,333941,2,0,P|254:273|212:310,1,100,0|0,1:0|1:0,1:0:0:0:
152,106,334229,2,0,P|220:70|268:81,1,100,0|0,1:0|1:0,1:0:0:0:
121,336,334518,2,0,P|54:294|36:242,1,100,0|0,1:0|1:0,1:0:0:0:
207,162,334806,1,0,1:0:0:0:
208,344,334950,1,0,1:0:0:0:
208,132,335092,1,0,1:0:0:0:
288,320,335239,1,0,1:0:0:0:
76,116,335383,6,0,L|80:224,1,100,0|0,1:0|1:0,1:0:0:0:
192,336,335672,2,0,L|188:226,1,100,0|0,1:0|1:0,1:0:0:0:
184,44,335960,2,0,L|312:48,1,100,0|0,1:0|1:0,1:0:0:0:
436,152,336249,2,0,L|304:160,1,100,0|0,1:0|1:0,1:0:0:0:
304,160,336465,1,0,1:0:0:0:
304,160,336537,1,0,1:0:0:0:
368,304,336681,1,0,1:0:0:0:
368,304,336753,1,0,1:0:0:0:
368,304,336825,2,0,L|448:221,1,100,0|0,1:0|1:0,1:0:0:0:
334,72,337114,5,0,1:0:0:0:
305,52,337186,1,0,1:0:0:0:
271,42,337258,1,0,1:0:0:0:
236,42,337330,1,0,1:0:0:0:
202,55,337402,2,0,P|170:111|164:164,1,100,0|0,1:0|1:0,1:0:0:0:
395,311,337691,6,0,L|388:206,1,100,0|0,1:0|1:0,1:0:0:0:
175,144,337979,2,0,L|181:255,1,100,0|0,1:0|1:0,1:0:0:0:
386,209,338268,1,0,1:0:0:0:
308,140,338412,1,0,1:0:0:0:
312,320,338556,6,0,P|382:359|423:352,1,100,0|0,1:0|1:0,1:0:0:0:
236,180,338845,2,0,P|188:192|145:253,1,100,0|0,1:0|1:0,1:0:0:0:
384,276,339133,1,0,1:0:0:0:
304,112,339277,1,0,1:0:0:0:
228,272,339422,1,0,1:0:0:0:
388,144,339566,1,0,1:0:0:0:
184,192,339710,2,0,P|141:248|146:308,1,100,0|0,1:0|1:0,1:0:0:0:
207,84,339999,6,0,B|155:97|155:97|95:81,1,100,0|0,1:0|1:0,1:0:0:0:
54,267,340287,1,0,1:0:0:0:
111,86,340431,1,0,1:0:0:0:
78,272,340575,2,0,L|184:283,1,100,0|0,1:0|1:0,1:0:0:0:
207,192,340864,2,0,L|101:177,1,100,0|0,1:0|1:0,1:0:0:0:
364,96,341152,5,0,1:0:0:0:
332,232,341297,1,0,1:0:0:0:
292,36,341441,1,0,1:0:0:0:
240,168,341585,1,0,1:0:0:0:
424,176,341729,6,0,P|448:236|428:288,1,100,0|0,1:0|1:0,1:0:0:0:
100,180,342018,2,0,P|67:249|84:297,1,100,0|0,1:0|1:0,1:0:0:0:
259,261,342306,6,0,B|298:218|298:218|296:168,1,100,0|0,1:0|1:0,1:0:0:0:
115,100,342595,2,0,L|216:103,1,100,0|0,1:0|1:0,1:0:0:0:
114,263,342883,2,0,B|108:325|108:325|158:342,1,100,0|0,1:0|1:0,1:0:0:0:
307,241,343172,2,0,L|307:129,2,100,0|0|0,1:0|1:0|1:0,1:0:0:0:
304,51,343604,1,0,1:0:0:0:
442,183,343749,1,0,1:0:0:0:
442,183,343893,1,0,1:0:0:0:
248,184,344037,2,0,P|236:130|265:76,1,100,0|0,1:0|1:0,1:0:0:0:
375,260,344325,2,0,P|339:319|296:327,1,100,0|0,1:0|1:0,1:0:0:0:
442,183,344614,5,0,1:0:0:0:
304,184,344758,1,0,1:0:0:0:
376,344,344902,1,0,1:0:0:0:
442,183,345047,1,0,1:0:0:0:
188,188,345191,5,0,1:0:0:0:
312,276,345335,1,0,1:0:0:0:
304,56,345479,1,0,1:0:0:0:
192,264,345624,1,0,1:0:0:0:
359,157,345768,6,0,L|406:113,3,50,0|0|0|0,1:0|1:0|1:0|1:0,1:0:0:0:
426,228,346056,2,0,L|376:274,3,50,0|0|0|0,1:0|1:0|1:0|1:0,1:0:0:0:
278,252,346345,1,0,1:0:0:0:
240,219,346417,1,0,1:0:0:0:
221,173,346489,1,0,1:0:0:0:
223,123,346561,1,0,1:0:0:0:
246,79,346633,1,0,1:0:0:0:
285,49,346705,1,0,1:0:0:0:
334,39,346777,1,0,1:0:0:0:
382,51,346850,1,0,1:0:0:0:
410,86,346922,6,0,B|444:132|439:153|439:153|370:165,1,100,0|0,1:0|1:0,1:0:0:0:
195,182,347210,1,0,1:0:0:0:
291,277,347354,1,0,1:0:0:0:
275,56,347499,1,0,1:0:0:0:
292,296,347643,1,0,1:0:0:0:
272,36,347787,2,0,P|209:22|154:57,1,100,0|0,1:0|1:0,1:0:0:0:
72,176,348075,2,0,P|129:199|191:175,1,100,0|0,1:0|1:0,1:0:0:0:
384,149,348364,2,0,P|408:214|391:265,1,100,0|0,1:0|1:0,1:0:0:0:
203,334,348652,2,0,P|201:250|216:225,1,100,0|0,1:0|1:0,1:0:0:0:
384,149,348941,1,0,1:0:0:0:
357,339,349085,1,0,1:0:0:0:
188,93,349229,6,0,L|81:132,1,100,0|0,1:0|1:0,1:0:0:0:
311,167,349518,2,0,L|316:276,1,100,0|0,1:0|1:0,1:0:0:0:
136,170,349806,6,0,L|29:209,1,100,0|0,1:0|1:0,1:0:0:0:
259,244,350095,2,0,L|264:353,1,100,0|0,1:0|1:0,1:0:0:0:
404,188,350383,1,0,1:0:0:0:
208,116,350527,1,0,1:0:0:0:
260,244,350672,1,0,1:0:0:0:
344,52,350816,1,0,1:0:0:0:
352,288,350960,1,0,1:0:0:0:
187,116,351104,1,0,1:0:0:0:
352,288,351249,1,0,1:0:0:0:
345,113,351393,1,0,1:0:0:0:
214,311,351537,6,0,P|150:308|111:267,1,100,0|0,1:0|1:0,1:0:0:0:
68,74,351825,1,0,1:0:0:0:
186,57,351970,1,0,1:0:0:0:
207,181,352114,1,0,1:0:0:0:
89,198,352258,1,0,1:0:0:0:
282,97,352402,6,0,P|321:151|304:211,1,100,0|0,1:0|1:0,1:0:0:0:
164,339,352691,1,0,1:0:0:0:
167,214,352835,1,0,1:0:0:0:
292,217,352979,1,0,1:0:0:0:
295,342,353124,1,0,1:0:0:0:
93,217,353268,2,0,P|129:274|178:285,1,100,0|0,1:0|1:0,1:0:0:0:
288,117,353556,2,0,L|292:223,1,100,0|0,1:0|1:0,1:0:0:0:
296,312,353845,5,0,1:0:0:0:
440,192,353989,1,0,1:0:0:0:
288,117,354133,1,0,1:0:0:0:
388,304,354277,1,0,1:0:0:0:
464,120,354422,1,0,1:0:0:0:
288,40,354566,1,0,1:0:0:0:
288,216,354710,1,0,1:0:0:0:
449,50,354854,5,0,1:0:0:0:
449,50,354926,1,0,1:0:0:0:
449,50,354999,1,0,1:0:0:0:
261,125,355143,5,0,1:0:0:0:
259,124,355215,1,0,1:0:0:0:
259,124,355287,1,0,1:0:0:0:
422,222,355431,1,0,1:0:0:0:
213,285,355575,2,0,B|141:282|141:282|159:248|159:248|107:262|107:262|91:229,1,200,0|0,1:0|1:0,1:0:0:0:
62,128,356008,1,0,1:0:0:0:
213,285,356152,6,0,P|276:304|324:288,1,100,0|0,1:0|1:0,1:0:0:0:
288,152,356441,2,0,P|270:98|224:56,1,100,0|0,1:0|1:0,1:0:0:0:
232,259,356729,2,0,P|282:286|344:285,1,100,0|0,1:0|1:0,1:0:0:0:
220,56,357018,1,0,1:0:0:0:
152,160,357162,1,0,1:0:0:0:
288,160,357306,1,0,1:0:0:0:
220,56,357450,1,0,1:0:0:0:
204,304,357595,6,0,P|124:276|100:236,1,100,0|0,1:0|1:0,1:0:0:0:
240,114,357883,2,0,L|246:11,1,100,0|0,1:0|1:0,1:0:0:0:
352,96,358172,1,0,1:0:0:0:
177,192,358316,5,0,1:0:0:0:
177,192,358388,1,0,1:0:0:0:
177,192,358460,2,0,L|241:281,1,100,0|0,1:0|1:0,1:0:0:0:
368,192,358749,1,0,1:0:0:0:
235,273,358893,1,0,1:0:0:0:
176,87,359037,6,0,P|100:125|86:177,1,100,0|0,1:0|1:0,1:0:0:0:
100,292,359325,2,0,P|160:256|180:224,1,100,0|0,1:0|1:0,1:0:0:0:
92,140,359614,1,0,1:0:0:0:
232,312,359758,1,0,1:0:0:0:
224,96,359902,5,0,1:0:0:0:
340,272,360047,1,0,1:0:0:0:
344,60,360191,5,0,1:0:0:0:
248,216,360335,1,0,1:0:0:0:
108,112,360479,2,0,L|-3:114,1,100,0|0,1:0|1:0,1:0:0:0:
344,96,360768,6,0,L|344:212,1,100,0|0,1:0|1:0,1:0:0:0:
344,232,360984,1,0,1:0:0:0:
344,264,361056,1,0,1:0:0:0:
236,96,361200,1,0,1:0:0:0:
232,304,361345,2,0,L|172:296,1,50,0|0,1:0|1:0,1:0:0:0:
132,208,361489,2,0,L|188:215,1,50,0|0,1:0|1:0,1:0:0:0:
278,227,361633,1,0,1:0:0:0:
228,93,361777,1,0,1:0:0:0:
392,104,361922,6,0,P|384:168|352:192,1,100,0|0,1:0|1:0,1:0:0:0:
284,240,362210,1,0,1:0:0:0:
206,68,362354,1,0,1:0:0:0:
185,308,362499,2,0,P|134:320|86:310,1,100,0|0,1:0|1:0,1:0:0:0:
280,268,362787,1,0,1:0:0:0:
305,78,362931,5,0,1:0:0:0:
305,78,363003,1,0,1:0:0:0:
305,78,363075,2,0,B|259:115|259:115|281:169,1,100,0|0,1:0|1:0,1:0:0:0:
358,336,363364,2,0,B|393:289|393:289|357:244,1,100,0|0,1:0|1:0,1:0:0:0:
128,228,363652,5,0,1:0:0:0:
126,262,363725,1,0,1:0:0:0:
137,295,363797,1,0,1:0:0:0:
158,323,363869,1,0,1:0:0:0:
188,340,363941,1,0,1:0:0:0:
223,345,364013,1,0,1:0:0:0:
257,337,364085,1,0,1:0:0:0:
286,317,364157,1,0,1:0:0:0:
308,292,364229,6,0,P|332:240|314:201,1,100,0|0,1:0|1:0,1:0:0:0:
204,92,364518,2,0,P|180:144|198:183,1,100,0|0,1:0|1:0,1:0:0:0:
294,70,364806,2,0,P|261:21|216:7,1,100,0|0,1:0|1:0,1:0:0:0:
48,171,365095,1,0,1:0:0:0:
283,221,365239,1,0,1:0:0:0:
160,52,365383,6,0,P|164:116|200:144,1,100,0|0,1:0|1:0,1:0:0:0:
304,96,365669,2,0,P|368:72|416:80,1,100
374,199,365960,2,0,P|309:250|268:248,1,100,0|0,1:0|1:0,1:0:0:0:
289,41,366249,1,0,1:0:0:0:
391,231,366393,2,0,P|339:259|281:250,1,100,0|0,1:0|1:0,1:0:0:0:
348,116,366681,1,0,1:0:0:0:
258,284,366825,2,0,L|261:172,1,100,0|0,1:0|1:0,1:0:0:0:
441,162,367114,2,0,L|440:278,1,100,0|0,1:0|1:0,1:0:0:0:
260,156,367402,1,0,1:0:0:0:
441,162,367547,1,0,1:0:0:0:
280,304,367691,6,0,P|202:294|176:259,1,100,0|0,1:0|1:0,1:0:0:0:
152,120,367979,2,0,P|189:167|182:230,1,100,0|0,1:0|1:0,1:0:0:0:
56,132,368268,1,0,1:0:0:0:
236,48,368412,1,0,1:0:0:0:
190,305,368556,2,0,L|191:188,1,100,0|0,1:0|1:0,1:0:0:0:
188,128,368845,1,0,1:0:0:0:
348,256,368989,1,0,1:0:0:0:
265,73,369133,6,0,P|291:139|275:184,1,100,0|0,1:0|1:0,1:0:0:0:
269,200,369350,1,0,1:0:0:0:
247,226,369422,1,0,1:0:0:0:
215,241,369494,1,0,1:0:0:0:
181,243,369566,1,0,1:0:0:0:
148,232,369638,1,0,1:0:0:0:
122,209,369710,1,0,1:0:0:0:
106,178,369782,1,0,1:0:0:0:
104,144,369854,1,0,1:0:0:0:
108,106,369926,1,0,1:0:0:0:
123,70,369999,6,0,P|178:47|234:69,1,100,0|0,1:0|1:0,1:0:0:0:
261,250,370287,1,0,1:0:0:0:
157,79,370431,2,0,P|210:68|266:86,1,100,0|0,1:0|1:0,1:0:0:0:
276,278,370720,1,0,1:0:0:0:
172,107,370864,2,0,P|241:89|291:95,1,100,0|0,1:0|1:0,1:0:0:0:
277,290,371152,1,0,1:0:0:0:
176,184,371297,1,0,1:0:0:0:
378,211,371441,2,0,P|417:280|401:326,1,100,0|0,1:0|1:0,1:0:0:0:
260,171,371729,1,0,1:0:0:0:
462,171,371874,1,0,1:0:0:0:
330,320,372018,6,0,P|281:349|201:341,1,100,0|0,1:0|1:0,1:0:0:0:
210,341,372234,1,0,1:0:0:0:
210,341,372306,1,0,1:0:0:0:
280,136,372450,1,0,1:0:0:0:
331,320,372595,1,0,1:0:0:0:
122,184,372739,1,0,1:0:0:0:
372,181,372883,1,0,1:0:0:0:
190,77,373027,1,0,1:0:0:0:
189,316,373172,2,0,L|63:312,1,100,0|0,1:0|1:0,1:0:0:0:
96,103,373460,1,0,1:0:0:0:
268,233,373604,5,0,1:0:0:0:
268,233,373676,1,0,1:0:0:0:
268,233,373749,1,0,1:0:0:0:
96,103,373893,1,0,1:0:0:0:
96,103,373965,1,0,1:0:0:0:
96,103,374037,6,0,L|211:104,1,100,0|0,1:0|1:0,1:0:0:0:
268,233,374325,2,0,L|146:228,1,100,0|0,1:0|1:0,1:0:0:0:
418,77,374614,6,0,B|424:145|424:145|382:163|382:163|386:165,1,100,0|0,1:0|1:0,1:0:0:0:
190,115,374902,1,0,1:0:0:0:
387,191,375047,2,0,B|363:254|363:254|317:252|317:252|320:256,1,100,0|0,1:0|1:0,1:0:0:0:
183,105,375335,1,0,1:0:0:0:
351,233,375479,2,0,B|294:270|294:270|259:241|259:241|259:246,1,100,0|0,1:0|1:0,1:0:0:0:
172,96,375768,5,0,1:0:0:0:
168,292,375912,1,0,1:0:0:0:
168,64,376053,2,0,P|224:48|272:72,1,100
303,220,376345,2,0,L|306:331,1,100,0|0,1:0|1:0,1:0:0:0:
120,240,376633,1,0,1:0:0:0:
316,76,376777,5,0,1:0:0:0:
316,76,376850,1,0,1:0:0:0:
316,76,376922,1,0,1:0:0:0:
152,76,377066,1,0,1:0:0:0:
152,241,377210,1,0,1:0:0:0:
245,64,377354,5,0,1:0:0:0:
242,269,377499,1,0,1:0:0:0:
70,105,377643,5,0,1:0:0:0:
281,171,377787,1,0,1:0:0:0:
78,270,377931,5,0,1:0:0:0:
184,94,378075,2,0,L|300:94,1,100,0|0,1:0|1:0,1:0:0:0:
416,248,378361,2,0,P|376:296|328:312,1,100
304,312,378577,1,0,1:0:0:0:
272,304,378649,1,0,1:0:0:0:
248,280,378722,1,0,1:0:0:0:
232,248,378794,1,0,1:0:0:0:
232,216,378866,1,0,1:0:0:0:
240,184,378938,1,0,1:0:0:0:
264,160,379010,1,0,1:0:0:0:
296,144,379082,1,0,1:0:0:0:
328,144,379154,1,0,1:0:0:0:
360,160,379226,6,0,P|392:112|376:64,1,100
168,56,379515,2,0,P|112:72|80:104,1,100
104,296,379803,2,0,P|144:240|144:192,1,100
360,264,380092,1,0,1:0:0:0:
298,60,380239,5,0,1:0:0:0:
298,60,380311,1,0,1:0:0:0:
298,60,380383,2,0,L|252:156,1,100,0|0,1:0|1:0,1:0:0:0:
188,276,380672,1,0,1:0:0:0:
112,184,380816,1,0,1:0:0:0:
254,150,380960,1,0,1:0:0:0:
176,312,381104,1,0,1:0:0:0:
80,104,381249,1,0,1:0:0:0:
264,96,381393,1,0,1:0:0:0:
310,245,381537,6,0,L|346:293,3,50,0|0|0|0,1:0|1:0|1:0|1:0,1:0:0:0:
182,292,381825,2,0,L|206:240,3,50,0|0|0|0,1:0|1:0|1:0|1:0,1:0:0:0:
254,150,382114,2,0,L|254:74,3,50,0|0|0|0,1:0|1:0|1:0|1:0,1:0:0:0:
176,72,382402,5,0,1:0:0:0:
143,82,382475,1,0,1:0:0:0:
116,104,382547,1,0,1:0:0:0:
99,134,382619,1,0,1:0:0:0:
94,168,382691,1,0,1:0:0:0:
100,204,382763,1,0,1:0:0:0:
120,232,382835,1,0,1:0:0:0:
152,244,382907,1,0,1:0:0:0:
188,236,382979,2,0,L|192:188,20,25,0|0|0|0|0|0|0|0|0|0|0|0|0|0|0|0|0|0|0|0|0,1:0|1:0|1:0|1:0|1:0|1:0|1:0|1:0|1:0|1:0|1:0|1:0|1:0|1:0|1:0|1:0|1:0|1:0|1:0|1:0|1:0,1:0:0:0:
256,192,384992,12,0,387753,1:0:0:0:
256,192,395304,12,0,397503,1:0:0:0:
260,300,397817,5,0,1:0:0:0:
104,140,398131,1,0,1:0:0:0:
412,140,398445,2,0,L|336:192,1,75.0000028610231,0|0,1:0|1:0,1:0:0:0:
384,284,398759,2,0,L|280:284,1,75.0000028610231,0|0,1:0|1:0,1:0:0:0:
188,60,399073,5,0,1:0:0:0:
188,248,399387,1,0,1:0:0:0:
408,64,399701,2,0,L|456:128,1,75.0000028610231,0|0,1:0|1:0,1:0:0:0:
372,216,400015,2,0,L|472:216,1,75.0000028610231,0|0,1:0|1:0,1:0:0:0:
288,120,400329,5,0,1:0:0:0:
184,208,400486,1,0,1:0:0:0:
372,216,400643,1,0,1:0:0:0:
208,120,400800,1,0,1:0:0:0:
208,296,400957,1,0,1:0:0:0:
372,128,401114,1,0,1:0:0:0:
136,124,401271,1,0,1:0:0:0:
280,296,401428,1,0,1:0:0:0:
308,48,401585,6,0,P|252:136|168:144,1,150.000005722046,0|0,1:0|1:0,1:0:0:0:
216,52,402057,2,0,P|240:132|224:176,1,75.0000028610231,0|0,1:0|1:0,1:0:0:0:
168,144,402371,2,0,P|244:200|260:200,1,75.0000028610231,0|0,1:0|1:0,1:0:0:0:
168,144,402844,6,0,L|284:124,1,100,0|0,1:0|1:0,1:0:0:0:
388,104,403157,1,0,1:0:0:0:
256,280,403314,1,0,1:0:0:0:
168,144,403471,1,0,1:0:0:0:
376,240,403628,2,0,P|364:312|328:352,1,100,0|0,1:0|1:0,1:0:0:0:
256,280,403943,5,0,1:0:0:0:
356,92,404100,1,0,1:0:0:0:
240,192,404257,1,0,1:0:0:0:
420,152,404414,1,0,1:0:0:0:
228,112,404571,1,0,1:0:0:0:
396,232,404728,1,0,1:0:0:0:
272,52,404885,1,0,1:0:0:0:
320,256,405042,6,0,L|188:276,1,100,0|0,1:0|1:0,1:0:0:0:
60,136,405356,2,0,L|168:112,1,100,0|0,1:0|1:0,1:0:0:0:
260,176,405670,2,0,P|224:224|176:244,1,100,0|0,1:0|1:0,1:0:0:0:
60,136,405984,2,0,L|120:36,1,100,0|0,1:0|1:0,1:0:0:0:
76,260,406299,2,0,L|164:320,1,100,0|0,1:0|1:0,1:0:0:0:
260,176,406613,5,0,1:0:0:0:
136,88,406770,1,0,1:0:0:0:
89,243,406927,5,0,1:0:0:0:
197,134,407084,1,0,1:0:0:0:
245,306,407241,5,0,1:0:0:0:
141,190,407398,1,0,1:0:0:0:
68,352,407555,5,0,1:0:0:0:
192,248,407712,1,0,1:0:0:0:
56,116,407869,6,0,P|56:176|92:236,1,100,0|0,1:0|1:0,1:0:0:0:
256,184,408183,2,0,L|264:64,1,100,0|0,1:0|1:0,1:0:0:0:
368,256,408497,2,0,P|336:304|260:320,1,100,0|0,1:0|1:0,1:0:0:0:
368,136,408812,2,0,P|440:168|456:200,1,100,0|0,1:0|1:0,1:0:0:0:
303,302,409125,5,0,1:0:0:0:
468,206,409283,1,0,1:0:0:0:
281,171,409440,1,0,1:0:0:0:
416,308,409597,1,0,1:0:0:0:
382,116,409754,2,0,P|395:61|440:32,1,100,0|0,1:0|1:0,1:0:0:0:
464,106,410068,6,0,L|468:218,1,100,0|0,1:0|1:0,1:0:0:0:
376,332,410382,1,0,1:0:0:0:
248,116,410539,2,0,L|252:228,1,100,0|0,1:0|1:0,1:0:0:0:
256,336,410854,1,0,1:0:0:0:
444,84,411011,2,0,L|344:48,1,100,0|0,1:0|1:0,1:0:0:0:
152,85,411325,2,0,L|264:121,1,100,0|0,1:0|1:0,1:0:0:0:
316,312,411639,2,0,P|248:328|204:296,1,100,0|0,1:0|1:0,1:0:0:0:
140,232,411953,1,0,1:0:0:0:
264,128,412110,1,0,1:0:0:0:
256,288,412267,1,0,1:0:0:0:
264,100,412424,1,0,1:0:0:0:
256,312,412581,1,0,1:0:0:0:
440,236,412895,6,0,P|392:292|352:300,1,100,0|0,1:0|1:0,1:0:0:0:
248,248,413210,2,0,P|256:180|288:144,1,100,0|0,1:0|1:0,1:0:0:0:
264,344,413524,2,0,P|204:344|172:312,1,100,0|0,1:0|1:0,1:0:0:0:
148,136,413838,2,0,P|112:96|60:80,1,100,0|0,1:0|1:0,1:0:0:0:
116,232,414152,2,0,P|200:228|224:200,1,100,0|0,1:0|1:0,1:0:0:0:
392,88,414466,2,0,P|320:56|288:64,1,100
280,272,414780,2,0,P|368:260|396:216,1,100,0|0,1:0|1:0,1:0:0:0:
432,152,415094,1,0,0:0:0:0:
280,136,415251,1,0,0:0:0:0:
456,316,415408,6,0,L|456:204,1,100,0|0,1:0|1:0,1:0:0:0:
280,136,415723,2,0,P|216:144|176:180,1,100,0|0,1:0|1:0,1:0:0:0:
84,260,416037,2,0,P|136:304|176:304,1,100,0|0,1:0|1:0,1:0:0:0:
304,344,416351,2,0,P|300:272|280:240,1,100,0|0,1:0|1:0,1:0:0:0:
116,136,416665,6,0,P|160:184|204:192,1,100,0|0,1:0|1:0,1:0:0:0:
312,176,416979,1,0,1:0:0:0:
312,12,417136,1,0,1:0:0:0:
232,256,417293,1,0,1:0:0:0:
232,72,417450,1,0,1:0:0:0:
376,256,417607,1,0,1:0:0:0:
376,72,417764,1,0,1:0:0:0:
148,192,417922,6,0,L|148:320,1,100,0|0,1:0|1:0,1:0:0:0:
392,296,418236,2,0,L|392:188,1,100,0|0,1:0|1:0,1:0:0:0:
292,80,418550,2,0,P|260:128|268:180,1,100,0|0,1:0|1:0,1:0:0:0:
44,196,418864,2,0,L|112:112,1,100,0|0,1:0|1:0,1:0:0:0:
29,54,419178,6,0,L|121:130,1,100,0|0,1:0|1:0,1:0:0:0:
248,240,419492,1,0,1:0:0:0:
228,136,419649,1,0,1:0:0:0:
272,340,419806,1,0,1:0:0:0:
324,136,419963,1,0,1:0:0:0:
136,28,420121,6,0,L|252:24,1,100,0|0,1:0|1:0,1:0:0:0:
324,136,420435,6,0,P|264:196|224:212,1,100,0|0,1:0|1:0,1:0:0:0:
188,296,420749,2,0,L|292:296,1,100,0|0,1:0|1:0,1:0:0:0:
412,324,421063,2,0,P|368:368|328:384,1,100,0|0,1:0|1:0,1:0:0:0:
192,300,421377,1,0,1:0:0:0:
312,200,421534,1,0,1:0:0:0:
196,304,421691,2,0,P|128:272|104:224,1,100,0|0,1:0|1:0,1:0:0:0:
312,200,422005,2,0,L|308:312,1,100,0|0,1:0|1:0,1:0:0:0:
228,140,422319,2,0,P|264:92|308:72,1,100,0|0,1:0|1:0,1:0:0:0:
212,240,422634,1,0,1:0:0:0:
96,136,427974,6,0,P|96:72|168:128,1,200,0|0,1:0|1:0,1:0:0:0:
128,260,428603,6,0,P|172:296|228:304,1,100,0|0,1:0|1:0,1:0:0:0:
384,260,428916,2,0,P|340:296|284:304,1,100,0|0,1:0|1:0,1:0:0:0:
256,304,429152,1,0,1:0:0:0:
256,304,429230,1,0,1:0:0:0:
256,48,429545,2,0,L|256:160,1,100,0|0,1:0|1:0,1:0:0:0:
256,304,429859,1,0,1:0:0:0:
256,148,430016,1,0,1:0:0:0:
256,328,430173,2,0,L|256:216,1,100,0|0,1:0|1:0,1:0:0:0:
256,16,430487,2,0,P|184:32|148:72,1,100,0|0,1:0|1:0,1:0:0:0:
120,188,430801,5,0,1:0:0:0:
128,216,430880,1,0,1:0:0:0:
140,240,430958,1,0,1:0:0:0:
160,256,431037,1,0,1:0:0:0:
184,264,431115,1,0,1:0:0:0:
208,268,431194,1,0,1:0:0:0:
232,264,431272,1,0,1:0:0:0:
252,252,431351,1,0,1:0:0:0:
284,236,431429,1,0,1:0:0:0:
320,236,431508,1,0,1:0:0:0:
348,256,431586,1,0,1:0:0:0:
356,292,431665,1,0,1:0:0:0:
336,320,431744,6,0,L|264:336,3,50,0|0|0|0,1:0|1:0|1:0|1:0,1:0:0:0:
180,336,432058,2,0,L|104:304,3,50,0|0|0|0,1:0|1:0|1:0|1:0,1:0:0:0:
104,200,432372,2,0,L|176:232,3,50,0|0|0|0,1:0|1:0|1:0|1:0,1:0:0:0:
284,192,432686,2,0,L|232:156,3,50,0|0|0|0,1:0|1:0|1:0|1:0,1:0:0:0:
192,48,433000,6,0,L|292:104,1,100,0|0,1:0|1:0,1:0:0:0:
264,212,433314,2,0,L|164:152,1,100,0|0,1:0|1:0,1:0:0:0:
16,56,433628,5,0,1:0:0:0:
16,91,433707,1,0,1:0:0:0:
16,126,433785,1,0,1:0:0:0:
16,161,433864,1,0,1:0:0:0:
20,196,433943,2,0,L|80:196,1,50,0|0,1:0|1:0,1:0:0:0:
196,264,434100,2,0,L|120:260,1,50,0|0,1:0|1:0,1:0:0:0:
236,168,434257,6,0,P|268:124|336:112,1,100,0|0,1:0|1:0,1:0:0:0:
336,216,434571,2,0,P|292:280|248:288,1,100,0|0,1:0|1:0,1:0:0:0:
176,108,434885,5,0,1:0:0:0:
208,92,434963,1,0,1:0:0:0:
244,88,435042,1,0,1:0:0:0:
280,96,435121,1,0,1:0:0:0:
308,119,435199,2,0,L|278:164,1,50
271,272,435356,2,0,L|325:234,1,50
420,148,435513,6,0,P|424:88|384:48,1,100,0|0,1:0|1:0,1:0:0:0:
312,244,435827,2,0,P|320:312|352:344,1,100,0|0,1:0|1:0,1:0:0:0:
168,120,436141,1,0,1:0:0:0:
148,148,436220,1,0,1:0:0:0:
144,184,436299,1,0,1:0:0:0:
152,220,436377,1,0,1:0:0:0:
172,248,436456,2,0,L|236:264,3,50,0|0|0|0,1:0|1:0|1:0|1:0,1:0:0:0:
304,148,436770,5,0,1:0:0:0:
336,136,436848,1,0,1:0:0:0:
372,140,436927,1,0,1:0:0:0:
400,160,437005,1,0,1:0:0:0:
432,172,437084,5,0,1:0:0:0:
428,208,437162,1,0,1:0:0:0:
412,240,437241,1,0,1:0:0:0:
384,260,437319,1,0,1:0:0:0:
384,296,437398,5,0,1:0:0:0:
348,304,437477,1,0,1:0:0:0:
320,284,437555,1,0,1:0:0:0:
312,252,437634,1,0,1:0:0:0:
316,216,437712,1,0,1:0:0:0:
340,188,437791,1,0,1:0:0:0:
360,160,437869,1,0,1:0:0:0:
364,124,437948,1,0,1:0:0:0:
348,92,438026,6,0,P|272:72|216:88,1,100,0|0,1:0|1:0,1:0:0:0:
112,164,438340,2,0,P|156:192|220:200,1,100,0|0,1:0|1:0,1:0:0:0:
64,96,438655,5,0,1:0:0:0:
36,124,438733,1,0,1:0:0:0:
24,160,438812,1,0,1:0:0:0:
20,200,438890,1,0,1:0:0:0:
39,233,438969,2,0,L|92:214,1,50
169,285,439126,2,0,L|175:231,1,50
200,98,439283,2,0,P|257:110|301:93,1,100
420,37,439597,2,0,P|423:108|404:152,1,100
364,308,439911,5,0,1:0:0:0:
392,288,439990,1,0,1:0:0:0:
404,256,440068,1,0,1:0:0:0:
396,220,440147,1,0,1:0:0:0:
368,196,440225,1,0,1:0:0:0:
340,172,440304,1,0,1:0:0:0:
332,136,440382,1,0,1:0:0:0:
348,104,440461,1,0,1:0:0:0:
380,92,440539,6,0,L|444:100,3,50,0|0|0|0,1:0|1:0|1:0|1:0,1:0:0:0:
500,196,440854,2,0,L|440:188,3,50,0|0|0|0,1:0|1:0|1:0|1:0,1:0:0:0:
324,252,441168,6,0,L|388:260,3,50,0|0|0|0,1:0|1:0|1:0|1:0,1:0:0:0:
460,328,441482,2,0,L|384:328,3,50,0|0|0|0,1:0|1:0|1:0|1:0,1:0:0:0:
252,328,441796,1,0,1:0:0:0:
232,316,441874,1,0,1:0:0:0:
216,296,441953,1,0,1:0:0:0:
204,272,442032,1,0,1:0:0:0:
200,248,442110,1,0,1:0:0:0:
200,224,442189,1,0,1:0:0:0:
208,200,442267,1,0,1:0:0:0:
220,180,442346,1,0,1:0:0:0:
252,172,442424,1,0,1:0:0:0:
284,188,442503,1,0,1:0:0:0:
304,216,442581,1,0,1:0:0:0:
320,248,442660,1,0,1:0:0:0:
348,268,442738,1,0,1:0:0:0:
384,264,442817,1,0,1:0:0:0:
408,240,442895,1,0,1:0:0:0:
412,204,442974,1,0,1:0:0:0:
392,172,443052,1,0,1:0:0:0:
120,104,448079,6,0,L|120:220,1,100,0|0,1:0|1:0,1:0:0:0:
120,312,448393,5,0,1:0:0:0:
264,144,448550,1,0,1:0:0:0:
264,352,448707,1,0,1:0:0:0:
264,144,448864,1,0,1:0:0:0:
404,244,449021,6,0,P|352:296|304:304,1,100,0|0,1:0|1:0,1:0:0:0:
256,144,449335,1,0,1:0:0:0:
404,244,449492,1,0,1:0:0:0:
172,244,449649,1,0,1:0:0:0:
356,164,449806,1,0,1:0:0:0:
128,160,449963,2,0,P|144:88|180:64,1,100,0|0,1:0|1:0,1:0:0:0:
356,164,450278,1,0,1:0:0:0:
172,248,450435,2,0,L|48:248,1,100,0|0,1:0|1:0,1:0:0:0:
68,152,450749,5,0,1:0:0:0:
256,152,450906,2,0,L|256:264,1,100,0|0,1:0|1:0,1:0:0:0:
256,356,451220,1,0,1:0:0:0:
344,152,451377,1,0,1:0:0:0:
343,298,451534,1,0,1:0:0:0:
344,72,451691,1,0,1:0:0:0:
272,284,451848,6,0,P|220:244|204:200,1,100,0|0,1:0|1:0,1:0:0:0:
376,68,452162,2,0,P|440:88|464:120,1,100,0|0,1:0|1:0,1:0:0:0:
208,208,452477,2,0,L|104:208,1,100,0|0,1:0|1:0,1:0:0:0:
280,104,452791,2,0,P|336:144|320:280,1,200,0|0,1:0|1:0,1:0:0:0:
92,92,453419,5,0,1:0:0:0:
360,64,453733,2,0,L|360:164,1,100,0|0,1:0|1:0,1:0:0:0:
364,336,454047,2,0,P|364:272|392:236,1,100,0|0,1:0|1:0,1:0:0:0:
216,272,454361,6,0,P|144:248|88:132,1,200,0|0,1:0|1:0,1:0:0:0:
304,140,454990,2,0,B|304:200|304:200|264:216,1,100,0|0,1:0|1:0,1:0:0:0:
192,320,455304,2,0,B|128:304|128:304|128:244,1,100,0|0,1:0|1:0,1:0:0:0:
192,72,455618,6,0,L|260:72,3,50,0|0|0|0,1:0|1:0|1:0|1:0,1:0:0:0:
380,176,455932,2,0,L|296:176,3,50,0|0|0|0,1:0|1:0|1:0|1:0,1:0:0:0:
184,264,456246,2,0,L|256:264,3,50,0|0|0|0,1:0|1:0|1:0|1:0,1:0:0:0:
384,324,456560,2,0,L|304:324,3,50,0|0|0|0,1:0|1:0|1:0|1:0,1:0:0:0:
184,260,456874,1,0,1:0:0:0:
184,236,456953,1,0,1:0:0:0:
184,212,457032,1,0,1:0:0:0:
184,188,457110,1,0,1:0:0:0:
184,164,457189,1,0,1:0:0:0:
184,140,457267,1,0,1:0:0:0:
184,116,457346,1,0,1:0:0:0:
184,92,457424,1,0,1:0:0:0:
184,68,457503,2,0,L|296:64,2,100,0|0|0,1:0|1:0|1:0,1:0:0:0:
420,296,458131,6,0,P|356:320|304:304,1,100,0|0,1:0|1:0,1:0:0:0:
352,144,458445,2,0,P|436:144|472:176,1,100,0|0,1:0|1:0,1:0:0:0:
416,296,458759,1,0,1:0:0:0:
352,144,458916,1,0,1:0:0:0:
508,200,459073,6,0,L|508:312,1,100,0|0,1:0|1:0,1:0:0:0:
296,208,459388,6,0,P|264:152|272:104,1,100,0|0,1:0|1:0,1:0:0:0:
352,144,459702,1,0,1:0:0:0:
200,312,459859,1,0,1:0:0:0:
186,166,460016,2,0,P|107:174|76:280,1,200,0|0,1:0|1:0,1:0:0:0:
156,248,460487,5,0,1:0:0:0:
171,37,460644,1,0,1:0:0:0:
251,204,460801,1,0,1:0:0:0:
320,32,460958,1,0,1:0:0:0:
322,247,461115,1,0,1:0:0:0:
250,101,461272,1,0,1:0:0:0:
244,304,461429,1,0,1:0:0:0:
324,136,461586,1,0,1:0:0:0:
168,256,461744,1,0,1:0:0:0:
256,104,461901,6,0,P|295:65|374:84,1,100,0|0,1:0|1:0,1:0:0:0:
340,152,462215,1,0,1:0:0:0:
221,198,462372,2,0,P|164:144|168:88,1,100,0|0,1:0|1:0,1:0:0:0:
340,152,462686,1,0,1:0:0:0:
160,112,462843,1,0,1:0:0:0:
340,152,463000,1,0,1:0:0:0:
88,60,463157,6,0,P|72:104|84:164,1,100,0|0,1:0|1:0,1:0:0:0:
248,256,463471,2,0,L|248:136,1,100,0|0,1:0|1:0,1:0:0:0:
152,296,463785,2,0,P|184:344|252:356,1,100,0|0,1:0|1:0,1:0:0:0:
416,172,464100,2,0,L|312:172,1,100,0|0,1:0|1:0,1:0:0:0:
448,268,464414,2,0,P|492:240|508:184,1,100,0|0,1:0|1:0,1:0:0:0:
416,96,464728,1,0,1:0:0:0:
316,300,464885,5,0,1:0:0:0:
496,264,465042,1,0,1:0:0:0:
308,164,465199,1,0,1:0:0:0:
392,348,465356,1,0,1:0:0:0:
392,100,465513,1,0,1:0:0:0:
308,293,465670,2,0,L|308:161,1,100,0|0,1:0|1:0,1:0:0:0:
307,88,465984,1,0,1:0:0:0:
164,192,466141,1,0,1:0:0:0:
368,192,466299,1,0,1:0:0:0:
160,92,466456,1,0,1:0:0:0:
288,264,466613,1,0,1:0:0:0:
292,48,466770,1,0,1:0:0:0:
180,248,466927,6,0,P|224:324|272:344,1,100,0|0,1:0|1:0,1:0:0:0:
305,192,467241,2,0,L|188:168,1,100,0|0,1:0|1:0,1:0:0:0:
360,272,467555,2,0,P|396:232|400:176,1,100,0|0,1:0|1:0,1:0:0:0:
204,168,467869,1,0,1:0:0:0:
440,96,468183,6,0,L|328:96,1,100,0|0,1:0|1:0,1:0:0:0:
292,260,468497,2,0,L|188:256,1,100,0|0,1:0|1:0,1:0:0:0:
80,248,468812,1,0,1:0:0:0:
220,96,468969,1,0,1:0:0:0:
292,260,469126,2,0,L|292:360,1,100,0|0,1:0|1:0,1:0:0:0:
156,180,469440,2,0,L|96:84,1,100,0|0,1:0|1:0,1:0:0:0:
240,88,469754,5,0,1:0:0:0:
240,296,469911,1,0,1:0:0:0:
408,96,470068,6,0,P|444:188|356:276,1,200,0|0,1:0|1:0,1:0:0:0:
240,296,470539,1,0,1:0:0:0:
296,144,470696,1,0,1:0:0:0:
240,296,470854,1,0,1:0:0:0:
264,60,471011,5,0,1:0:0:0:
272,284,471168,1,0,1:0:0:0:
184,44,471325,1,0,1:0:0:0:
324,192,471482,1,0,1:0:0:0:
136,168,471639,2,0,P|144:240|172:288,1,100,0|0,1:0|1:0,1:0:0:0:
324,192,471953,5,0,1:0:0:0:
252,88,472110,1,0,1:0:0:0:
252,292,472267,1,0,1:0:0:0:
252,176,472424,1,0,1:0:0:0:
440,248,472581,1,0,1:0:0:0:
326,134,472738,1,0,1:0:0:0:
400,332,472895,2,0,P|472:340|504:320,1,100,0|0,1:0|1:0,1:0:0:0:
326,134,473210,6,0,L|214:138,1,100,0|0,1:0|1:0,1:0:0:0:
112,152,473524,1,0,1:0:0:0:
112,240,473681,1,0,1:0:0:0:
200,240,473838,2,0,P|200:316|160:348,1,100,0|0,1:0|1:0,1:0:0:0:
112,152,474152,1,0,1:0:0:0:
200,152,474309,1,0,1:0:0:0:
200,240,474466,2,0,L|324:244,1,100,0|0,1:0|1:0,1:0:0:0:
388,244,474780,5,0,1:0:0:0:
312,72,474937,1,0,1:0:0:0:
312,316,475094,1,0,1:0:0:0:
352,144,475251,1,0,1:0:0:0:
192,320,475408,1,0,1:0:0:0:
384,272,475566,1,0,1:0:0:0:
184,152,475723,6,0,L|184:48,1,100,0|0,1:0|1:0,1:0:0:0:
96,252,476037,2,0,L|96:144,1,100,0|0,1:0|1:0,1:0:0:0:
185,300,476351,2,0,L|185:196,1,100,0|0,1:0|1:0,1:0:0:0:
283,334,476665,2,0,L|284:223,1,100,0|0,1:0|1:0,1:0:0:0:
284,156,476979,5,0,1:0:0:0:
216,116,477136,1,0,1:0:0:0:
136,112,477293,1,0,1:0:0:0:
128,284,477450,1,0,1:0:0:0:
200,312,477607,1,0,1:0:0:0:
276,296,477764,1,0,1:0:0:0:
160,176,477922,2,0,P|264:180|288:96,1,200,0|0,1:0|1:0,1:0:0:0:
256,192,478296,12,0,483244,1:0:0:0:
256,192,502738,12,0,508393,1:0:0:0:
140,143,509293,5,0,1:0:0:0:
232,227,509607,1,0,1:0:0:0:
327,139,509921,1,0,1:0:0:0:
109,121,510235,6,0,L|110:36,1,75.0000028610231,0|0,1:0|1:0,1:0:0:0:
108,215,510549,2,0,L|107:307,1,75.0000028610231,0|0,1:0|1:0,1:0:0:0:
226,212,510863,2,0,L|262:290,1,75.0000028610231,0|0,1:0|1:0,1:0:0:0:
204,93,511177,2,0,L|286:92,1,75.0000028610231,0|0,1:0|1:0,1:0:0:0:
381,167,511491,1,0,1:0:0:0:
353,269,511649,1,0,1:0:0:0:
248,272,511806,2,0,P|209:235|200:205,1,75.0000028610231,0|0,1:0|1:0,1:0:0:0:
381,167,512120,1,0,1:0:0:0:
178,207,512277,1,0,1:0:0:0:
395,155,512434,2,0,P|386:108|364:81,1,75.0000028610231,0|0,1:0|1:0,1:0:0:0:
178,207,512748,6,0,L|177:305,1,75.0000028610231,0|0,1:0|1:0,1:0:0:0:
89,186,513062,2,0,L|88:90,1,75.0000028610231,0|0,1:0|1:0,1:0:0:0:
90,329,513376,2,0,P|125:357|162:361,1,75.0000028610231,0|0,1:0|1:0,1:0:0:0:
169,206,513690,2,0,L|169:122,1,75.0000028610231,0|0,1:0|1:0,1:0:0:0:
296,113,514005,1,0,1:0:0:0:
358,206,514162,1,0,1:0:0:0:
169,206,514319,2,0,P|119:197|87:174,1,75.0000028610231,0|0,1:0|1:0,1:0:0:0:
296,113,514633,2,0,L|395:110,1,75.0000028610231,0|0,1:0|1:0,1:0:0:0:
435,209,514947,1,0,1:0:0:0:
316,274,515104,6,0,P|283:227|278:197,1,75.0000028610231,0|0,1:0|1:0,1:0:0:0:
194,223,515418,2,0,P|218:282|241:305,1,75.0000028610231,0|0,1:0|1:0,1:0:0:0:
154,126,515732,2,0,P|97:139|71:132,1,75.0000028610231,0|0,1:0|1:0,1:0:0:0:
270,71,516046,2,0,P|315:60|352:65,1,75.0000028610231,0|0,1:0|1:0,1:0:0:0:
352,228,516361,1,0,1:0:0:0:
240,227,516518,2,0,P|236:175|220:149,1,75.0000028610231,0|0,1:0|1:0,1:0:0:0:
54,117,516832,2,0,P|61:170|80:191,1,75.0000028610231,0|0,1:0|1:0,1:0:0:0:
170,63,517146,2,0,P|136:26|108:20,1,75.0000028610231,0|0,1:0|1:0,1:0:0:0:
162,203,517460,1,0,1:0:0:0:
266,203,517617,1,0,1:0:0:0:
262,30,517774,6,0,L|264:112,1,75.0000028610231,0|0,1:0|1:0,1:0:0:0:
266,277,518088,2,0,L|265:192,1,75.0000028610231,0|0,1:0|1:0,1:0:0:0:
354,33,518402,6,0,L|356:115,1,75.0000028610231,0|0,1:0|1:0,1:0:0:0:
358,280,518716,2,0,L|357:195,1,75.0000028610231,0|0,1:0|1:0,1:0:0:0:
262,26,519031,1,0,1:0:0:0:
419,99,519188,1,0,1:0:0:0:
243,38,519345,2,0,P|240:82|246:122,1,75.0000028610231,0|0,1:0|1:0,1:0:0:0:
309,194,519659,1,0,1:0:0:0:
309,194,519816,1,0,1:0:0:0:
162,45,519973,2,0,B|122:39|122:39|79:48,1,75.0000028610231,0|0,1:0|1:0,1:0:0:0:
25,152,520287,6,0,P|71:157|105:158,1,75.0000028610231,0|0,1:0|1:0,1:0:0:0:
301,151,520601,2,0,P|244:157|223:156,1,75.0000028610231,0|0,1:0|1:0,1:0:0:0:
22,251,520916,2,0,P|68:256|102:257,1,75.0000028610231,0|0,1:0|1:0,1:0:0:0:
298,250,521230,2,0,P|241:256|220:255,1,75.0000028610231,0|0,1:0|1:0,1:0:0:0:
129,136,521544,5,0,1:0:0:0:
129,31,521701,1,0,1:0:0:0:
244,138,521858,2,0,L|245:219,1,75.0000028610231,0|0,1:0|1:0,1:0:0:0:
167,283,522172,1,0,1:0:0:0:
245,143,522329,1,0,1:0:0:0:
177,310,522486,2,0,P|232:327|271:319,1,75.0000028610231,0|0,1:0|1:0,1:0:0:0:
335,266,522800,5,0,1:0:0:0:
245,143,522957,2,0,P|209:184|196:213,1,75.0000028610231,0|0,1:0|1:0,1:0:0:0:
347,244,523272,1,0,1:0:0:0:
346,66,523429,2,0,L|272:67,1,75.0000028610231,0|0,1:0|1:0,1:0:0:0:
415,157,523743,2,0,L|497:157,1,75.0000028610231,0|0,1:0|1:0,1:0:0:0:
347,244,524057,1,0,1:0:0:0:
258,160,524214,1,0,1:0:0:0:
410,58,524371,6,0,L|414:143,1,75.0000028610231,0|0,1:0|1:0,1:0:0:0:
347,244,524685,2,0,L|265:248,1,75.0000028610231,0|0,1:0|1:0,1:0:0:0:
167,253,524999,1,0,1:0:0:0:
97,156,525156,2,0,P|144:155|174:164,1,75.0000028610231,0|0,1:0|1:0,1:0:0:0:
160,267,525471,1,0,1:0:0:0:
109,135,525628,2,0,P|156:134|186:143,1,75.0000028610231,0|0,1:0|1:0,1:0:0:0:
153,285,525942,1,0,1:0:0:0:
120,114,526099,2,0,P|167:113|197:122,1,75.0000028610231,0|0,1:0|1:0,1:0:0:0:
322,271,526413,2,0,P|268:268|248:255,1,75.0000028610231,0|0,1:0|1:0,1:0:0:0:
326,106,526727,1,0,1:0:0:0:
415,161,526884,1,0,1:0:0:0:
421,265,527041,1,0,1:0:0:0:
207,262,527198,6,0,L|206:175,1,75.0000028610231,0|0,1:0|1:0,1:0:0:0:
336,282,527512,2,0,L|334:382,1,75.0000028610231,0|0,1:0|1:0,1:0:0:0:
168,353,527827,2,0,P|127:345|99:315,1,75.0000028610231,0|0,1:0|1:0,1:0:0:0:
90,218,528141,1,0,1:0:0:0:
252,236,528298,2,0,P|211:191|206:162,1,75.0000028610231,0|0,1:0|1:0,1:0:0:0:
316,131,528612,1,0,1:0:0:0:
317,309,528769,6,0,P|367:317|397:301,1,75.0000028610231,0|0,1:0|1:0,1:0:0:0:
316,131,529083,2,0,P|327:202|341:216,1,75.0000028610231,0|0,1:0|1:0,1:0:0:0:
433,135,529397,1,0,1:0:0:0:
317,39,529554,2,0,B|276:30|276:30|223:37,1,75.0000028610231,0|0,1:0|1:0,1:0:0:0:
256,192,529790,12,0,535130,1:0:0:0:
394,128,535776,5,0,1:0:0:0:
305,280,536090,5,0,1:0:0:0:
101,101,536414,6,0,P|165:99|203:113,1,100,0|0,1:0|1:0,1:0:0:0:
305,280,536728,6,0,P|241:282|203:268,1,100,0|0,1:0|1:0,1:0:0:0:
282,162,537042,1,0,1:0:0:0:
196,259,537199,1,0,1:0:0:0:
198,48,537356,6,0,L|304:47,1,100,0|0,1:0|1:0,1:0:0:0:
405,162,537670,1,0,1:0:0:0:
306,260,537827,1,0,1:0:0:0:
305,51,537984,1,0,1:0:0:0:
405,162,538141,1,0,1:0:0:0:
183,117,538298,1,0,1:0:0:0:
381,234,538455,1,0,1:0:0:0:
305,51,538612,1,0,1:0:0:0:
306,260,538770,1,0,1:0:0:0:
60,255,538927,6,0,P|130:266|166:259,1,100,0|0,1:0|1:0,1:0:0:0:
242,178,539241,1,0,1:0:0:0:
106,99,539398,2,0,P|68:151|59:192,1,100,0|0,1:0|1:0,1:0:0:0:
265,188,539712,1,0,1:0:0:0:
415,325,539869,6,0,L|414:212,1,100,0|0,1:0|1:0,1:0:0:0:
265,30,540183,2,0,L|266:144,1,100,0|0,1:0|1:0,1:0:0:0:
268,294,540497,1,0,1:0:0:0:
418,209,540654,1,0,1:0:0:0:
265,129,540811,1,0,1:0:0:0:
360,292,540968,1,0,1:0:0:0:
360,120,541126,1,0,1:0:0:0:
182,204,541283,2,0,P|192:264|216:296,1,100,0|0,1:0|1:0,1:0:0:0:
304,204,541597,5,0,1:0:0:0:
182,98,541754,2,0,L|80:99,1,100,0|0,1:0|1:0,1:0:0:0:
176,209,542068,1,0,1:0:0:0:
270,109,542225,1,0,1:0:0:0:
92,108,542382,2,0,P|73:165|85:216,1,100,0|0,1:0|1:0,1:0:0:0:
192,341,542696,6,0,B|181:291|182:291|213:283|205:225,1,100,0|0,1:0|1:0,1:0:0:0:
191,135,543010,1,0,1:0:0:0:
376,280,543167,6,0,B|327:265|327:264|336:233|282:211,1,100,0|0,1:0|1:0,1:0:0:0:
191,135,543481,1,0,1:0:0:0:
300,90,543639,1,0,1:0:0:0:
186,248,543796,1,0,1:0:0:0:
288,60,543953,2,0,L|184:60,1,100,0|0,1:0|1:0,1:0:0:0:
334,172,544267,2,0,P|398:156|439:160,1,100,0|0,1:0|1:0,1:0:0:0:
367,341,544581,1,0,1:0:0:0:
278,246,544738,1,0,1:0:0:0:
449,170,544895,2,0,P|446:231|427:273,1,100,0|0,1:0|1:0,1:0:0:0:
245,325,545209,5,0,1:0:0:0:
145,241,545366,1,0,1:0:0:0:
238,145,545523,1,0,1:0:0:0:
199,331,545681,5,0,1:0:0:0:
150,210,545838,1,0,1:0:0:0:
277,169,545995,1,0,1:0:0:0:
174,335,546152,2,0,P|114:311|86:281,1,100,0|0,1:0|1:0,1:0:0:0:
277,169,546466,6,0,P|346:191|414:86,1,200,0|0,1:0|1:0,1:0:0:0:
297,58,546937,1,0,1:0:0:0:
289,320,547094,2,0,L|277:204,1,100,0|0,1:0|1:0,1:0:0:0:
95,143,547408,2,0,L|202:150,1,100,0|0,1:0|1:0,1:0:0:0:
439,139,547722,2,0,L|332:146,1,100,0|0,1:0|1:0,1:0:0:0:
288,320,548037,1,0,1:0:0:0:
406,267,548194,1,0,1:0:0:0:
329,162,548351,1,0,1:0:0:0:
444,102,548508,1,0,1:0:0:0:
406,267,548665,1,0,1:0:0:0:
444,102,548822,1,0,1:0:0:0:
375,281,548979,6,0,P|308:283|274:271,1,100,0|0,1:0|1:0,1:0:0:0:
201,172,549293,1,0,1:0:0:0:
270,61,549450,1,0,1:0:0:0:
268,259,549607,1,0,1:0:0:0:
172,105,549764,1,0,1:0:0:0:
292,154,549921,1,0,1:0:0:0:
184,226,550078,1,0,1:0:0:0:
173,21,550235,6,0,L|177:124,1,100,0|0,1:0|1:0,1:0:0:0:
184,338,550550,2,0,L|184:235,1,100,0|0,1:0|1:0,1:0:0:0:
361,79,550864,6,0,P|302:134|268:145,1,100,0|0,1:0|1:0,1:0:0:0:
0,84,551178,6,0,P|59:139|93:150,1,100,0|0,1:0|1:0,1:0:0:0:
360,77,551492,5,0,1:0:0:0:
216,248,551806,1,0,1:0:0:0:
419,204,552120,5,0,1:0:0:0:
230,86,552434,2,0,L|321:83,1,50,0|0,1:0|1:0,1:0:0:0:
344,160,552592,2,0,L|344:227,1,50,0|0,1:0|1:0,1:0:0:0:
233,251,552749,1,0,1:0:0:0:
63,163,553063,5,0,1:0:0:0:
336,152,553377,1,0,1:0:0:0:
338,281,553534,1,0,1:0:0:0:
335,151,553691,1,0,1:0:0:0:
338,281,553848,1,0,1:0:0:0:
196,157,554005,1,0,1:0:0:0:
341,51,554319,1,0,1:0:0:0:
213,280,554633,1,0,1:0:0:0:
138,95,554790,5,0,1:0:0:0:
138,95,554869,1,0,1:0:0:0:
138,95,554948,1,0,1:0:0:0:
288,169,555105,1,0,1:0:0:0:
85,310,555262,6,0,L|82:225,7,50,0|0|0|0|0|0|0|0,1:0|1:0|1:0|1:0|1:0|1:0|1:0|1:0,1:0:0:0:
169,222,555890,6,0,L|166:137,7,50,0|0|0|0|0|0|0|0,1:0|1:0|1:0|1:0|1:0|1:0|1:0|1:0,1:0:0:0:
398,71,556518,6,0,P|402:154|393:171,2,100,0|0|0,1:0|1:0|1:0,1:0:0:0:
268,77,556989,1,0,1:0:0:0:
270,206,557146,1,0,1:0:0:0:
303,206,557225,1,0,1:0:0:0:
337,205,557304,1,0,1:0:0:0:
268,77,557461,5,0,1:0:0:0:
168,79,557618,1,0,1:0:0:0:
169,178,557775,1,0,1:0:0:0:
268,77,557932,1,0,1:0:0:0:
268,176,558089,1,0,1:0:0:0:
168,79,558246,1,0,1:0:0:0:
68,78,558403,1,0,1:0:0:0:
78,300,558717,6,0,L|183:300,2,100,0|0|0,1:0|1:0|1:0,1:0:0:0:
265,298,559188,1,0,1:0:0:0:
263,198,559345,1,0,1:0:0:0:
162,199,559503,1,0,1:0:0:0:
344,299,559660,1,0,1:0:0:0:
344,299,559738,1,0,1:0:0:0:
344,299,559817,1,0,1:0:0:0:
344,132,559974,2,0,L|448:132,1,100,0|0,1:0|1:0,1:0:0:0:
256,208,560288,5,0,1:0:0:0:
448,128,560445,2,0,L|448:232,1,100,0|0,1:0|1:0,1:0:0:0:
260,120,560759,1,0,1:0:0:0:
448,228,560916,2,0,L|344:228,1,100,0|0,1:0|1:0,1:0:0:0:
444,48,561230,1,0,1:0:0:0:
448,224,561387,1,0,1:0:0:0:
444,36,561544,6,0,L|344:36,1,100,0|0,1:0|1:0,1:0:0:0:
260,120,561859,2,0,L|152:120,1,100,0|0,1:0|1:0,1:0:0:0:
96,304,562173,1,0,1:0:0:0:
96,269,562251,1,0,1:0:0:0:
96,233,562330,1,0,1:0:0:0:
261,120,562487,6,0,P|278:186|272:223,1,100,0|0,1:0|1:0,1:0:0:0:
96,132,562801,1,0,1:0:0:0:
270,220,562958,2,0,P|201:202|179:177,1,100,0|0,1:0|1:0,1:0:0:0:
284,106,563272,1,0,1:0:0:0:
287,327,563429,1,0,1:0:0:0:
397,325,563586,1,0,1:0:0:0:
99,111,563743,6,0,P|132:180|158:195,1,100,0|0,1:0|1:0,1:0:0:0:
284,106,564057,2,0,P|343:108|385:86,1,100,0|0,1:0|1:0,1:0:0:0:
281,221,564372,2,0,L|278:327,1,100,0|0,1:0|1:0,1:0:0:0:
103,302,564686,5,0,1:0:0:0:
103,267,564764,1,0,1:0:0:0:
103,231,564843,1,0,1:0:0:0:
282,42,565000,6,0,P|296:111|319:131,1,100,0|0,1:0|1:0,1:0:0:0:
380,155,565314,1,0,1:0:0:0:
379,264,565471,1,0,1:0:0:0:
269,264,565628,1,0,1:0:0:0:
380,155,565785,1,0,1:0:0:0:
269,264,565942,1,0,1:0:0:0:
269,154,566099,1,0,1:0:0:0:
466,326,566256,2,0,L|465:224,1,100,0|0,1:0|1:0,1:0:0:0:
464,135,566571,1,0,1:0:0:0:
387,86,566728,1,0,1:0:0:0:
297,86,566885,1,0,1:0:0:0:
219,131,567042,1,0,1:0:0:0:
353,219,567199,5,0,1:0:0:0:
354,258,567277,1,0,1:0:0:0:
356,297,567356,1,0,1:0:0:0:
152,292,567513,2,0,P|126:234|127:190,1,100,0|0,1:0|1:0,1:0:0:0:
360,292,567827,2,0,P|386:234|385:190,1,100,0|0,1:0|1:0,1:0:0:0:
151,92,568141,2,0,P|129:136|125:185,1,100,0|0,1:0|1:0,1:0:0:0:
376,94,568455,1,0,1:0:0:0:
257,324,568770,6,0,B|256:295|312:221|202:221|256:148|256:121,1,200,0|0,1:0|1:0,1:0:0:0:
62,153,569241,2,0,P|81:229|110:256,1,100,0|0,1:0|1:0,1:0:0:0:
450,153,569555,2,0,P|431:229|402:256,1,100,0|0,1:0|1:0,1:0:0:0:
382,268,569790,1,0,1:0:0:0:
346,276,569869,1,0,1:0:0:0:
331,54,570026,6,0,L|330:157,1,100,0|0,1:0|1:0,1:0:0:0:
144,255,570340,1,0,1:0:0:0:
191,140,570497,1,0,1:0:0:0:
79,184,570654,1,0,1:0:0:0:
287,239,570811,1,0,1:0:0:0:
177,50,570968,1,0,1:0:0:0:
179,309,571126,1,0,1:0:0:0:
288,93,571283,1,0,1:0:0:0:
79,184,571440,1,0,1:0:0:0:
420,276,571597,6,0,L|422:159,1,100,0|0,1:0|1:0,1:0:0:0:
218,91,571911,2,0,L|214:200,1,100,0|0,1:0|1:0,1:0:0:0:
415,352,572225,1,0,1:0:0:0:
415,352,572304,1,0,1:0:0:0:
415,352,572382,1,0,1:0:0:0:
412,200,572539,2,0,P|330:203|288:227,1,100,0|0,1:0|1:0,1:0:0:0:
131,282,572853,2,0,P|213:279|255:255,1,100,0|0,1:0|1:0,1:0:0:0:
198,100,573167,2,0,P|235:156|248:202,1,100,0|0,1:0|1:0,1:0:0:0:
244,345,573482,1,0,1:0:0:0:
86,210,573639,1,0,1:0:0:0:
86,210,573796,2,0,L|204:212,2,100,0|0|0,1:0|1:0|1:0,1:0:0:0:
303,115,574267,6,0,P|317:191|329:211,1,100,0|0,1:0|1:0,1:0:0:0:
443,246,574581,1,0,1:0:0:0:
230,115,574738,1,0,1:0:0:0:
197,131,574817,1,0,1:0:0:0:
173,162,574895,1,0,1:0:0:0:
269,242,575052,1,0,1:0:0:0:
339,176,575209,1,0,1:0:0:0:
76,176,575366,6,0,L|74:282,1,100,0|0,1:0|1:0,1:0:0:0:
173,62,575681,2,0,L|172:188,1,100,0|0,1:0|1:0,1:0:0:0:
268,180,575995,2,0,L|270:287,1,100,0|0,1:0|1:0,1:0:0:0:
266,82,576309,1,0,1:0:0:0:
270,312,576466,1,0,1:0:0:0:
493,179,576623,6,0,P|435:202|382:169,1,100,0|0,1:0|1:0,1:0:0:0:
438,40,576937,2,0,L|440:146,1,100,0|0,1:0|1:0,1:0:0:0:
444,244,577251,1,0,1:0:0:0:
244,240,577565,5,0,1:0:0:0:
208,243,577644,1,0,1:0:0:0:
173,238,577722,1,0,1:0:0:0:
142,221,577801,1,0,1:0:0:0:
120,193,577879,1,0,1:0:0:0:
112,158,577958,1,0,1:0:0:0:
140,137,578037,1,0,1:0:0:0:
167,115,578115,1,0,1:0:0:0:
176,81,578194,2,0,L|233:89,3,50,0|0|0|0,1:0|1:0|1:0|1:0,1:0:0:0:
299,152,578508,1,0,1:0:0:0:
296,304,578665,1,0,1:0:0:0:
144,224,578822,1,0,1:0:0:0:
344,224,578979,1,0,1:0:0:0:
440,329,579136,6,0,P|384:321|341:332,1,100,0|0,1:0|1:0,1:0:0:0:
222,193,579450,2,0,P|289:190|322:177,1,100,0|0,1:0|1:0,1:0:0:0:
84,60,579764,1,0,1:0:0:0:
104,232,580078,5,0,1:0:0:0:
137,237,580157,1,0,1:0:0:0:
171,235,580235,1,0,1:0:0:0:
195,210,580314,1,0,1:0:0:0:
227,195,580393,1,0,1:0:0:0:
261,200,580471,1,0,1:0:0:0:
286,224,580550,1,0,1:0:0:0:
319,233,580628,1,0,1:0:0:0:
350,217,580707,2,0,L|352:157,3,50,0|0|0|0,1:0|1:0|1:0|1:0,1:0:0:0:
439,114,581021,2,0,L|437:188,3,50,0|0|0|0,1:0|1:0|1:0|1:0,1:0:0:0:
437,275,581335,1,0,1:0:0:0:
307,79,581492,1,0,1:0:0:0:
300,326,581649,6,0,L|193:325,2,100,0|0|0,1:0|1:0|1:0,1:0:0:0:
156,227,582120,1,0,1:0:0:0:
419,142,582277,5,0,1:0:0:0:
417,177,582356,1,0,1:0:0:0:
414,211,582434,1,0,1:0:0:0:
411,246,582513,1,0,1:0:0:0:
409,281,582592,2,0,L|307:271,1,100,0|0,1:0|1:0,1:0:0:0:
236,263,582827,1,0,1:0:0:0:
236,263,582906,1,0,1:0:0:0:
241,112,583063,1,0,1:0:0:0:
86,201,583220,5,0,1:0:0:0:
231,186,583377,1,0,1:0:0:0:
105,61,583534,5,0,1:0:0:0:
161,190,583691,1,0,1:0:0:0:
260,64,583848,5,0,1:0:0:0:
132,128,584005,1,0,1:0:0:0:
393,278,584162,6,0,L|393:210,3,50,0|0|0|0,1:0|1:0|1:0|1:0,1:0:0:0:
296,163,584476,2,0,L|298:223,3,50,0|0|0|0,1:0|1:0|1:0|1:0,1:0:0:0:
384,131,584790,2,0,L|383:72,3,50,0|0|0|0,1:0|1:0|1:0|1:0,1:0:0:0:
291,53,585105,2,0,L|239:54,3,50,0|0|0|0,1:0|1:0|1:0|1:0,1:0:0:0:
135,106,585419,5,0,1:0:0:0:
136,145,585497,1,0,1:0:0:0:
147,183,585576,1,0,1:0:0:0:
173,212,585654,1,0,1:0:0:0:
210,227,585733,1,0,1:0:0:0:
249,226,585811,1,0,1:0:0:0:
283,204,585890,1,0,1:0:0:0:
298,167,585968,1,0,1:0:0:0:
326,138,586047,1,0,1:0:0:0:
366,139,586126,1,0,1:0:0:0:
401,157,586204,1,0,1:0:0:0:
420,191,586283,1,0,1:0:0:0:
414,230,586361,2,0,P|379:278|247:217,1,200
256,192,597984,12,0,599555,0:0:0:0:
117,111,600147,5,0,0:0:0:0:
148,124,600225,1,0,0:0:0:0:
172,149,600304,1,0,0:0:0:0:
182,182,600382,1,0,0:0:0:0:
201,211,600461,1,0,0:0:0:0:
231,227,600539,1,0,0:0:0:0:
265,234,600618,1,0,0:0:0:0:
299,230,600696,1,0,0:0:0:0:
329,213,600775,2,0,P|358:182|365:160,3,50
384,98,601089,2,0,P|351:71|328:65,3,50
242,69,601403,5,0,0:0:0:0:
250,103,601482,1,0,0:0:0:0:
250,137,601560,1,0,0:0:0:0:
233,168,601639,1,0,0:0:0:0:
206,191,601717,1,0,0:0:0:0:
198,225,601796,1,0,0:0:0:0:
164,235,601874,1,0,0:0:0:0:
128,237,601953,1,0,0:0:0:0:
94,228,602031,2,0,L|52:200,1,50
120,110,602188,2,0,L|95:59,1,50
222,81,602345,2,0,L|223:18,1,50
315,114,602503,2,0,L|340:63,1,50
407,216,602660,5,0,0:0:0:0:
390,246,602738,1,0,0:0:0:0:
359,263,602817,1,0,0:0:0:0:
324,264,602895,1,0,0:0:0:0:
290,252,602974,1,0,0:0:0:0:
265,227,603052,1,0,0:0:0:0:
232,213,603131,1,0,0:0:0:0:
197,217,603209,1,0,0:0:0:0:
168,237,603288,2,0,P|150:279|152:310,3,50
248,354,603602,2,0,P|242:329|229:308,3,50
162,237,603916,5,0,0:0:0:0:
137,211,603995,1,0,0:0:0:0:
126,177,604073,1,0,0:0:0:0:
129,141,604152,1,0,0:0:0:0:
148,112,604230,1,0,0:0:0:0:
182,103,604309,1,0,0:0:0:0:
213,89,604387,1,0,0:0:0:0:
235,61,604466,1,0,0:0:0:0:
241,26,604544,5,0,0:0:0:0:
238,66,604623,1,0,0:0:0:0:
256,101,604701,1,0,0:0:0:0:
287,125,604780,1,0,0:0:0:0:
325,135,604859,1,0,0:0:0:0:
364,138,604937,1,0,0:0:0:0:
403,129,605016,1,0,0:0:0:0:
430,100,605094,1,0,0:0:0:0:
455,68,605173,2,0,P|470:125|467:145,3,50
456,212,605487,2,0,P|399:227|379:224,3,50
299,225,605801,5,0,0:0:0:0:
264,225,605879,1,0,0:0:0:0:
231,212,605958,1,0,0:0:0:0:
205,177,606037,1,0,0:0:0:0:
185,148,606115,1,0,0:0:0:0:
162,121,606194,1,0,0:0:0:0:
129,109,606272,1,0,0:0:0:0:
94,113,606351,1,0,0:0:0:0:
66,134,606429,2,0,P|54:190|57:205,3,50
123,299,606743,2,0,P|135:243|132:228,3,50
162,121,607057,6,0,L|215:103,1,50
231,212,607215,2,0,L|284:230,1,50
327,124,607372,2,0,L|380:106,1,50
373,244,607529,2,0,L|437:268,1,50
323,248,607686,5,0,0:0:0:0:
288,248,607764,1,0,0:0:0:0:
254,236,607843,1,0,0:0:0:0:
227,213,607921,1,0,0:0:0:0:
212,180,608000,1,0,0:0:0:0:
186,156,608078,1,0,0:0:0:0:
152,145,608157,1,0,0:0:0:0:
117,151,608236,1,0,0:0:0:0:
90,174,608314,2,0,P|81:207|84:245,3,50
170,344,608628,2,0,P|162:320|161:296,3,50
159,218,608942,5,0,0:0:0:0:
182,191,609021,1,0,0:0:0:0:
186,156,609099,1,0,0:0:0:0:
175,122,609178,1,0,0:0:0:0:
151,96,609256,5,0,0:0:0:0:
181,113,609335,1,0,0:0:0:0:
215,118,609414,1,0,0:0:0:0:
249,115,609492,1,0,0:0:0:0:
283,108,609571,1,0,0:0:0:0:
315,95,609649,1,0,0:0:0:0:
340,70,609728,5,0,0:0:0:0:
336,104,609806,1,0,0:0:0:0:
357,131,609885,1,0,0:0:0:0:
358,167,609963,1,0,0:0:0:0:
383,190,610042,1,0,0:0:0:0:
413,201,610120,1,0,0:0:0:0:
449,198,610199,2,0,L|493:171,1,50
463,291,610356,2,0,L|419:318,1,50
340,313,610513,5,0,0:0:0:0:
326,299,610592,1,0,0:0:0:0:
315,285,610670,1,0,0:0:0:0:
305,273,610749,1,0,0:0:0:0:
295,261,610827,1,0,0:0:0:0:
105,328,610984,5,0,0:0:0:0:
284,249,611141,1,0,0:0:0:0:
159,384,611298,1,0,0:0:0:0:
271,235,611455,5,0,0:0:0:0:
264,228,611534,1,0,0:0:0:0:
257,221,611612,1,0,0:0:0:0:
250,215,611691,1,0,0:0:0:0:
210,213,611770,1,0,0:0:0:0:
204,207,611848,1,0,0:0:0:0:
198,199,611927,1,0,0:0:0:0:
193,191,612005,1,0,0:0:0:0:
184,180,612084,2,0,L|234:141,3,50
341,71,612398,2,0,L|279:17,3,50
202,26,612712,5,0,0:0:0:0:
190,35,612790,1,0,0:0:0:0:
178,44,612869,1,0,0:0:0:0:
166,53,612948,1,0,0:0:0:0:
154,63,613026,1,0,0:0:0:0:
142,72,613105,1,0,0:0:0:0:
130,81,613183,1,0,0:0:0:0:
118,90,613262,1,0,0:0:0:0:
106,99,613340,1,0,0:0:0:0:
121,292,613497,5,0,0:0:0:0:
97,109,613654,1,0,0:0:0:0:
224,237,613811,1,0,0:0:0:0:
97,109,613968,5,0,0:0:0:0:
103,116,614047,1,0,0:0:0:0:
109,123,614125,1,0,0:0:0:0:
115,130,614204,1,0,0:0:0:0:
156,134,614283,1,0,0:0:0:0:
161,141,614361,1,0,0:0:0:0:
166,149,614440,1,0,0:0:0:0:
171,157,614518,1,0,0:0:0:0:
175,163,614597,2,0,P|211:166|238:159,3,50
314,58,614911,2,0,P|361:78|368:88,3,50
465,198,615225,5,0,0:0:0:0:
447,207,615304,1,0,0:0:0:0:
428,214,615382,1,0,0:0:0:0:
408,217,615461,1,0,0:0:0:0:
388,215,615539,1,0,0:0:0:0:
368,209,615618,1,0,0:0:0:0:
350,198,615696,1,0,0:0:0:0:
335,184,615775,1,0,0:0:0:0:
324,161,615853,1,0,0:0:0:0:
307,141,615932,1,0,0:0:0:0:
286,127,616010,1,0,0:0:0:0:
262,118,616089,1,0,0:0:0:0:
237,114,616167,1,0,0:0:0:0:
211,116,616246,1,0,0:0:0:0:
186,122,616325,1,0,0:0:0:0:
166,137,616403,1,0,0:0:0:0:
148,157,616482,2,0,P|145:204|152:224,3,50
263,334,616796,2,0,P|266:287|259:267,3,50
237,184,617110,5,0,0:0:0:0:
249,176,617188,1,0,0:0:0:0:
261,167,617267,1,0,0:0:0:0:
273,159,617345,1,0,0:0:0:0:
285,151,617424,1,0,0:0:0:0:
309,169,617503,1,0,0:0:0:0:
321,161,617581,1,0,0:0:0:0:
333,152,617660,1,0,0:0:0:0:
345,144,617738,2,0,L|395:111,7,50
385,12,618366,2,0,L|343:39,7,50
208,48,618995,2,0,L|258:15,7,50
156,142,619623,5,0,0:0:0:0:
157,156,619701,1,0,0:0:0:0:
158,171,619780,1,0,0:0:0:0:
158,186,619859,1,0,0:0:0:0:
158,200,619937,1,0,0:0:0:0:
158,215,620016,1,0,0:0:0:0:
158,229,620094,1,0,0:0:0:0:
159,244,620173,1,0,0:0:0:0:
160,259,620251,1,0,0:0:0:0:
253,305,620408,1,0,0:0:0:0:
336,241,620565,6,0,L|349:190,3,50
158,229,620879,2,0,L|145:178,3,50
256,141,621194,2,0,L|256:109,4,25
385,53,621508,6,0,L|384:116,3,50
383,118,621822,1,0,0:0:0:0:
383,132,621900,1,0,0:0:0:0:
383,147,621979,1,0,0:0:0:0:
383,161,622057,1,0,0:0:0:0:
383,176,622136,1,0,0:0:0:0:
90,147,622450,5,0,0:0:0:0:
400,303,622764,5,0,0:0:0:0:
370,321,622843,1,0,0:0:0:0:
336,330,622921,1,0,0:0:0:0:
300,328,623000,1,0,0:0:0:0:
268,313,623078,1,0,0:0:0:0:
253,281,623157,1,0,0:0:0:0:
233,251,623236,1,0,0:0:0:0:
203,232,623314,1,0,0:0:0:0:
167,228,623393,1,0,0:0:0:0:
135,241,623471,1,0,0:0:0:0:
118,271,623550,1,0,0:0:0:0:
111,305,623628,1,0,0:0:0:0:
124,337,623707,1,0,0:0:0:0:
154,352,623785,1,0,0:0:0:0:
189,351,623864,1,0,0:0:0:0:
217,331,623942,1,0,0:0:0:0:
229,298,624021,6,0,L|238:240,1,50
249,129,624178,2,0,L|219:81,1,50
99,60,624335,2,0,L|139:119,1,50
63,194,624492,2,0,L|115:198,1,50
239,208,624649,5,0,0:0:0:0:
274,210,624728,1,0,0:0:0:0:
308,203,624806,1,0,0:0:0:0:
340,190,624885,1,0,0:0:0:0:
358,160,624963,1,0,0:0:0:0:
378,131,625042,1,0,0:0:0:0:
408,112,625120,1,0,0:0:0:0:
444,117,625199,1,0,0:0:0:0:
474,133,625277,1,0,0:0:0:0:
489,164,625356,1,0,0:0:0:0:
492,198,625434,1,0,0:0:0:0:
482,231,625513,1,0,0:0:0:0:
454,253,625592,5,0,0:0:0:0:
423,236,625670,1,0,0:0:0:0:
392,218,625749,1,0,0:0:0:0:
357,217,625827,1,0,0:0:0:0:
324,229,625906,1,0,0:0:0:0:
303,257,625984,1,0,0:0:0:0:
289,289,626063,1,0,0:0:0:0:
292,323,626141,1,0,0:0:0:0:
306,354,626220,1,0,0:0:0:0:
334,373,626298,1,0,0:0:0:0:
368,377,626377,1,0,0:0:0:0:
401,369,626455,1,0,0:0:0:0:
420,339,626534,6,0,L|395:287,1,50
348,190,626691,2,0,L|293:218,1,50
216,304,626848,6,0,L|191:252,1,50
152,184,627005,1,0,0:0:0:0:
141,147,627084,5,0,0:0:0:0:
139,111,627163,1,0,0:0:0:0:
151,78,627241,1,0,0:0:0:0:
178,56,627320,1,0,0:0:0:0:
212,48,627398,1,0,0:0:0:0:
246,50,627476,1,0,0:0:0:0:
272,72,627555,1,0,0:0:0:0:
284,104,627633,1,0,0:0:0:0:
305,131,627712,1,0,0:0:0:0:
333,150,627790,6,0,P|370:165|393:164,3,50
465,250,628105,2,0,P|428:265|405:264,3,50
314,271,628419,5,0,0:0:0:0:
279,276,628497,1,0,0:0:0:0:
244,283,628576,1,0,0:0:0:0:
210,291,628654,1,0,0:0:0:0:
176,301,628733,1,0,0:0:0:0:
142,311,628811,1,0,0:0:0:0:
108,322,628890,1,0,0:0:0:0:
74,332,628968,1,0,0:0:0:0:
42,348,629047,6,0,P|22:310|25:276,1,50
82,203,629204,2,0,P|80:160|98:130,1,50
197,150,629361,2,0,P|215:111|244:93,1,50
368,101,629518,2,0,P|349:139|320:157,1,50
319,168,629675,5,0,0:0:0:0:
290,188,629754,1,0,0:0:0:0:
258,202,629832,1,0,0:0:0:0:
233,227,629911,1,0,0:0:0:0:
214,256,629989,1,0,0:0:0:0:
202,289,630068,1,0,0:0:0:0:
199,324,630147,1,0,0:0:0:0:
204,358,630225,5,0,0:0:0:0:
196,318,630304,1,0,0:0:0:0:
173,285,630382,1,0,0:0:0:0:
134,272,630461,1,0,0:0:0:0:
92,289,630539,5,0,0:0:0:0:
68,244,630618,1,0,0:0:0:0:
48,198,630696,1,0,0:0:0:0:
57,148,630775,1,0,0:0:0:0:
98,121,630853,1,0,0:0:0:0:
148,119,630932,1,0,0:0:0:0:
187,148,631010,1,0,0:0:0:0:
230,173,631089,1,0,0:0:0:0:
278,185,631167,1,0,0:0:0:0:
328,182,631246,1,0,0:0:0:0:
371,157,631325,1,0,0:0:0:0:
399,116,631403,1,0,0:0:0:0:
402,65,631482,5,0,0:0:0:0:
399,116,631560,1,0,0:0:0:0:
416,163,631639,1,0,0:0:0:0:
453,195,631717,1,0,0:0:0:0:
465,243,631796,1,0,0:0:0:0:
441,286,631874,1,0,0:0:0:0:
395,306,631953,1,0,0:0:0:0:
345,302,632031,1,0,0:0:0:0:
310,265,632110,1,0,0:0:0:0:
271,296,632188,1,0,0:0:0:0:
231,327,632267,1,0,0:0:0:0:
181,331,632345,1,0,0:0:0:0:
131,324,632424,1,0,0:0:0:0:
90,293,632503,1,0,0:0:0:0:
75,245,632581,5,0,0:0:0:0:
124,254,632660,1,0,0:0:0:0:
171,241,632738,1,0,0:0:0:0:
209,208,632817,6,0,P|213:153|189:114,1,100
43,46,633131,2,0,P|102:50|155:35,1,100
280,50,633445,5,0,0:0:0:0:
350,158,633602,1,0,0:0:0:0:
141,40,633759,1,0,0:0:0:0:
405,83,633916,1,0,0:0:0:0:
138,173,634073,5,0,0:0:0:0:
340,217,634230,1,0,0:0:0:0:
147,265,634387,5,0,0:0:0:0:
294,297,634544,1,0,0:0:0:0:
273,80,634701,5,0,0:0:0:0:
138,173,634859,1,0,0:0:0:0:
273,80,635016,1,0,0:0:0:0:
336,224,635173,1,0,0:0:0:0:
144,80,635330,6,0,P|86:96|51:134,1,100
143,256,635644,2,0,P|203:250|242:273,1,100
346,337,635958,5,0,0:0:0:0:
432,260,636115,1,0,0:0:0:0:
245,169,636272,1,0,0:0:0:0:
443,122,636429,1,0,0:0:0:0:
239,267,636586,1,0,0:0:0:0:
345,59,636743,1,0,0:0:0:0:
432,260,636900,1,0,0:0:0:0:
244,162,637057,5,0,0:0:0:0:
443,122,637215,1,0,0:0:0:0:
256,79,637372,1,0,0:0:0:0:
447,34,637529,1,0,0:0:0:0:
263,0,637686,1,0,0:0:0:0:
347,257,637843,5,0,0:0:0:0:
338,269,637921,1,0,0:0:0:0:
329,281,638000,1,0,0:0:0:0:
321,293,638078,1,0,0:0:0:0:
312,305,638157,2,0,L|261:308,3,50
169,244,638471,2,0,L|226:238,3,50
305,166,638785,2,0,L|253:173,3,50
165,162,639099,5,0,0:0:0:0:
170,147,639178,1,0,0:0:0:0:
176,133,639256,1,0,0:0:0:0:
181,119,639335,1,0,0:0:0:0:
187,105,639414,2,0,L|262:92,3,50
347,81,639728,2,0,L|356:133,3,50
382,248,640042,2,0,L|369:188,3,50
280,278,640356,5,0,0:0:0:0:
265,277,640434,1,0,0:0:0:0:
249,275,640513,1,0,0:0:0:0:
233,273,640592,1,0,0:0:0:0:
218,272,640670,2,0,L|164:267,1,50
71,180,640827,6,0,L|127:183,1,50
136,183,640984,1,0,0:0:0:0:
150,184,641063,1,0,0:0:0:0:
164,185,641141,1,0,0:0:0:0:
179,186,641220,1,0,0:0:0:0:
193,189,641298,1,0,0:0:0:0:
207,191,641377,1,0,0:0:0:0:
221,192,641455,1,0,0:0:0:0:
236,193,641534,1,0,0:0:0:0:
250,196,641612,6,0,P|291:175|301:159,3,50
222,98,641927,2,0,P|186:65|178:43,3,50
304,53,642241,1,0,0:0:0:0:
439,209,642398,1,0,0:0:0:0:
223,98,642555,1,0,0:0:0:0:
445,116,642712,1,0,0:0:0:0:
300,234,642869,6,0,P|228:262|195:160,1,200
256,192,643340,12,0,645068,0:0:0:0:
137,112,655325,5,0,0:0:0:0:
197,323,655639,1,0,0:0:0:0:
406,255,655953,1,0,0:0:0:0:
238,191,656188,1,0,0:0:0:0:
397,107,656424,1,0,0:0:0:0:
301,326,656738,5,0,0:0:0:0:
224,162,656974,1,0,0:0:0:0:
383,244,657209,1,0,0:0:0:0:
203,263,657445,1,0,0:0:0:0:
344,150,657681,1,0,0:0:0:0:
224,152,657838,1,0,0:0:0:0:
435,39,658152,5,0,0:0:0:0:
356,265,658466,1,0,0:0:0:0:
300,94,658701,1,0,0:0:0:0:
459,178,658937,1,0,0:0:0:0:
220,205,659251,5,0,0:0:0:0:
118,56,659487,1,0,0:0:0:0:
112,235,659722,1,0,0:0:0:0:
247,56,659958,1,0,0:0:0:0:
247,236,660194,1,0,0:0:0:0:
366,235,660351,5,0,0:0:0:0:
153,346,660665,1,0,0:0:0:0:
392,360,660979,1,0,0:0:0:0:
303,202,661215,1,0,0:0:0:0:
217,359,661450,1,0,0:0:0:0:
125,137,661764,5,0,0:0:0:0:
291,66,662000,1,0,0:0:0:0:
138,160,662235,1,0,0:0:0:0:
308,100,662471,1,0,0:0:0:0:
285,278,662707,1,0,0:0:0:0:
246,164,662864,5,0,0:0:0:0:
483,340,663492,1,0,0:0:0:0:
501,19,664120,1,0,0:0:0:0:
325,182,664434,1,0,0:0:0:0:
483,36,664749,1,0,0:0:0:0:
351,158,664984,1,0,0:0:0:0:
256,192,665063,12,0,666633,0:0:0:0:
363,227,667890,6,0,P|366:184|361:169,3,50
286,56,668204,2,0,P|283:106|291:132,3,50
283,205,668518,2,0,P|233:199|212:189,3,50
184,100,668833,2,0,P|148:127|139:137,3,50
130,238,669147,1,0,0:0:0:0:
144,269,669225,1,0,0:0:0:0:
170,292,669304,1,0,0:0:0:0:
201,305,669382,1,0,0:0:0:0:
236,301,669461,1,0,0:0:0:0:
265,283,669539,1,0,0:0:0:0:
287,255,669618,1,0,0:0:0:0:
297,221,669696,1,0,0:0:0:0:
291,186,669775,1,0,0:0:0:0:
268,159,669853,5,0,0:0:0:0:
233,152,669932,1,0,0:0:0:0:
199,141,670011,1,0,0:0:0:0:
171,120,670089,1,0,0:0:0:0:
154,89,670168,1,0,0:0:0:0:
157,54,670246,1,0,0:0:0:0:
177,25,670325,1,0,0:0:0:0:
209,12,670403,6,0,P|265:20|284:31,3,50
349,110,670717,2,0,P|296:105|283:99,3,50
440,62,671031,2,0,P|453:111|452:121,3,50
449,215,671346,2,0,P|392:217|366:226,3,50
330,285,671660,1,0,0:0:0:0:
317,317,671738,1,0,0:0:0:0:
287,336,671817,1,0,0:0:0:0:
252,342,671895,1,0,0:0:0:0:
217,333,671974,1,0,0:0:0:0:
195,305,672052,1,0,0:0:0:0:
189,270,672131,1,0,0:0:0:0:
202,237,672209,1,0,0:0:0:0:
228,213,672288,5,0,0:0:0:0:
248,184,672367,1,0,0:0:0:0:
251,149,672445,1,0,0:0:0:0:
238,116,672524,1,0,0:0:0:0:
208,98,672602,1,0,0:0:0:0:
172,98,672681,1,0,0:0:0:0:
145,120,672759,1,0,0:0:0:0:
134,153,672838,1,0,0:0:0:0:
139,187,672916,6,0,P|171:221|187:224,3,50
251,149,673230,2,0,P|280:108|284:76,3,50
351,173,673544,2,0,P|339:195|322:213,3,50
269,286,673859,2,0,P|313:308|344:302,3,50
440,314,674173,1,0,0:0:0:0:
461,286,674251,1,0,0:0:0:0:
476,254,674330,1,0,0:0:0:0:
484,220,674408,1,0,0:0:0:0:
487,184,674487,1,0,0:0:0:0:
480,149,674565,1,0,0:0:0:0:
465,117,674644,1,0,0:0:0:0:
435,98,674722,1,0,0:0:0:0:
401,86,674801,5,0,0:0:0:0:
391,119,674879,1,0,0:0:0:0:
373,149,674958,1,0,0:0:0:0:
345,170,675037,1,0,0:0:0:0:
311,179,675115,1,0,0:0:0:0:
275,177,675194,1,0,0:0:0:0:
246,156,675272,1,0,0:0:0:0:
233,123,675351,1,0,0:0:0:0:
237,85,675429,6,0,P|259:56|283:46,3,50
401,86,675743,2,0,P|391:123|371:141,3,50
246,156,676057,2,0,P|236:211|247:250,3,50
370,289,676372,2,0,P|322:277|300:280,3,50
168,321,676686,1,0,0:0:0:0:
133,317,676764,1,0,0:0:0:0:
100,303,676843,1,0,0:0:0:0:
76,277,676921,1,0,0:0:0:0:
68,242,677000,1,0,0:0:0:0:
73,207,677078,1,0,0:0:0:0:
96,180,677157,1,0,0:0:0:0:
129,169,677235,1,0,0:0:0:0:
163,173,677314,5,0,0:0:0:0:
178,204,677393,1,0,0:0:0:0:
202,228,677471,1,0,0:0:0:0:
235,239,677550,1,0,0:0:0:0:
269,234,677628,1,0,0:0:0:0:
297,213,677707,1,0,0:0:0:0:
313,182,677785,1,0,0:0:0:0:
314,146,677864,1,0,0:0:0:0:
302,113,677942,2,0,P|248:106|221:118,3,50
113,169,678256,2,0,P|172:171|209:161,3,50
313,182,678571,5,0,0:0:0:0:
332,183,678649,1,0,0:0:0:0:
351,186,678728,1,0,0:0:0:0:
370,188,678806,1,0,0:0:0:0:
389,191,678885,2,0,P|379:227|356:250,1,50
261,278,679042,2,0,P|251:314|228:337,1,50
166,236,679199,6,0,P|127:205|112:181,3,50
115,71,679513,2,0,P|158:94|166:104,3,50
245,166,679827,6,0,P|271:152|288:130,1,50
402,136,679984,2,0,P|399:72|389:57,1,50
319,0,680141,2,0,P|312:36|320:71,1,50
349,189,680298,1,0,0:0:0:0:
355,207,680377,1,0,0:0:0:0:
361,225,680455,6,0,P|327:272|304:280,3,50
189,292,680770,2,0,P|226:250|252:241,3,50
229,97,681084,1,0,0:0:0:0:
212,108,681162,1,0,0:0:0:0:
195,119,681241,1,0,0:0:0:0:
179,131,681319,1,0,0:0:0:0:
164,145,681398,2,0,P|136:193|108:212,1,50
34,189,681555,2,0,P|31:133|38:121,1,50
23,27,681712,6,0,P|74:35|107:26,3,50
260,99,682026,6,0,P|209:107|176:98,3,50
110,201,682340,1,0,0:0:0:0:
122,217,682419,1,0,0:0:0:0:
133,232,682497,1,0,0:0:0:0:
145,247,682576,1,0,0:0:0:0:
157,262,682654,2,0,P|210:293|242:297,1,50
345,248,682811,2,0,P|292:225|279:213,1,50
278,111,682968,6,0,L|247:149,3,50
212,280,683282,2,0,P|252:236|268:202,3,50
343,153,683597,1,0,0:0:0:0:
356,139,683675,1,0,0:0:0:0:
370,126,683754,1,0,0:0:0:0:
384,113,683832,1,0,0:0:0:0:
398,101,683911,2,0,P|418:132|420:164,1,50
380,255,684068,2,0,P|400:286|402:318,1,50
286,299,684225,6,0,P|237:308|209:303,3,50
128,229,684539,2,0,P|173:211|186:212,3,50
285,193,684853,6,0,P|291:164|286:136,1,50
365,55,685010,2,0,P|314:15|296:12,1,50
208,29,685167,2,0,P|230:57|262:74,1,50
370,150,685324,1,0,0:0:0:0:
383,162,685403,1,0,0:0:0:0:
397,175,685481,2,0,P|389:231|372:250,7,50
342,315,686110,2,0,P|318:266|318:246,7,50
307,174,686738,1,0,0:0:0:0:
108,269,687052,1,0,0:0:0:0:
179,60,687366,1,0,0:0:0:0:
124,216,687602,1,0,0:0:0:0:
284,177,687838,1,0,0:0:0:0:
256,192,687995,12,0,693299,0:0:0:0:
62,148,693613,5,0,0:0:0:0:
62,148,693927,2,0,P|114:165|163:162,1,82.5000025177003
285,69,694398,1,0,0:0:0:0:
287,299,694712,1,0,0:0:0:0:
175,165,694948,1,0,0:0:0:0:
347,156,695183,2,0,P|346:114|307:77,1,82.5000025177003
166,4,695655,1,0,0:0:0:0:
237,94,695812,2,0,L|224:206,1,110.000003356934
9,369,696440,2,0,L|27:269,1,82.5000025177003
60,118,696911,5,0,0:0:0:0:
246,254,697225,1,0,0:0:0:0:
391,159,697461,1,0,0:0:0:0:
247,62,697696,1,0,0:0:0:0:
389,160,697932,1,0,0:0:0:0:
239,72,698168,1,0,0:0:0:0:
387,31,698322,2,0,P|389:77|325:39,1,150.000005722046
45,200,698950,6,0,L|162:204,1,112.500004291535
393,217,699421,1,0,0:0:0:0:
90,304,699735,1,0,0:0:0:0:
326,317,699971,1,0,0:0:0:0:
119,203,700206,1,0,0:0:0:0:
344,132,700442,1,0,0:0:0:0:
128,34,700678,1,0,0:0:0:0:
225,157,700835,2,0,P|288:235|346:235,1,150.000005722046
334,25,701463,1,0,0:0:0:0:
478,211,701698,1,0,0:0:0:0:
241,209,701934,1,0,0:0:0:0:
384,80,708374,6,0,P|376:144|392:184,1,100
448,256,708688,1,0,0:0:0:0:
272,192,708845,1,0,0:0:0:0:
448,256,709002,2,0,B|384:264|384:264|344:296|336:344,1,150
416,350,709316,2,0,L|448:254,1,100
384,80,709630,2,0,P|334:95|272:88,1,100
200,32,709945,1,0,0:0:0:0:
232,216,710102,1,0,0:0:0:0:
200,32,710259,6,0,P|128:64|104:144,1,150
112,160,710573,2,0,P|168:144|216:160,1,100
299,280,710887,2,0,P|267:328|171:248,1,200
269,154,711358,1,0,0:0:0:0:
154,37,711515,2,0,P|165:104|110:160,1,150
326,56,711829,2,0,P|371:89|387:163,1,125
345,321,712143,5,0,0:0:0:0:
226,229,712301,1,0,0:0:0:0:
373,200,712458,1,0,0:0:0:0:
226,325,712615,1,0,0:0:0:0:
305,121,712772,1,0,0:0:0:0:
439,326,712929,1,0,0:0:0:0:
188,214,713086,1,0,0:0:0:0:
414,191,713243,1,0,0:0:0:0:
208,118,713400,6,0,P|201:187|161:245,1,100
123,137,713714,2,0,P|130:76|205:27,1,150
208,118,714028,6,0,P|276:117|308:102,1,100
390,45,714342,1,0,0:0:0:0:
322,292,714500,1,0,0:0:0:0:
201,154,714657,2,0,P|159:156|100:129,1,100
286,107,714971,2,0,P|298:186|223:254,1,150
173,291,715285,6,0,P|208:338|270:355,1,100
368,307,715599,1,0,0:0:0:0:
174,193,715756,1,0,0:0:0:0:
372,89,715913,6,0,P|372:147|341:195,1,100
174,193,716227,2,0,P|198:131|251:97,1,100
176,313,716541,6,0,P|105:305|62:230,1,150
57,155,716856,2,0,P|109:147|118:73,1,100
91,20,717170,5,0,0:0:0:0:
4,105,717327,1,0,0:0:0:0:
216,82,717484,5,0,0:0:0:0:
139,182,717641,1,0,0:0:0:0:
386,138,717798,5,0,0:0:0:0:
238,164,717955,1,0,0:0:0:0:
443,255,718112,5,0,0:0:0:0:
125,255,718269,1,0,0:0:0:0:
386,138,718426,6,0,P|438:108|462:56,1,100
362,309,718740,2,0,P|301:300|254:263,1,100
228,162,719054,2,0,P|282:133|224:76,1,150
142,175,719369,6,0,P|160:235|198:263,1,100
261,345,719683,2,0,L|131:344,1,100
7,255,719997,2,0,L|116:257,1,100
364,250,720311,2,0,P|403:198|316:156,1,150
269,246,720625,2,0,B|269:324|350:351,1,100
480,345,720939,1,0,0:0:0:0:
364,250,721096,1,0,0:0:0:0:
480,345,721253,2,0,L|479:223,1,100
382,44,721568,2,0,B|396:117|396:117|378:198,1,150
365,243,721882,1,0,0:0:0:0:
255,183,722039,1,0,0:0:0:0:
96,74,722196,6,0,P|85:141|97:176,1,100
255,183,722510,1,0,0:0:0:0:
96,74,722667,1,0,0:0:0:0:
286,104,722824,1,0,0:0:0:0:
72,159,722981,1,0,0:0:0:0:
255,183,723138,2,0,P|317:211|327:252,1,100
59,232,723452,2,0,P|139:187|78:89,1,200
307,312,724081,2,0,P|373:309|330:241,1,150
402,40,724552,2,0,L|265:205,1,200
66,87,725102,1,0,0:0:0:0:
241,70,725337,1,0,0:0:0:0:
91,204,725573,1,0,0:0:0:0:
241,70,725808,1,0,0:0:0:0:
206,313,725965,2,0,P|266:324|326:204,1,200
95,93,726594,2,0,P|172:57|274:140,1,200
457,143,727222,6,0,L|341:179,1,100
395,306,727536,2,0,L|277:255,1,100
105,239,727850,2,0,L|178:155,1,100
313,24,728164,2,0,L|310:142,1,100
256,192,728479,12,0,733819,0:0:0:0:
188,97,738426,6,0,L|227:170,1,80
