osu file format v14

[General]
AudioFilename: BLUE DRAGON.mp3
AudioLeadIn: 0
PreviewTime: 32218
Countdown: 0
SampleSet: Soft
StackLeniency: 0.7
Mode: 0
LetterboxInBreaks: 0
WidescreenStoryboard: 0

[Editor]
Bookmarks: 23108,33161,43213,53266,63318,73370,83423,104784,132428,142480,152533,157245,162585,172637
DistanceSpacing: 1.6
BeatDivisor: 8
GridSize: 4
TimelineZoom: 1.4

[Metadata]
Title:BLUE DRAGON
TitleUnicode:BLUE DRAGON
Artist:Seiryu
ArtistUnicode:青龍
Creator:Blue Dragon
Version:grumd's Extra
Source:
Tags:ryu jubeat plus android reflec beat ポップンリズミン grumd kyshiro doyak tarrasky mkguh leader fieryrage snownino_ silverboxer
BeatmapID:898575
BeatmapSetID:326920

[Difficulty]
HPDrainRate:6
CircleSize:4.2
OverallDifficulty:8.2
ApproachRate:9.5
SliderMultiplier:1.3
SliderTickRate:1

[Events]
//Background and Video events
0,0,"wallpaper-1881159.jpg",0,0
//Break Periods
2,83623,104573
//Storyboard Layer 0 (Background)
//Storyboard Layer 1 (Fail)
//Storyboard Layer 2 (Pass)
//Storyboard Layer 3 (Foreground)
//Storyboard Sound Samples

[TimingPoints]
23109,314.13612565445,4,2,0,60,1,0
23109,-100,4,2,0,60,0,0
28135,-100,4,2,0,80,0,0
30648,-100,4,2,0,90,0,0
33160,-83.3333333333333,4,2,0,90,0,0
33161,-83.3333333333333,4,2,0,100,0,1
43213,-90.9090909090909,4,2,0,100,0,0
82166,-90.9090909090909,4,2,0,85,0,0
83423,-90.9090909090909,4,2,0,70,0,0
105098,-133.333333333333,4,2,0,60,0,0
116093,-100,4,2,0,40,0,0
116171,-100,4,2,0,5,0,0
117349,-100,4,2,0,40,0,0
117428,-100,4,2,0,15,0,0
118606,-100,4,2,0,40,0,0
118684,-100,4,2,0,25,0,0
119862,-100,4,2,0,40,0,0
119941,-100,4,2,0,35,0,0
121119,-80,4,2,0,35,0,0
121747,-80,4,2,0,45,0,0
122376,-80,4,2,0,55,0,0
123004,-80,4,2,0,65,0,0
123632,-76.9230769230769,4,2,0,65,0,0
126145,-76.9230769230769,4,2,0,10,0,0
126773,-76.9230769230769,4,2,0,20,0,0
127402,-76.9230769230769,4,2,0,30,0,0
128030,-76.9230769230769,4,2,0,40,0,0
128658,-76.9230769230769,4,2,0,50,0,0
129287,-76.9230769230769,4,2,0,60,0,0
131171,-76.9230769230769,4,2,0,5,0,0
131485,-76.9230769230769,4,2,0,80,0,0
132428,-76.9230769230769,4,2,0,100,0,1
141852,-100,4,2,0,100,0,0
142480,-76.9230769230769,4,2,0,100,0,0
151276,-100,4,2,0,100,0,0
152533,-76.9230769230769,4,2,0,100,0,0
170124,-83.3333333333333,4,2,0,100,0,0

[Colours]
Combo1 : 47,173,249
Combo2 : 128,255,255
Combo3 : 1,96,254
Combo4 : 104,72,253

[HitObjects]
92,292,22165,5,2,0:0:0:0:
172,256,22479,1,0,0:0:0:0:
292,292,22794,1,2,0:0:0:0:
336,132,23108,6,0,L|320:48,1,65,0|0,0:0|0:0,0:0:0:0:
383,198,23423,2,0,L|395:261,1,65,0|2,0:0|0:0,0:0:0:0:
252,233,23737,2,0,L|268:149,1,65,2|0,0:0|0:0,0:0:0:0:
205,299,24051,2,0,L|193:362,1,65,0|2,0:0|0:0,0:0:0:0:
59,233,24365,5,0,0:0:0:0:
95,164,24522,1,0,0:0:0:0:
168,138,24679,2,0,P|204:146|241:164,1,65,2|0,0:0|0:0,0:0:0:0:
283,307,24993,1,2,0:0:0:0:
448,277,25150,1,0,0:0:0:0:
302,297,25307,2,0,L|228:285,1,65,2|0,0:0|0:0,0:0:0:0:
176,339,25622,5,2,0:0:0:0:
104,308,25779,2,0,L|95:234,1,65,0|0,0:0|0:0,0:0:0:0:
259,193,26093,1,2,0:0:0:0:
106,231,26250,1,2,0:0:0:0:
37,180,26407,2,0,L|50:92,1,65,0|0,0:0|0:0,0:0:0:0:
117,82,26721,1,0,0:0:0:0:
288,124,26878,6,0,P|319:120|356:107,1,65,0|0,0:0|0:0,0:0:0:0:
480,230,27192,2,0,P|453:218|417:211,1,65,2|0,0:0|0:0,0:0:0:0:
344,236,27506,1,2,0:0:0:0:
301,301,27663,1,0,0:0:0:0:
231,337,27821,2,0,P|195:337|166:329,1,65,0|2,0:0|0:0,0:0:0:0:
119,169,28135,5,2,0:0:0:0:
128,183,28292,2,0,L|205:173,1,65,0|0,0:0|0:0,0:0:0:0:
261,211,28606,1,2,0:0:0:0:
358,64,28763,1,2,0:0:0:0:
349,78,28920,2,0,L|272:68,1,65,0|0,0:0|0:0,0:0:0:0:
212,99,29234,1,2,0:0:0:0:
149,255,29391,6,0,P|152:289|161:320,1,65,0|0,0:0|0:0,0:0:0:0:
314,208,29705,2,0,P|311:242|302:273,1,65,2|0,0:0|0:0,0:0:0:0:
257,149,30019,1,2,0:0:0:0:
395,204,30177,1,0,0:0:0:0:
465,169,30334,2,0,L|454:102,1,65,2|0,0:0|0:0,0:0:0:0:
289,76,30648,5,2,0:0:0:0:
262,222,30805,1,0,0:0:0:0:
276,89,30962,2,0,L|201:102,1,65,0|2,0:0|0:0,0:0:0:0:
139,76,31276,1,2,0:0:0:0:
3,166,31433,1,0,0:0:0:0:
30,312,31590,1,0,0:0:0:0:
15,180,31747,1,2,0:0:0:0:
388,266,32218,5,2,0:0:0:0:
313,75,32533,1,2,0:0:0:0:
176,329,32847,1,2,0:0:0:0:
55,99,33161,6,0,L|148:115,1,77.999997619629,4|0,0:0|0:0,0:0:0:0:
158,117,33396,1,0,0:0:0:0:
185,122,33475,1,8,0:0:0:0:
237,272,33632,1,2,0:0:0:0:
439,201,33789,1,2,0:0:0:0:
357,173,33946,1,0,0:0:0:0:
357,173,34025,1,0,0:0:0:0:
357,173,34103,1,8,0:0:0:0:
381,346,34260,1,2,0:0:0:0:
303,309,34417,6,0,P|264:313|224:326,1,77.999997619629,2|0,0:0|0:0,0:0:0:0:
30,256,34732,2,0,P|63:270|106:278,1,77.999997619629,10|0,0:0|0:0,0:0:0:0:
181,245,35046,1,2,0:0:0:0:
349,300,35203,1,0,0:0:0:0:
180,154,35360,2,0,L|201:233,1,77.999997619629,10|0,0:0|0:0,0:0:0:0:
228,80,35674,5,4,0:0:0:0:
403,122,35831,1,0,0:0:0:0:
403,122,35910,1,0,0:0:0:0:
403,122,35988,1,8,0:0:0:0:
248,71,36145,1,2,0:0:0:0:
291,278,36302,1,2,0:0:0:0:
327,202,36459,1,0,0:0:0:0:
327,202,36538,1,0,0:0:0:0:
327,202,36616,1,8,0:0:0:0:
132,243,36773,1,2,0:0:0:0:
301,300,36930,6,0,L|379:285,1,77.999997619629,2|0,0:0|0:0,0:0:0:0:
228,147,37245,1,10,0:0:0:0:
50,225,37402,2,0,P|45:306|105:350,1,155.999995239258,0|0,0:0|0:0,0:0:0:0:
177,328,37873,1,10,0:0:0:0:
206,176,38030,1,0,0:0:0:0:
193,350,38187,6,0,L|286:337,1,77.999997619629,4|0,0:0|0:0,0:0:0:0:
297,335,38423,1,0,0:0:0:0:
323,330,38501,1,8,0:0:0:0:
504,380,38658,1,2,0:0:0:0:
480,185,38815,1,2,0:0:0:0:
461,273,38972,1,0,0:0:0:0:
461,273,39051,1,0,0:0:0:0:
461,273,39129,1,8,0:0:0:0:
283,214,39287,1,2,0:0:0:0:
455,173,39444,6,0,P|448:133|426:90,1,77.999997619629,2|0,0:0|0:0,0:0:0:0:
297,237,39758,2,0,P|284:278|281:321,1,77.999997619629,10|0,0:0|0:0,0:0:0:0:
343,364,40072,1,2,0:0:0:0:
124,293,40229,1,0,0:0:0:0:
314,218,40386,2,0,L|404:231,1,77.999997619629,10|0,0:0|0:0,0:0:0:0:
445,168,40700,5,4,0:0:0:0:
486,341,40857,1,0,0:0:0:0:
486,341,40936,1,0,0:0:0:0:
486,341,41014,1,8,0:0:0:0:
398,319,41171,1,2,0:0:0:0:
474,161,41328,1,2,0:0:0:0:
304,188,41485,1,0,0:0:0:0:
304,188,41564,1,0,0:0:0:0:
304,188,41643,1,8,0:0:0:0:
336,105,41800,1,2,0:0:0:0:
211,178,41957,6,0,P|216:215|243:257,1,77.999997619629,2|0,0:0|0:0,0:0:0:0:
250,106,42271,1,2,0:0:0:0:
405,242,42428,2,0,P|398:307|315:353,1,155.999995239258,2|0,0:0|0:0,0:0:0:0:
247,336,42899,1,0,0:0:0:0:
180,67,43213,6,0,L|169:167,1,71.5000021820069,4|0,0:0|0:0,0:0:0:0:
246,177,43527,1,8,0:0:0:0:
305,21,43684,1,0,0:0:0:0:
344,199,43841,2,0,P|292:203|240:169,1,107.25000327301,2|0,0:0|0:0,0:0:0:0:
234,158,44156,1,8,0:0:0:0:
61,216,44313,1,0,0:0:0:0:
194,249,44470,6,0,L|208:328,1,71.5000021820069,2|0,0:0|0:0,0:0:0:0:
24,382,44784,2,0,L|33:303,1,71.5000021820069,8|0,0:0|0:0,0:0:0:0:
217,238,45098,2,0,P|212:180|185:139,1,107.25000327301,2|0,0:0|0:0,0:0:0:0:
165,125,45412,2,0,P|149:90|145:50,1,71.5000021820069,8|0,0:0|0:0,0:0:0:0:
99,217,45726,6,0,P|101:284|30:339,1,143.000004364014,4|8,0:0|0:0,0:0:0:0:
24,253,46198,1,0,0:0:0:0:
197,315,46355,2,0,P|246:281|313:281,1,107.25000327301,2|0,0:0|0:0,0:0:0:0:
316,282,46669,2,0,L|332:364,1,71.5000021820069,8|0,0:0|0:0,0:0:0:0:
496,177,46983,6,0,L|512:55,2,107.25000327301,2|0|0,0:0|0:0|0:0,0:0:0:0:
421,220,47611,2,0,P|386:218|343:204,1,71.5000021820069,2|0,0:0|0:0,0:0:0:0:
289,35,47925,1,8,0:0:0:0:
106,88,48082,1,0,0:0:0:0:
271,58,48239,6,0,L|259:144,1,71.5000021820069,4|0,0:0|0:0,0:0:0:0:
297,204,48554,1,8,0:0:0:0:
142,162,48711,1,0,0:0:0:0:
183,317,48868,1,2,0:0:0:0:
237,131,49025,1,0,0:0:0:0:
237,131,49103,1,0,0:0:0:0:
237,131,49182,2,0,P|272:115|308:110,1,71.5000021820069,8|0,0:0|0:0,0:0:0:0:
432,208,49496,6,0,P|399:247|393:303,1,107.25000327301,2|0,0:0|0:0,0:0:0:0:
403,323,49810,2,0,L|481:338,1,71.5000021820069,8|0,0:0|0:0,0:0:0:0:
274,244,50124,1,2,0:0:0:0:
225,310,50281,1,0,0:0:0:0:
228,334,50360,1,0,0:0:0:0:
232,358,50438,1,8,0:0:0:0:
69,273,50595,1,0,0:0:0:0:
126,110,50752,6,0,L|145:221,1,107.25000327301,4|0,0:0|0:0,0:0:0:0:
141,241,51067,2,0,P|170:220|211:210,1,71.5000021820069,8|0,0:0|0:0,0:0:0:0:
440,300,51381,2,0,P|385:303|331:271,1,107.25000327301,2|0,0:0|0:0,0:0:0:0:
323,260,51695,1,8,0:0:0:0:
496,231,51852,1,0,0:0:0:0:
345,132,52009,6,0,P|296:137|244:175,1,107.25000327301,2|2,0:0|0:0,0:0:0:0:
233,190,52323,1,0,0:0:0:0:
329,240,52480,1,0,0:0:0:0:
223,69,52637,2,0,L|151:86,1,71.5000021820069,2|0,0:0|0:0,0:0:0:0:
104,221,52951,1,2,0:0:0:0:
127,93,53108,1,0,0:0:0:0:
338,269,53266,6,0,L|328:359,1,71.5000021820069,4|0,0:0|0:0,0:0:0:0:
474,181,53580,1,8,0:0:0:0:
261,110,53737,1,0,0:0:0:0:
427,116,53894,2,0,L|350:137,1,71.5000021820069,2|0,0:0|0:0,0:0:0:0:
401,110,54129,2,0,L|511:80,1,107.25000327301,4|0,0:0|0:0,0:0:0:0:
455,253,54522,5,4,0:0:0:0:
375,230,54679,1,0,0:0:0:0:
459,378,54836,1,8,0:0:0:0:
474,244,54993,1,0,0:0:0:0:
294,330,55150,2,0,L|215:318,1,71.5000021820069,2|0,0:0|0:0,0:0:0:0:
271,315,55386,2,0,L|399:335,1,107.25000327301,4|0,0:0|0:0,0:0:0:0:
240,237,55779,5,4,0:0:0:0:
266,44,55936,1,0,0:0:0:0:
336,182,56093,1,10,0:0:0:0:
159,109,56250,1,0,0:0:0:0:
374,103,56407,2,0,L|450:88,1,71.5000021820069,2|0,0:0|0:0,0:0:0:0:
346,269,56721,1,10,0:0:0:0:
266,126,56878,1,0,0:0:0:0:
442,213,57035,5,6,0:0:0:0:
239,312,57192,1,0,0:0:0:0:
179,134,57349,1,10,0:0:0:0:
119,342,57506,1,0,0:0:0:0:
37,175,57663,2,0,P|40:134|51:97,1,71.5000021820069,2|0,0:0|0:0,0:0:0:0:
233,64,57978,1,8,0:0:0:0:
64,80,58135,1,0,0:0:0:0:
274,141,58292,6,0,L|259:223,1,71.5000021820069,4|0,0:0|0:0,0:0:0:0:
301,283,58606,1,8,0:0:0:0:
150,227,58763,1,0,0:0:0:0:
311,308,58920,2,0,L|388:291,1,71.5000021820069,2|0,0:0|0:0,0:0:0:0:
452,276,59156,2,0,L|340:302,1,107.25000327301,4|0,0:0|0:0,0:0:0:0:
465,194,59548,5,4,0:0:0:0:
424,357,59705,1,0,0:0:0:0:
437,186,59862,1,8,0:0:0:0:
475,286,60019,1,0,0:0:0:0:
359,162,60177,2,0,L|282:145,1,71.5000021820069,2|0,0:0|0:0,0:0:0:0:
218,130,60412,2,0,L|330:156,1,107.25000327301,4|0,0:0|0:0,0:0:0:0:
160,185,60805,5,4,0:0:0:0:
188,313,60962,1,0,0:0:0:0:
38,237,61119,1,8,0:0:0:0:
244,217,61276,1,0,0:0:0:0:
99,348,61433,1,2,0:0:0:0:
83,156,61590,1,0,0:0:0:0:
267,92,61747,1,8,0:0:0:0:
146,217,61904,1,0,0:0:0:0:
48,75,62061,6,0,L|62:170,1,71.5000021820069,2|0,0:0|0:0,0:0:0:0:
337,217,62376,2,0,L|348:132,1,71.5000021820069,2|0,0:0|0:0,0:0:0:0:
150,258,62690,1,2,0:0:0:0:
231,286,62847,1,0,0:0:0:0:
231,286,62925,1,0,0:0:0:0:
231,286,63004,1,2,0:0:0:0:
259,156,63161,1,0,0:0:0:0:
55,262,63318,6,0,L|136:246,1,71.5000021820069,4|0,0:0|0:0,0:0:0:0:
161,173,63632,1,8,0:0:0:0:
343,242,63789,1,0,0:0:0:0:
385,170,63946,2,0,P|380:133|367:97,1,71.5000021820069,2|0,0:0|0:0,0:0:0:0:
353,266,64260,2,0,P|387:280|425:286,1,71.5000021820069,8|0,0:0|0:0,0:0:0:0:
287,195,64574,6,0,P|257:217|232:247,1,71.5000021820069,2|0,0:0|0:0,0:0:0:0:
147,344,64889,2,0,P|197:315|207:234,1,143.000004364014,8|2,0:0|0:0,0:0:0:0:
19,209,65360,1,0,0:0:0:0:
133,267,65517,1,8,0:0:0:0:
172,98,65674,1,0,0:0:0:0:
43,203,65831,6,0,L|32:283,1,71.5000021820069,4|0,0:0|0:0,0:0:0:0:
110,153,66145,1,8,0:0:0:0:
92,71,66302,1,0,0:0:0:0:
199,242,66459,2,0,L|214:320,1,71.5000021820069,2|0,0:0|0:0,0:0:0:0:
366,335,66773,1,8,0:0:0:0:
419,182,66930,1,0,0:0:0:0:
464,359,67088,5,2,0:0:0:0:
335,218,67245,1,0,0:0:0:0:
506,129,67402,1,8,0:0:0:0:
296,82,67559,1,0,0:0:0:0:
259,268,67716,2,0,P|307:304|367:302,1,107.25000327301,2|0,0:0|0:0,0:0:0:0:
376,299,68030,2,0,L|392:208,1,71.5000021820069,8|0,0:0|0:0,0:0:0:0:
214,191,68344,5,4,0:0:0:0:
137,224,68501,1,0,0:0:0:0:
137,224,68580,1,0,0:0:0:0:
137,224,68658,1,8,0:0:0:0:
186,62,68815,1,0,0:0:0:0:
355,106,68972,2,0,L|368:178,1,71.5000021820069,2|0,0:0|0:0,0:0:0:0:
305,228,69287,1,8,0:0:0:0:
468,278,69444,1,0,0:0:0:0:
281,365,69601,5,2,0:0:0:0:
331,222,69758,1,0,0:0:0:0:
193,344,69915,2,0,L|103:324,1,71.5000021820069,8|0,0:0|0:0,0:0:0:0:
99,321,70150,1,0,0:0:0:0:
74,314,70229,1,2,0:0:0:0:
270,303,70386,1,0,0:0:0:0:
225,166,70543,2,0,L|148:181,1,71.5000021820069,8|0,0:0|0:0,0:0:0:0:
333,252,70857,6,0,P|372:289|444:294,1,107.25000327301,2|0,0:0|0:0,0:0:0:0:
447,292,71171,1,8,0:0:0:0:
470,125,71328,1,0,0:0:0:0:
468,282,71485,2,0,L|484:362,1,71.5000021820069,2|0,0:0|0:0,0:0:0:0:
370,178,71800,2,0,L|384:107,1,71.5000021820069,8|0,0:0|0:0,0:0:0:0:
165,147,72114,5,2,0:0:0:0:
345,193,72271,1,0,0:0:0:0:
106,249,72428,1,8,0:0:0:0:
356,217,72585,1,0,0:0:0:0:
176,173,72742,1,2,0:0:0:0:
229,349,72899,1,0,0:0:0:0:
350,100,73056,2,0,P|308:64|232:59,1,107.25000327301,8|0,0:0|0:0,0:0:0:0:
233,60,73370,5,4,0:0:0:0:
178,263,73527,1,0,0:0:0:0:
387,205,73684,2,0,L|465:224,1,71.5000021820069,8|0,0:0|0:0,0:0:0:0:
188,235,73999,1,2,0:0:0:0:
375,178,74156,1,0,0:0:0:0:
292,157,74313,1,8,0:0:0:0:
223,316,74470,1,0,0:0:0:0:
379,268,74627,6,0,L|390:185,1,71.5000021820069,2|0,0:0|0:0,0:0:0:0:
281,68,74941,2,0,L|271:138,1,71.5000021820069,8|0,0:0|0:0,0:0:0:0:
292,217,75255,1,2,0:0:0:0:
143,189,75412,1,0,0:0:0:0:
273,237,75569,1,8,0:0:0:0:
114,273,75726,1,0,0:0:0:0:
86,111,75883,5,2,0:0:0:0:
45,184,76040,1,0,0:0:0:0:
45,184,76119,1,0,0:0:0:0:
45,184,76198,1,8,0:0:0:0:
13,51,76355,1,0,0:0:0:0:
108,121,76512,2,0,L|184:113,1,71.5000021820069,2|0,0:0|0:0,0:0:0:0:
326,72,76826,2,0,L|254:79,1,71.5000021820069,8|0,0:0|0:0,0:0:0:0:
399,115,77140,5,2,0:0:0:0:
366,244,77297,1,0,0:0:0:0:
419,110,77454,1,8,0:0:0:0:
386,239,77611,1,0,0:0:0:0:
507,112,77768,2,0,P|497:73|477:42,1,71.5000021820069,2|0,0:0|0:0,0:0:0:0:
301,241,78082,2,0,P|311:202|331:171,1,71.5000021820069,8|0,0:0|0:0,0:0:0:0:
460,311,78396,6,0,P|420:353|339:358,1,143.000004364014,4|8,0:0|0:0,0:0:0:0:
279,233,78868,1,0,0:0:0:0:
125,271,79025,2,0,L|112:357,1,71.5000021820069,2|0,0:0|0:0,0:0:0:0:
194,228,79339,1,8,0:0:0:0:
41,251,79496,1,0,0:0:0:0:
206,208,79653,5,2,0:0:0:0:
81,170,79810,1,0,0:0:0:0:
136,40,79967,2,0,L|145:111,1,71.5000021820069,8|0,0:0|0:0,0:0:0:0:
302,151,80281,2,0,L|311:80,1,71.5000021820069,2|0,0:0|0:0,0:0:0:0:
337,229,80595,1,0,0:0:0:0:
290,370,80752,1,2,0:0:0:0:
229,200,80910,5,0,0:0:0:0:
148,226,81067,1,0,0:0:0:0:
148,226,81145,1,0,0:0:0:0:
148,226,81224,2,0,P|135:262|130:298,1,71.5000021820069,2|0,0:0|0:0,0:0:0:0:
277,346,81538,2,0,L|382:328,1,107.25000327301,2|0,0:0|0:0,0:0:0:0:
401,315,81852,2,0,L|324:329,1,71.5000021820069,2|0,0:0|0:0,0:0:0:0:
461,250,82166,5,2,0:0:0:0:
356,211,82323,1,0,0:0:0:0:
432,72,82480,1,2,0:0:0:0:
352,208,82637,1,0,0:0:0:0:
284,28,82794,1,2,0:0:0:0:
212,240,82951,1,0,0:0:0:0:
424,160,83108,1,2,0:0:0:0:
216,112,83266,1,0,0:0:0:0:
324,328,83423,5,4,0:0:0:0:
192,276,105098,6,0,P|136:268|84:240,2,97.50000371933,2|0|2,0:0|0:0|0:0,0:0:0:0:
436,204,106040,6,0,L|444:152,1,48.750001859665,2|0,0:0|0:0,0:0:0:0:
396,280,106355,2,0,L|404:332,1,48.750001859665,0|2,0:0|0:0,0:0:0:0:
346,212,106669,1,2,0:0:0:0:
316,314,106826,1,0,0:0:0:0:
325,223,106983,1,0,0:0:0:0:
244,272,107140,1,0,0:0:0:0:
336,311,107297,6,0,L|390:320,1,48.750001859665,0|0,0:0|0:0,0:0:0:0:
248,184,107611,2,0,L|188:192,1,48.750001859665,2|0,0:0|0:0,0:0:0:0:
150,253,107925,1,2,0:0:0:0:
177,347,108082,1,0,0:0:0:0:
78,277,108239,1,2,0:0:0:0:
194,337,108396,1,0,0:0:0:0:
64,293,108554,6,0,L|73:346,1,48.750001859665,2|0,0:0|0:0,0:0:0:0:
166,241,108868,2,0,L|173:192,1,48.750001859665,0|2,0:0|0:0,0:0:0:0:
236,280,109182,1,2,0:0:0:0:
319,305,109339,1,0,0:0:0:0:
390,253,109496,1,0,0:0:0:0:
492,302,109653,1,2,0:0:0:0:
408,242,109810,5,0,0:0:0:0:
334,320,109967,1,0,0:0:0:0:
254,265,110124,1,2,0:0:0:0:
401,160,110281,2,0,P|466:181|491:221,1,97.50000371933,0|0,0:0|0:0,0:0:0:0:
410,350,110752,2,0,L|346:358,1,48.750001859665,0|2,0:0|0:0,0:0:0:0:
311,296,111067,5,2,0:0:0:0:
253,364,111224,1,0,0:0:0:0:
226,237,111381,1,0,0:0:0:0:
329,284,111538,1,2,0:0:0:0:
171,304,111695,2,0,L|120:298,1,48.750001859665,2|0,0:0|0:0,0:0:0:0:
23,219,112009,2,0,L|71:224,1,48.750001859665,0|2,0:0|0:0,0:0:0:0:
110,309,112323,5,0,0:0:0:0:
237,249,112480,1,0,0:0:0:0:
266,351,112637,1,2,0:0:0:0:
215,249,112794,1,0,0:0:0:0:
319,194,112951,2,0,L|326:142,1,48.750001859665,2|0,0:0|0:0,0:0:0:0:
277,29,113266,2,0,L|270:77,1,48.750001859665,2|0,0:0|0:0,0:0:0:0:
214,136,113580,5,2,0:0:0:0:
150,66,113737,1,0,0:0:0:0:
117,195,113894,1,0,0:0:0:0:
126,73,114051,1,2,0:0:0:0:
41,94,114208,2,0,L|28:153,1,48.750001859665,2|0,0:0|0:0,0:0:0:0:
117,195,114522,1,0,0:0:0:0:
208,174,114679,1,2,0:0:0:0:
113,218,114836,5,0,0:0:0:0:
196,93,114993,1,0,0:0:0:0:
246,267,115150,1,2,0:0:0:0:
281,198,115307,2,0,L|387:183,1,97.50000371933,0|0,0:0|0:0,0:0:0:0:
453,109,115779,2,0,L|390:100,1,48.750001859665,0|0,0:0|0:0,0:0:0:0:
212,158,116093,6,0,L|206:214,15,32.5
142,235,117349,6,0,L|148:272,15,32.5
59,317,118606,6,0,L|54:368,15,32.5,0|0|0|0|0|0|0|0|0|0|0|0|0|0|0|0,0:0|0:0|0:0|0:0|0:0|0:0|0:0|0:0|0:0|0:0|0:0|0:0|0:0|0:0|0:0|0:0,0:0:0:0:
200,376,119862,6,0,L|192:333,15,32.5,0|0|0|0|0|0|0|0|0|0|0|0|0|0|0|0,0:0|0:0|0:0|0:0|0:0|0:0|0:0|0:0|0:0|0:0|0:0|0:0|0:0|0:0|0:0|0:0,0:0:0:0:
289,246,121119,6,0,L|295:205,7,40.625
402,193,121747,2,0,L|392:146,7,40.625,0|0|0|0|0|0|0|0,0:0|0:0|0:0|0:0|0:0|0:0|0:0|0:0,0:0:0:0:
238,126,122376,6,0,L|248:74,7,40.625,0|0|0|0|0|0|0|0,0:0|0:0|0:0|0:0|0:0|0:0|0:0|0:0,0:0:0:0:
133,197,123004,2,0,L|143:238,7,40.625,0|0|0|0|0|0|0|0,0:0|0:0|0:0|0:0|0:0|0:0|0:0|0:0,0:0:0:0:
246,304,123632,6,0,L|292:311,3,42.2499980659486,0|0|0|0,0:0|0:0|0:0|0:0,0:0:0:0:
337,248,123946,2,0,L|383:255,3,42.2499980659486,0|0|0|0,0:0|0:0|0:0|0:0,0:0:0:0:
232,204,124260,2,0,L|186:211,3,42.2499980659486,0|0|0|0,0:0|0:0|0:0|0:0,0:0:0:0:
141,148,124574,2,0,L|95:155,3,42.2499980659486,0|0|0|0,0:0|0:0|0:0|0:0,0:0:0:0:
215,41,124889,6,0,L|206:84,3,42.2499980659486,0|0|0|0,0:0|0:0|0:0|0:0,0:0:0:0:
289,75,125203,2,0,L|280:118,3,42.2499980659486,0|0|0|0,0:0|0:0|0:0|0:0,0:0:0:0:
363,109,125517,2,0,L|354:152,3,42.2499980659486,0|0|0|0,0:0|0:0|0:0|0:0,0:0:0:0:
437,143,125831,2,0,L|428:186,3,42.2499980659486,0|0|0|0,0:0|0:0|0:0|0:0,0:0:0:0:
256,192,126145,12,0,129915,0:0:0:0:
256,192,129993,12,0,131171,0:0:0:0:
111,253,131485,5,2,0:0:0:0:
250,14,131800,1,0,0:0:0:0:
391,313,132114,1,2,0:0:0:0:
445,60,132428,6,0,L|356:71,1,84.4999961318971,4|0,0:0|0:0,0:0:0:0:
334,142,132663,1,0,0:0:0:0:
334,142,132742,1,8,0:0:0:0:
117,89,132899,1,2,0:0:0:0:
179,347,133056,1,2,0:0:0:0:
43,217,133213,1,0,0:0:0:0:
37,246,133292,1,0,0:0:0:0:
31,274,133370,1,8,0:0:0:0:
211,175,133527,1,2,0:0:0:0:
159,353,133684,5,2,0:0:0:0:
71,137,133841,1,0,0:0:0:0:
276,255,133999,1,10,0:0:0:0:
16,283,134156,1,0,0:0:0:0:
227,186,134313,1,2,0:0:0:0:
194,40,134470,1,0,0:0:0:0:
135,218,134627,1,10,0:0:0:0:
329,141,134784,1,0,0:0:0:0:
428,275,134941,6,0,P|425:314|406:362,1,84.4999961318971,4|0,0:0|0:0,0:0:0:0:
341,381,135177,1,0,0:0:0:0:
341,381,135255,1,8,0:0:0:0:
88,317,135412,1,2,0:0:0:0:
285,248,135569,1,2,0:0:0:0:
102,352,135726,1,0,0:0:0:0:
102,352,135805,1,0,0:0:0:0:
102,352,135883,1,8,0:0:0:0:
74,124,136040,1,2,0:0:0:0:
215,313,136198,5,2,0:0:0:0:
289,41,136355,1,0,0:0:0:0:
115,225,136512,1,8,0:0:0:0:
375,189,136669,1,0,0:0:0:0:
159,70,136826,2,0,L|57:86,1,84.4999961318971,2|0,0:0|0:0,0:0:0:0:
46,151,137061,1,0,0:0:0:0:
46,151,137140,1,8,0:0:0:0:
236,226,137297,1,0,0:0:0:0:
296,44,137454,5,4,0:0:0:0:
253,251,137611,1,0,0:0:0:0:
282,254,137690,1,0,0:0:0:0:
311,257,137768,1,8,0:0:0:0:
340,260,137847,1,0,0:0:0:0:
369,263,137925,1,2,0:0:0:0:
174,147,138082,1,2,0:0:0:0:
300,84,138239,2,0,L|308:42,1,42.2499980659486,0|0,0:0|0:0,0:0:0:0:
155,170,138396,2,0,L|162:218,1,42.2499980659486,8|0,0:0|0:0,0:0:0:0:
201,73,138554,1,2,0:0:0:0:
85,216,138711,6,0,L|97:302,1,84.4999961318971,2|0,0:0|0:0,0:0:0:0:
56,360,138946,1,0,0:0:0:0:
56,360,139025,1,10,0:0:0:0:
181,224,139182,1,0,0:0:0:0:
438,329,139339,1,2,0:0:0:0:
376,82,139496,1,0,0:0:0:0:
265,345,139653,1,10,0:0:0:0:
464,218,139810,1,0,0:0:0:0:
259,131,139967,5,4,0:0:0:0:
379,279,140124,1,0,0:0:0:0:
368,306,140203,1,0,0:0:0:0:
345,325,140281,1,8,0:0:0:0:
317,335,140360,1,0,0:0:0:0:
287,333,140438,1,2,0:0:0:0:
154,165,140595,2,0,L|47:177,1,84.4999961318971,2|0,0:0|0:0,0:0:0:0:
21,226,140831,1,0,0:0:0:0:
30,254,140910,1,8,0:0:0:0:
47,277,140988,1,0,0:0:0:0:
72,291,141067,1,2,0:0:0:0:
274,249,141224,5,2,0:0:0:0:
364,290,141381,1,0,0:0:0:0:
283,225,141538,1,2,0:0:0:0:
255,345,141695,1,0,0:0:0:0:
207,188,141852,2,0,L|135:195,1,65,2|0,0:0|0:0,0:0:0:0:
346,144,142166,2,0,L|418:151,1,65,2|0,0:0|0:0,0:0:0:0:
204,28,142480,6,0,P|163:70|92:91,1,126.749994197846,4|0,0:0|0:0,0:0:0:0:
69,89,142794,2,0,P|45:60|30:8,1,84.4999961318971,8|0,0:0|0:0,0:0:0:0:
270,266,143108,2,0,P|267:309|248:354,1,84.4999961318971,2|0,0:0|0:0,0:0:0:0:
56,369,143423,1,8,0:0:0:0:
120,141,143580,1,0,0:0:0:0:
178,288,143737,5,2,0:0:0:0:
250,97,143894,1,0,0:0:0:0:
279,101,143972,1,0,0:0:0:0:
308,105,144051,1,8,0:0:0:0:
488,236,144208,1,0,0:0:0:0:
293,310,144365,1,2,0:0:0:0:
392,65,144522,1,0,0:0:0:0:
392,65,144601,1,0,0:0:0:0:
392,65,144679,1,8,0:0:0:0:
475,264,144836,1,0,0:0:0:0:
270,181,144993,6,0,P|225:218|219:289,1,126.749994197846,2|0,0:0|0:0,0:0:0:0:
232,308,145307,2,0,L|325:329,1,84.4999961318971,8|0,0:0|0:0,0:0:0:0:
157,87,145622,2,0,P|113:100|76:129,1,84.4999961318971,2|0,0:0|0:0,0:0:0:0:
65,146,145857,1,0,0:0:0:0:
51,172,145936,1,8,0:0:0:0:
123,346,146093,1,0,0:0:0:0:
316,236,146250,6,0,L|409:249,1,84.4999961318971,2|0,0:0|0:0,0:0:0:0:
428,252,146485,1,0,0:0:0:0:
456,257,146564,1,8,0:0:0:0:
250,315,146721,1,0,0:0:0:0:
308,80,146878,1,2,0:0:0:0:
408,271,147035,1,0,0:0:0:0:
178,174,147192,1,8,0:0:0:0:
334,113,147349,1,0,0:0:0:0:
163,154,147506,6,0,P|170:213|216:265,1,126.749994197846,4|0,0:0|0:0,0:0:0:0:
239,275,147821,2,0,P|280:255|328:250,1,84.4999961318971,8|0,0:0|0:0,0:0:0:0:
495,330,148135,1,2,0:0:0:0:
334,113,148292,1,0,0:0:0:0:
334,113,148370,1,0,0:0:0:0:
334,113,148449,1,8,0:0:0:0:
226,295,148606,1,0,0:0:0:0:
400,222,148763,6,0,L|487:235,1,84.4999961318971,2|0,0:0|0:0,0:0:0:0:
512,302,148999,1,0,0:0:0:0:
512,302,149077,1,8,0:0:0:0:
253,366,149234,1,0,0:0:0:0:
330,173,149391,2,0,L|313:40,1,126.749994197846,2|2,0:0|0:0,0:0:0:0:
337,66,149705,2,0,L|349:154,1,84.4999961318971,0|0,0:0|0:0,0:0:0:0:
44,279,150019,6,0,P|88:244|97:156,1,126.749994197846,4|0,0:0|0:0,0:0:0:0:
94,149,150334,1,8,0:0:0:0:
192,366,150491,1,0,0:0:0:0:
286,93,150648,1,2,0:0:0:0:
373,277,150805,1,0,0:0:0:0:
402,283,150883,1,2,0:0:0:0:
430,289,150962,1,0,0:0:0:0:
309,206,151119,1,2,0:0:0:0:
134,301,151276,6,0,L|20:277,2,97.5,2|0|2,0:0|0:0|0:0,0:0:0:0:
291,227,151904,2,0,P|294:260|307:297,1,65,2|0,0:0|0:0,0:0:0:0:
474,183,152218,2,0,P|483:152|486:119,1,65,2|0,0:0|0:0,0:0:0:0:
411,28,152533,5,4,0:0:0:0:
276,205,152690,1,0,0:0:0:0:
504,278,152847,1,8,0:0:0:0:
290,94,153004,1,0,0:0:0:0:
366,324,153161,2,0,L|284:298,1,84.4999961318971,2|0,0:0|0:0,0:0:0:0:
352,304,153396,2,0,B|428:328|428:328|476:320,1,126.749994197846,4|0,0:0|0:0,0:0:0:0:
296,198,153789,5,4,0:0:0:0:
199,374,153946,1,0,0:0:0:0:
147,84,154103,1,8,0:0:0:0:
59,271,154260,1,0,0:0:0:0:
297,108,154417,2,0,L|379:82,1,84.4999961318971,2|0,0:0|0:0,0:0:0:0:
316,88,154653,2,0,B|240:112|240:112|188:104,1,126.749994197846,4|0,0:0|0:0,0:0:0:0:
130,349,155046,5,4,0:0:0:0:
69,101,155203,1,0,0:0:0:0:
241,298,155360,1,8,0:0:0:0:
478,228,155517,1,0,0:0:0:0:
301,168,155674,1,2,0:0:0:0:
363,368,155831,1,0,0:0:0:0:
418,113,155988,1,8,0:0:0:0:
391,357,156145,1,0,0:0:0:0:
195,207,156302,6,0,P|151:215|112:233,1,84.4999961318971,4|0,0:0|0:0,0:0:0:0:
365,337,156616,2,0,P|405:353|450:356,1,84.4999961318971,8|0,0:0|0:0,0:0:0:0:
328,251,156930,1,2,0:0:0:0:
97,357,157088,2,0,L|50:350,1,42.2499980659486,0|0,0:0|0:0,0:0:0:0:
186,316,157245,1,8,0:0:0:0:
110,91,157402,1,0,0:0:0:0:
21,260,157559,5,4,0:0:0:0:
261,197,157716,1,0,0:0:0:0:
148,15,157873,1,8,0:0:0:0:
90,204,158030,1,0,0:0:0:0:
299,297,158187,2,0,L|391:286,1,84.4999961318971,2|0,0:0|0:0,0:0:0:0:
319,319,158423,2,0,P|274:317|317:275,1,126.749994197846,4|0,0:0|0:0,0:0:0:0:
408,358,158815,5,4,0:0:0:0:
320,84,158972,1,0,0:0:0:0:
197,302,159129,1,8,0:0:0:0:
415,167,159287,1,0,0:0:0:0:
119,133,159444,2,0,L|27:122,1,84.4999961318971,2|0,0:0|0:0,0:0:0:0:
99,155,159679,2,0,P|144:153|101:111,1,126.749994197846,4|0,0:0|0:0,0:0:0:0:
37,257,160072,5,4,0:0:0:0:
40,269,160150,1,0,0:0:0:0:
43,281,160229,1,0,0:0:0:0:
123,350,160386,1,8,0:0:0:0:
126,338,160465,1,0,0:0:0:0:
129,326,160543,1,0,0:0:0:0:
207,256,160700,1,2,0:0:0:0:
210,268,160779,1,0,0:0:0:0:
213,280,160857,1,0,0:0:0:0:
293,357,161014,1,8,0:0:0:0:
296,345,161093,1,0,0:0:0:0:
299,333,161171,1,0,0:0:0:0:
361,215,161328,5,2,0:0:0:0:
337,67,161485,1,0,0:0:0:0:
342,226,161643,1,2,0:0:0:0:
472,112,161800,1,0,0:0:0:0:
251,146,161957,1,2,0:0:0:0:
460,133,162114,1,0,0:0:0:0:
318,56,162271,1,0,0:0:0:0:
262,257,162428,1,0,0:0:0:0:
143,24,162585,6,0,P|48:47|21:93,1,126.749994197846,4|0,0:0|0:0,0:0:0:0:
20,93,162899,2,0,P|43:131|52:175,1,84.4999961318971,8|0,0:0|0:0,0:0:0:0:
1,347,163213,1,2,0:0:0:0:
258,238,163370,1,0,0:0:0:0:
359,361,163527,1,8,0:0:0:0:
294,133,163684,1,0,0:0:0:0:
198,315,163841,5,2,0:0:0:0:
399,211,163999,1,0,0:0:0:0:
173,155,164156,2,0,P|102:186|111:290,1,168.999992263794,8|2,0:0|0:0,0:0:0:0:
179,322,164627,1,0,0:0:0:0:
319,136,164784,2,0,L|303:37,1,84.4999961318971,8|0,0:0|0:0,0:0:0:0:
477,258,165098,6,0,P|472:316|428:366,1,126.749994197846,4|0,0:0|0:0,0:0:0:0:
400,375,165412,2,0,L|309:363,1,84.4999961318971,0|0,0:0|0:0,0:0:0:0:
99,328,165726,1,2,0:0:0:0:
296,257,165883,1,0,0:0:0:0:
218,53,166040,1,8,0:0:0:0:
154,222,166198,1,0,0:0:0:0:
348,140,166355,5,2,0:0:0:0:
120,75,166512,1,0,0:0:0:0:
91,81,166590,1,0,0:0:0:0:
62,88,166669,1,8,0:0:0:0:
244,208,166826,1,0,0:0:0:0:
433,149,166983,2,0,P|432:84|388:40,1,126.749994197846,2|0,0:0|0:0,0:0:0:0:
362,33,167297,1,8,0:0:0:0:
263,57,167454,1,0,0:0:0:0:
272,284,167611,6,0,P|312:303|362:306,1,84.4999961318971,4|0,0:0|0:0,0:0:0:0:
499,215,167925,1,0,0:0:0:0:
232,135,168082,1,0,0:0:0:0:
289,308,168239,1,2,0:0:0:0:
347,97,168396,1,0,0:0:0:0:
191,287,168554,2,0,L|102:267,1,84.4999961318971,8|0,0:0|0:0,0:0:0:0:
371,181,168868,6,0,L|460:161,1,84.4999961318971,2|0,0:0|0:0,0:0:0:0:
170,371,169182,2,0,P|128:347|124:232,1,168.999992263794,8|2,0:0|0:0,0:0:0:0:
367,266,169653,1,0,0:0:0:0:
335,81,169810,2,0,L|248:64,1,84.4999961318971,8|0,0:0|0:0,0:0:0:0:
108,214,170124,6,0,L|190:234,1,77.999997619629,2|0,0:0|0:0,0:0:0:0:
252,306,170438,1,0,0:0:0:0:
299,178,170595,1,0,0:0:0:0:
352,338,170752,1,2,0:0:0:0:
262,294,170910,1,0,0:0:0:0:
404,264,171067,1,2,0:0:0:0:
282,195,171224,1,0,0:0:0:0:
331,346,171381,5,2,0:0:0:0:
373,157,171538,1,0,0:0:0:0:
416,281,171695,1,2,0:0:0:0:
157,192,171852,1,0,0:0:0:0:
157,192,171930,1,0,0:0:0:0:
157,192,172009,1,2,0:0:0:0:
383,134,172166,1,0,0:0:0:0:
194,338,172323,1,2,0:0:0:0:
172,334,172402,1,0,0:0:0:0:
150,330,172480,1,0,0:0:0:0:
128,326,172559,1,0,0:0:0:0:
106,322,172637,1,4,0:0:0:0:
