osu file format v14

[General]
AudioFilename: BLUE DRAGON.mp3
AudioLeadIn: 0
PreviewTime: 32218
Countdown: 0
SampleSet: Soft
StackLeniency: 0.7
Mode: 0
LetterboxInBreaks: 0
WidescreenStoryboard: 0

[Editor]
Bookmarks: 23108,33161,43213,53266,63318,73370,83423,104784,132428,142480,152533,157245,162585,172637
DistanceSpacing: 1.5
BeatDivisor: 4
GridSize: 4
TimelineZoom: 2

[Metadata]
Title:BLUE DRAGON
TitleUnicode:BLUE DRAGON
Artist:Seiryu
ArtistUnicode:青龍
Creator:Blue Dragon
Version:NiNo's Insane
Source:
Tags:ryu jubeat plus android reflec beat ポップンリズミン grumd kyshiro doyak tarrasky mkguh leader fieryrage snownino_ silverboxer
BeatmapID:996357
BeatmapSetID:326920

[Difficulty]
HPDrainRate:6
CircleSize:4.2
OverallDifficulty:8
ApproachRate:9
SliderMultiplier:1.4
SliderTickRate:1

[Events]
//Background and Video events
0,0,"wallpaper-1881159.jpg",0,0
//Break Periods
2,83623,103527
//Storyboard Layer 0 (Background)
//Storyboard Layer 1 (Fail)
//Storyboard Layer 2 (Pass)
//Storyboard Layer 3 (Foreground)
//Storyboard Sound Samples

[TimingPoints]
23109,314.13612565445,4,2,1,40,1,0
33161,-66.6666666666667,4,2,2,90,0,1
33239,-66.6666666666667,4,2,1,90,0,1
43213,-76.9230769230769,4,2,2,60,0,0
48239,-76.9230769230769,4,2,1,60,0,0
48318,-76.9230769230769,4,2,2,60,0,0
58292,-76.9230769230769,4,2,1,60,0,0
58370,-76.9230769230769,4,2,2,60,0,0
68344,-76.9230769230769,4,2,1,60,0,0
68423,-76.9230769230769,4,2,2,60,0,0
78396,-76.9230769230769,4,2,1,60,0,0
78475,-76.9230769230769,4,2,2,60,0,0
82166,-76.9230769230769,4,2,10,60,0,0
105098,-100,4,2,10,60,0,0
106040,-100,4,2,1,40,0,0
116093,-100,4,2,1,50,0,0
121119,-80,4,2,1,60,0,0
123004,-80,4,2,1,70,0,0
126145,-133.333333333333,4,2,1,10,0,0
126773,-57.1428571428571,4,2,1,20,0,0
127402,-57.1428571428571,4,2,1,30,0,0
128030,-57.1428571428571,4,2,1,40,0,0
128658,-57.1428571428571,4,2,1,50,0,0
129287,-57.1428571428571,4,2,1,60,0,0
131171,-100,4,2,1,5,0,0
132428,-66.6666666666667,4,2,2,80,0,1
132506,-66.6666666666667,4,2,1,80,0,1
142480,-76.9230769230769,4,2,2,60,0,0
147506,-76.9230769230769,4,2,1,60,0,0
147585,-76.9230769230769,4,2,2,60,0,0
157559,-76.9230769230769,4,2,1,60,0,0
157637,-76.9230769230769,4,2,2,60,0,0
167611,-76.9230769230769,4,2,1,60,0,0
167690,-76.9230769230769,4,2,2,60,0,0
170124,-66.6666666666667,4,2,1,60,0,0
172637,-66.6666666666667,4,2,20,60,0,0

[Colours]
Combo1 : 47,173,249
Combo2 : 128,255,255
Combo3 : 1,96,254
Combo4 : 104,72,253

[HitObjects]
107,105,22166,6,0,L|263:95,2,140
246,96,23108,5,2,0:0:0:0:
313,177,23266,2,0,L|304:265,1,70
230,320,23580,1,0,0:0:0:0:
230,320,23737,1,2,0:0:0:0:
230,320,23894,2,0,P|211:270|115:246,1,140
52,174,24365,6,0,P|92:164|126:145,1,70,2|0,0:0|0:0,0:0:0:0:
37,278,24679,2,0,P|24:320|20:357,1,70
128,345,24993,1,2,0:0:0:0:
128,345,25150,1,0,0:0:0:0:
134,240,25307,1,0,0:0:0:0:
134,240,25465,1,0,0:0:0:0:
37,278,25622,5,2,0:0:0:0:
43,173,25779,2,0,L|49:94,1,70
29,13,26093,1,0,0:0:0:0:
29,13,26250,1,2,0:0:0:0:
29,13,26407,2,0,P|63:50|157:47,1,140
250,30,26878,6,0,L|263:110,1,70,2|0,0:0|0:0,0:0:0:0:
171,153,27192,1,0,0:0:0:0:
148,52,27349,2,0,P|106:73|73:174,1,140
98,256,27821,1,0,0:0:0:0:
193,299,27978,1,0,0:0:0:0:
292,264,28135,5,2,0:0:0:0:
212,196,28292,2,0,P|216:160|242:117,1,70
304,54,28606,1,0,0:0:0:0:
372,141,28763,1,2,0:0:0:0:
372,141,28920,1,0,0:0:0:0:
372,141,29077,2,0,L|380:220,1,70
346,298,29391,6,0,P|305:284|279:258,1,70,2|0,0:0|0:0,0:0:0:0:
208,196,29705,2,0,P|235:174|268:164,1,70
186,300,30019,1,2,0:0:0:0:
109,230,30177,1,0,0:0:0:0:
109,370,30334,1,0,0:0:0:0:
186,300,30491,1,0,0:0:0:0:
32,300,30648,5,2,0:0:0:0:
109,230,30805,2,0,P|123:173|121:151,1,70
51,85,31119,1,0,0:0:0:0:
141,31,31276,1,2,0:0:0:0:
212,107,31433,2,0,L|216:261,1,140
464,344,32218,6,0,L|477:191,2,140
300,347,33161,6,0,L|190:341,1,105.000004005432,6|0,0:0|0:0,0:0:0:0:
169,337,33396,1,0,0:0:0:0:
144,327,33475,1,8,0:0:0:0:
124,309,33554,1,0,0:0:0:0:
109,287,33632,1,0,0:0:0:0:
62,136,33789,1,2,0:0:0:0:
215,172,33946,1,0,0:0:0:0:
241,169,34025,1,0,0:0:0:0:
266,169,34103,1,8,0:0:0:0:
291,177,34182,1,0,0:0:0:0:
312,192,34260,1,0,0:0:0:0:
250,354,34417,6,0,P|238:300|259:239,1,105.000004005432,2|0,0:0|0:0,0:0:0:0:
400,142,34732,2,0,P|359:179|295:191,1,105.000004005432,8|0,0:0|0:0,0:0:0:0:
192,87,35046,1,2,0:0:0:0:
331,280,35203,1,0,0:0:0:0:
200,187,35360,1,8,0:0:0:0:
321,108,35517,1,0,0:0:0:0:
335,317,35674,6,0,P|277:335|213:323,1,105.000004005432,2|0,0:0|0:0,0:0:0:0:
209,319,35910,1,0,0:0:0:0:
184,311,35988,1,8,0:0:0:0:
157,313,36067,1,0,0:0:0:0:
135,327,36145,1,0,0:0:0:0:
30,209,36302,1,2,0:0:0:0:
185,182,36459,1,0,0:0:0:0:
211,180,36537,1,0,0:0:0:0:
237,179,36616,1,8,0:0:0:0:
263,178,36694,1,0,0:0:0:0:
289,177,36773,1,0,0:0:0:0:
455,126,36930,5,2,0:0:0:0:
324,235,37088,1,0,0:0:0:0:
448,262,37245,1,8,0:0:0:0:
263,178,37402,2,0,B|234:207|230:245|245:292|290:312|290:312|250:342,1,210.000008010865
165,311,37873,1,8,0:0:0:0:
324,235,38030,1,0,0:0:0:0:
94,160,38187,6,0,P|102:99|139:57,1,105.000004005432,6|0,0:0|0:0,0:0:0:0:
151,53,38423,1,0,0:0:0:0:
175,61,38501,1,8,0:0:0:0:
201,64,38580,1,0,0:0:0:0:
227,63,38658,1,0,0:0:0:0:
382,29,38815,1,2,0:0:0:0:
436,178,38972,1,0,0:0:0:0:
424,201,39050,1,0,0:0:0:0:
418,226,39129,1,8,0:0:0:0:
418,253,39207,1,0,0:0:0:0:
425,278,39286,1,0,0:0:0:0:
270,315,39444,6,0,P|221:285|163:288,1,105.000004005432,2|0,0:0|0:0,0:0:0:0:
361,234,39758,2,0,P|404:205|456:203,1,105.000004005432,8|0,0:0|0:0,0:0:0:0:
345,340,40072,1,8,0:0:0:0:
266,146,40229,1,0,0:0:0:0:
270,315,40386,1,2,0:0:0:0:
344,155,40543,1,0,0:0:0:0:
180,235,40700,6,8,L|60:225,1,105.000004005432,2|0,0:0|0:0,0:0:0:0:
51,214,40936,1,0,0:0:0:0:
36,192,41014,1,8,0:0:0:0:
33,165,41093,1,0,0:0:0:0:
42,140,41171,1,0,0:0:0:0:
178,61,41328,1,2,0:0:0:0:
243,204,41485,1,0,0:0:0:0:
251,228,41563,1,0,0:0:0:0:
250,254,41642,1,8,0:0:0:0:
239,278,41720,1,0,0:0:0:0:
219,295,41799,1,0,0:0:0:0:
174,162,41957,6,0,P|217:126|286:141,1,105.000004005432
416,160,42271,1,0,0:0:0:0:
305,350,42428,2,0,B|288:296|288:296|339:278|364:222|325:162,1,210.000008010865
163,193,42899,2,0,P|226:221|272:213,1,105.000004005432
443,78,43213,6,0,P|391:76|353:99,1,90.9999958343508,4|8,0:0|0:0,0:0:0:0:
244,303,43527,2,0,P|263:249|245:183,1,90.9999958343508,2|8,0:0|0:0,0:0:0:0:
103,182,43841,2,0,L|220:187,1,90.9999958343508,2|8,0:0|0:0,0:0:0:0:
259,216,44077,2,0,P|294:238|350:238,1,90.9999958343508
411,215,44313,1,8,0:0:0:0:
326,105,44470,6,0,L|219:111,1,90.9999958343508,2|8,0:0|0:0,0:0:0:0:
167,85,44705,2,0,P|181:139|165:189,1,90.9999958343508
132,233,44941,1,8,0:0:0:0:
55,338,45098,2,0,P|103:325|167:345,1,90.9999958343508,2|8,0:0|0:0,0:0:0:0:
210,360,45334,2,0,L|311:350,1,90.9999958343508
372,343,45569,1,8,0:0:0:0:
312,184,45726,6,0,P|304:242|319:294,1,90.9999958343508,2|8,0:0|0:0,0:0:0:0:
446,371,46040,2,0,P|452:326|444:281,1,90.9999958343508,2|8,0:0|0:0,0:0:0:0:
470,151,46355,2,0,P|421:173|374:167,1,90.9999958343508,2|8,0:0|0:0,0:0:0:0:
312,184,46590,2,0,P|291:127|314:76,1,90.9999958343508
340,39,46826,1,8,0:0:0:0:
203,57,46983,6,0,L|104:45,1,90.9999958343508,2|8,0:0|0:0,0:0:0:0:
44,20,47218,2,0,P|25:71|36:122,1,90.9999958343508
55,179,47454,1,8,0:0:0:0:
115,353,47611,2,0,P|134:302|123:251,1,90.9999958343508,2|8,0:0|0:0,0:0:0:0:
55,179,47925,1,2,0:0:0:0:
55,179,48082,1,8,0:0:0:0:
227,194,48239,6,0,P|275:197|332:183,1,90.9999958343508,6|8,0:0|0:0,0:0:0:0:
104,106,48554,2,0,P|59:97|14:100,1,90.9999958343508,2|8,0:0|0:0,0:0:0:0:
119,290,48868,2,0,P|135:243|120:187,1,90.9999958343508,2|8,0:0|0:0,0:0:0:0:
169,143,49103,2,0,P|217:122|261:129,1,90.9999958343508
319,159,49339,1,8,0:0:0:0:
485,251,49496,6,0,P|442:271|381:263,1,90.9999958343508,2|8,0:0|0:0,0:0:0:0:
326,264,49732,2,0,P|318:319|289:344,1,90.9999958343508
221,351,49967,1,8,0:0:0:0:
116,279,50124,2,0,L|125:178,1,90.9999958343508,2|8,0:0|0:0,0:0:0:0:
100,119,50360,2,0,P|147:81|195:83,1,90.9999958343508
246,94,50595,1,8,0:0:0:0:
325,208,50752,6,0,P|280:199|249:167,1,90.9999958343508,2|8,0:0|0:0,0:0:0:0:
431,154,51067,2,0,P|445:203|437:252,1,90.9999958343508,2|8,0:0|0:0,0:0:0:0:
351,345,51381,2,0,P|318:309|252:306,1,90.9999958343508,2|8,0:0|0:0,0:0:0:0:
210,325,51616,2,0,P|187:280|195:227,1,90.9999958343508
195,167,51852,1,8,0:0:0:0:
296,63,52009,6,0,L|199:55,1,90.9999958343508,2|8,0:0|0:0,0:0:0:0:
136,30,52245,2,0,P|95:65|91:114,1,90.9999958343508
90,171,52480,1,8,0:0:0:0:
54,317,52637,2,0,B|146:285|146:349|234:317,1,181.999991668702
201,147,53266,6,0,L|193:240,1,90.9999958343508,6|8,0:0|0:0,0:0:0:0:
321,190,53580,2,0,L|313:283,1,90.9999958343508,2|8,0:0|0:0,0:0:0:0:
377,102,53894,2,0,P|330:80|284:86,1,90.9999958343508,2|8,0:0|0:0,0:0:0:0:
239,32,54129,2,0,P|190:57|139:54,1,90.9999958343508
82,50,54365,1,8,0:0:0:0:
29,170,54522,6,0,L|45:279,1,90.9999958343508,2|8,0:0|0:0,0:0:0:0:
125,152,54836,2,0,L|141:261,1,90.9999958343508,2|8,0:0|0:0,0:0:0:0:
32,352,55150,2,0,P|84:334|137:346,1,90.9999958343508,2|8,0:0|0:0,0:0:0:0:
185,368,55386,2,0,P|223:335|232:276,1,90.9999958343508
226,224,55622,1,8,0:0:0:0:
283,90,55779,6,0,L|399:99,1,90.9999958343508,2|8,0:0|0:0,0:0:0:0:
309,217,56093,2,0,L|425:226,1,90.9999958343508,2|8,0:0|0:0,0:0:0:0:
197,173,56407,6,0,L|81:182,1,90.9999958343508,2|8,0:0|0:0,0:0:0:0:
171,300,56721,2,0,L|55:309,1,90.9999958343508,2|8,0:0|0:0,0:0:0:0:
26,195,57035,6,0,P|32:144|67:104,1,90.9999958343508,2|8,0:0|0:0,0:0:0:0:
250,110,57349,2,0,P|275:147|278:192,1,90.9999958343508,2|8,0:0|0:0,0:0:0:0:
188,249,57663,1,2,0:0:0:0:
349,274,57821,1,8,0:0:0:0:
205,171,57978,1,2,0:0:0:0:
366,196,58136,1,8,0:0:0:0:
270,291,58292,6,0,L|285:180,1,90.9999958343508,6|8,0:0|0:0,0:0:0:0:
165,271,58606,2,0,L|180:160,1,90.9999958343508,2|8,0:0|0:0,0:0:0:0:
277,87,58920,2,0,P|320:111|379:102,1,90.9999958343508,2|8,0:0|0:0,0:0:0:0:
430,88,59156,2,0,P|450:133|437:184,1,90.9999958343508
428,243,59391,1,8,0:0:0:0:
324,332,59548,6,0,L|226:343,1,90.9999958343508,2|8,0:0|0:0,0:0:0:0:
301,223,59862,2,0,L|203:234,1,90.9999958343508,2|8,0:0|0:0,0:0:0:0:
101,316,60177,2,0,P|60:280|52:230,1,90.9999958343508,2|8,0:0|0:0,0:0:0:0:
58,174,60412,2,0,P|113:176|151:148,1,90.9999958343508
160,86,60648,1,8,0:0:0:0:
283,53,60805,6,0,L|287:170,1,90.9999958343508,2|8,0:0|0:0,0:0:0:0:
397,65,61119,2,0,L|401:182,1,90.9999958343508,2|8,0:0|0:0,0:0:0:0:
263,155,61433,6,0,L|259:272,1,90.9999958343508,2|8,0:0|0:0,0:0:0:0:
149,167,61747,2,0,L|145:284,1,90.9999958343508,2|8,0:0|0:0,0:0:0:0:
265,322,62061,6,0,P|224:338|163:325,1,90.9999958343508,2|8,0:0|0:0,0:0:0:0:
114,90,62376,2,0,P|158:84|200:100,1,90.9999958343508,2|8,0:0|0:0,0:0:0:0:
264,216,62690,2,0,B|326:198|326:198|370:232|370:232|448:230,1,181.999991668702
481,312,63161,1,8,0:0:0:0:
395,144,63318,6,0,P|393:98|350:56,1,90.9999958343508,6|8,0:0|0:0,0:0:0:0:
217,155,63632,2,0,P|189:190|187:234,1,90.9999958343508,2|8,0:0|0:0,0:0:0:0:
295,119,63946,1,2,0:0:0:0:
166,90,64103,1,8,0:0:0:0:
271,219,64260,1,2,0:0:0:0:
108,145,64417,1,8,0:0:0:0:
204,307,64574,6,0,P|243:333|304:338,1,90.9999958343508,2|8,0:0|0:0,0:0:0:0:
140,201,64889,2,0,P|98:246|105:378,1,181.999991668702,2|8,0:0|0:0,0:0:0:0:
289,175,65360,1,0,0:0:0:0:
138,111,65517,1,2,0:0:0:0:
204,307,65674,1,8,0:0:0:0:
300,63,65831,6,0,P|256:49|209:65,1,90.9999958343508,2|8,0:0|0:0,0:0:0:0:
67,209,66145,2,0,P|109:222|152:210,1,90.9999958343508,2|8,0:0|0:0,0:0:0:0:
257,129,66459,1,2,0:0:0:0:
208,266,66616,1,8,0:0:0:0:
214,61,66773,1,2,0:0:0:0:
315,296,66930,1,8,0:0:0:0:
340,28,67088,6,0,L|438:22,1,90.9999958343508,2|8,0:0|0:0,0:0:0:0:
126,90,67402,2,0,L|28:84,1,90.9999958343508,2|8,0:0|0:0,0:0:0:0:
229,277,67716,2,0,P|252:227|222:93,1,181.999991668702,2|2,0:0|0:0,0:0:0:0:
126,90,68187,1,8,0:0:0:0:
324,137,68344,6,0,P|331:191|325:236,1,90.9999958343508,6|8,0:0|0:0,0:0:0:0:
231,105,68658,2,0,P|224:51|230:6,1,90.9999958343508,2|8,0:0|0:0,0:0:0:0:
314,53,68972,1,2,0:0:0:0:
247,183,69129,1,8,0:0:0:0:
395,41,69287,1,2,0:0:0:0:
256,106,69444,1,8,0:0:0:0:
479,148,69601,6,0,P|489:87|477:52,1,90.9999958343508,2|8,0:0|0:0,0:0:0:0:
402,140,69915,2,0,B|399:166|408:196|426:215|453:229|487:227|487:227|437:279,1,181.999991668702,2|2,0:0|0:0,0:0:0:0:
246,218,70386,1,8,0:0:0:0:
349,77,70543,2,0,P|402:60|446:72,1,90.9999958343508,2|8,0:0|0:0,0:0:0:0:
243,123,70857,6,0,P|198:129|156:112,1,90.9999958343508,2|8,0:0|0:0,0:0:0:0:
345,281,71171,2,0,P|328:226|337:184,1,90.9999958343508,2|8,0:0|0:0,0:0:0:0:
349,77,71485,1,2,0:0:0:0:
416,226,71643,1,8,0:0:0:0:
275,132,71800,1,2,0:0:0:0:
466,159,71957,1,8,0:0:0:0:
205,177,72114,6,0,P|192:126|205:85,1,90.9999958343508,0|8,0:0|0:0,0:0:0:0:
273,268,72428,2,0,P|286:319|273:360,1,90.9999958343508,0|8,0:0|0:0,0:0:0:0:
179,252,72742,1,0,0:0:0:0:
305,190,72899,1,8,0:0:0:0:
54,227,73056,1,0,0:0:0:0:
240,43,73370,6,0,L|345:55,1,90.9999958343508,6|8,0:0|0:0,0:0:0:0:
409,164,73684,2,0,P|396:119|406:65,1,90.9999958343508,2|8,0:0|0:0,0:0:0:0:
280,212,73999,2,0,P|291:166|326:124,1,90.9999958343508,2|8,0:0|0:0,0:0:0:0:
142,180,74313,2,0,P|174:146|226:127,1,90.9999958343508,2|8,0:0|0:0,0:0:0:0:
373,78,74627,6,0,P|396:125|384:179,1,90.9999958343508,2|8,0:0|0:0,0:0:0:0:
455,294,74941,2,0,P|413:276|368:277,1,90.9999958343508,2|8,0:0|0:0,0:0:0:0:
507,159,75255,2,0,P|462:164|423:187,1,90.9999958343508,2|8,0:0|0:0,0:0:0:0:
481,15,75569,2,0,P|444:42|423:81,1,90.9999958343508,2|8,0:0|0:0,0:0:0:0:
330,189,75883,6,0,L|230:179,1,90.9999958343508,2|8,0:0|0:0,0:0:0:0:
134,177,76198,1,2,0:0:0:0:
264,269,76355,1,8,0:0:0:0:
57,222,76512,2,0,P|46:175|59:125,1,90.9999958343508,2|8,0:0|0:0,0:0:0:0:
178,99,76826,1,2,0:0:0:0:
121,278,76983,1,8,0:0:0:0:
244,159,77140,6,0,L|343:152,1,90.9999958343508,2|8,0:0|0:0,0:0:0:0:
421,99,77454,1,2,0:0:0:0:
375,246,77611,1,8,0:0:0:0:
332,60,77768,1,2,0:0:0:0:
454,264,77925,1,8,0:0:0:0:
334,152,78082,1,2,0:0:0:0:
320,306,78239,1,8,0:0:0:0:
164,84,78396,6,0,P|221:63|256:71,1,90.9999958343508,6|8,0:0|0:0,0:0:0:0:
432,62,78711,2,0,P|413:106|424:160,1,90.9999958343508,2|8,0:0|0:0,0:0:0:0:
285,23,79025,2,0,P|290:70|327:111,1,90.9999958343508,2|8,0:0|0:0,0:0:0:0:
139,57,79339,2,0,P|167:95|219:112,1,90.9999958343508,2|8,0:0|0:0,0:0:0:0:
183,251,79653,6,0,P|154:212|102:195,1,90.9999958343508,2|8,0:0|0:0,0:0:0:0:
223,342,79967,2,0,P|269:337|321:294,1,90.9999958343508,2|8,0:0|0:0,0:0:0:0:
169,193,80281,2,0,P|211:211|277:200,1,90.9999958343508,2|8,0:0|0:0,0:0:0:0:
199,36,80595,2,0,P|226:73|289:96,1,90.9999958343508,2|8,0:0|0:0,0:0:0:0:
396,52,80910,6,0,L|404:152,1,90.9999958343508,0|8,0:0|0:0,0:0:0:0:
255,208,81224,1,0,0:0:0:0:
265,93,81381,1,8,0:0:0:0:
403,142,81538,2,0,L|395:242,1,90.9999958343508,0|8,0:0|0:0,0:0:0:0:
250,308,81852,1,0,0:0:0:0:
255,208,82009,1,8,0:0:0:0:
256,192,82166,12,4,83423,0:0:0:0:
451,212,105098,6,0,B|462:144|462:144|437:114|390:119,2,140
451,212,106040,5,2,0:0:0:0:
410,309,106198,2,0,L|325:297,1,70
237,282,106512,1,0,0:0:0:0:
237,282,106669,1,2,0:0:0:0:
237,282,106826,2,0,P|253:240|202:140,1,140
166,65,107297,6,0,L|250:59,1,70,2|0,0:0|0:0,0:0:0:0:
118,160,107611,2,0,L|34:154,1,70
62,51,107925,1,2,0:0:0:0:
62,51,108082,1,0,0:0:0:0:
166,65,108239,1,0,0:0:0:0:
166,65,108396,1,0,0:0:0:0:
118,160,108554,5,2,0:0:0:0:
222,174,108711,2,0,P|237:218|236:250,1,70
193,336,109025,1,0,0:0:0:0:
193,336,109182,1,2,0:0:0:0:
193,336,109339,2,0,P|240:345|323:301,1,140
334,201,109810,6,0,P|322:165|325:121,1,70,2|0,0:0|0:0,0:0:0:0:
360,35,110124,1,0,0:0:0:0:
360,35,110281,2,0,L|201:26,1,140
115,34,110752,1,0,0:0:0:0:
49,117,110910,1,0,0:0:0:0:
56,221,111067,5,2,0:0:0:0:
144,164,111224,2,0,P|187:142|225:138,1,70
311,157,111538,1,0,0:0:0:0:
311,157,111695,1,2,0:0:0:0:
236,231,111852,2,0,P|213:192|227:91,1,140
294,26,112323,6,0,L|373:42,1,70,2|0,0:0|0:0,0:0:0:0:
467,33,112637,2,0,L|484:111,1,70
384,141,112951,1,2,0:0:0:0:
384,141,113108,1,0,0:0:0:0:
362,39,113266,1,0,0:0:0:0:
362,39,113423,1,0,0:0:0:0:
265,79,113580,5,2,0:0:0:0:
285,181,113737,2,0,P|247:183|200:157,1,70
163,81,114051,1,0,0:0:0:0:
163,81,114208,1,2,0:0:0:0:
163,81,114365,2,0,P|131:113|123:216,1,140
167,296,114836,1,2,0:0:0:0:
167,296,114993,1,0,0:0:0:0:
224,208,115150,1,0,0:0:0:0:
118,203,115307,6,0,P|84:229|65:333,1,140
61,319,115779,1,0,0:0:0:0:
61,319,116093,5,2,0:0:0:0:
145,380,116250,2,0,L|159:222,1,140
142,136,116721,1,2,0:0:0:0:
239,174,116878,1,0,0:0:0:0:
239,174,117035,1,0,0:0:0:0:
225,69,117192,1,0,0:0:0:0:
142,136,117349,6,0,L|63:146,1,70,2|0,0:0|0:0,0:0:0:0:
239,174,117663,2,0,L|308:182,1,70
411,203,117978,1,2,0:0:0:0:
420,307,118135,1,0,0:0:0:0:
328,358,118292,1,0,0:0:0:0:
261,276,118449,1,0,0:0:0:0:
308,182,118606,5,2,0:0:0:0:
203,186,118763,2,0,P|166:168|128:71,1,140
231,85,119234,1,2,0:0:0:0:
203,186,119391,1,0,0:0:0:0:
203,186,119548,1,0,0:0:0:0:
304,160,119705,1,0,0:0:0:0:
275,260,119862,6,0,P|314:266|349:253,1,70,2|0,0:0|0:0,0:0:0:0:
409,175,120177,1,0,0:0:0:0:
444,273,120334,2,0,B|427:371|427:371|384:338,1,140
342,256,120805,1,0,0:0:0:0:
342,256,120962,1,0,0:0:0:0:
292,366,121119,5,2,0:0:0:0:
247,205,121276,1,0,0:0:0:0:
247,205,121433,1,0,0:0:0:0:
197,315,121590,1,0,0:0:0:0:
342,256,121747,1,2,0:0:0:0:
127,217,121904,2,0,P|107:179|156:58,1,175
289,145,122376,6,0,L|189:151,1,87.5,2|0,0:0|0:0,0:0:0:0:
247,35,122690,2,0,L|347:41,1,87.5
460,77,123004,1,2,0:0:0:0:
367,170,123161,1,0,0:0:0:0:
334,40,123318,1,0,0:0:0:0:
460,77,123475,1,0,0:0:0:0:
367,170,123632,5,2,0:0:0:0:
240,133,123789,2,0,B|184:121|184:121|156:139|156:139|74:121,1,175
136,45,124260,1,2,0:0:0:0:
201,209,124417,1,0,0:0:0:0:
201,209,124574,1,0,0:0:0:0:
73,120,124732,1,0,0:0:0:0:
264,134,124889,6,0,L|366:125,1,87.5,2|0,0:0|0:0,0:0:0:0:
213,49,125203,1,0,0:0:0:0:
201,209,125360,1,0,0:0:0:0:
406,146,126145,6,0,L|408:127,95,13.125000500679
256,192,129993,12,0,131171,0:0:0:0:
347,328,131485,6,0,B|354:181,2,140
63,202,132428,6,0,P|126:214|180:193,1,105.000004005432,6|0,0:0|0:0,0:0:0:0:
155,178,132663,1,0,0:0:0:0:
154,151,132742,1,8,0:0:0:0:
162,126,132821,1,0,0:0:0:0:
182,109,132899,1,0,0:0:0:0:
324,38,133056,1,2,0:0:0:0:
315,195,133213,1,0,0:0:0:0:
313,221,133291,1,0,0:0:0:0:
312,247,133370,1,8,0:0:0:0:
310,273,133448,1,0,0:0:0:0:
309,299,133527,1,0,0:0:0:0:
382,136,133684,6,0,P|337:107|272:117,1,105.000004005432,2|0,0:0|0:0,0:0:0:0:
388,350,133999,2,0,P|439:351|485:326,1,105.000004005432,8|0,0:0|0:0,0:0:0:0:
315,195,134313,1,2,0:0:0:0:
302,363,134470,1,0,0:0:0:0:
235,224,134627,1,8,0:0:0:0:
388,350,134784,1,0,0:0:0:0:
395,202,134941,6,0,B|405:135|405:135|375:104,1,105.000004005432,2|0,0:0|0:0,0:0:0:0:
352,109,135177,1,0,0:0:0:0:
325,109,135255,1,8,0:0:0:0:
300,100,135334,1,0,0:0:0:0:
280,82,135412,1,0,0:0:0:0:
131,28,135569,1,2,0:0:0:0:
159,182,135726,1,0,0:0:0:0:
170,205,135804,1,0,0:0:0:0:
175,230,135883,1,8,0:0:0:0:
173,256,135961,1,0,0:0:0:0:
164,281,136040,1,0,0:0:0:0:
65,362,136198,5,2,0:0:0:0:
76,167,136355,1,0,0:0:0:0:
11,274,136512,1,8,0:0:0:0:
173,256,136669,2,0,B|222:291|269:261|269:261|285:279|285:279|330:251|371:277,1,210.000008010865
225,198,137140,1,8,0:0:0:0:
331,339,137297,1,0,0:0:0:0:
403,176,137454,6,0,P|394:119|355:83,1,105.000004005432,6|0,0:0|0:0,0:0:0:0:
341,103,137690,1,0,0:0:0:0:
317,113,137768,1,8,0:0:0:0:
291,117,137847,1,0,0:0:0:0:
264,117,137925,1,0,0:0:0:0:
156,232,138082,1,2,0:0:0:0:
304,285,138239,1,0,0:0:0:0:
317,262,138317,1,0,0:0:0:0:
321,236,138396,1,8,0:0:0:0:
316,211,138474,1,0,0:0:0:0:
302,189,138553,1,0,0:0:0:0:
138,124,138711,6,0,P|193:144|244:132,1,105.000004005432,2|0,0:0|0:0,0:0:0:0:
411,95,139025,2,0,P|359:86|311:106,1,105.000004005432,8|0,0:0|0:0,0:0:0:0:
178,218,139339,1,2,0:0:0:0:
267,41,139496,1,0,0:0:0:0:
277,197,139653,1,8,0:0:0:0:
196,71,139810,1,0,0:0:0:0:
368,123,139967,6,0,L|476:129,1,105.000004005432,2|0,0:0|0:0,0:0:0:0:
488,149,140203,1,0,0:0:0:0:
491,174,140281,1,8,0:0:0:0:
491,200,140360,1,0,0:0:0:0:
483,224,140438,1,0,0:0:0:0:
367,330,140595,1,2,0:0:0:0:
403,176,140752,1,0,0:0:0:0:
380,162,140830,1,0,0:0:0:0:
355,156,140909,1,8,0:0:0:0:
329,157,140987,1,0,0:0:0:0:
304,166,141066,1,0,0:0:0:0:
228,322,141224,6,0,P|201:261|212:215,1,105.000004005432
292,86,141538,1,0,0:0:0:0:
282,259,141695,2,0,B|152:279|152:279|101:242|112:196,1,210.000008010865
18,161,142166,2,0,P|34:104|82:72,1,105.000004005432
184,203,142480,6,0,L|302:185,1,90.9999958343508,6|8,0:0|0:0,0:0:0:0:
443,76,142794,2,0,P|482:110|492:155,1,90.9999958343508,2|8,0:0|0:0,0:0:0:0:
341,110,143108,2,0,P|297:86|242:86,1,90.9999958343508,2|8,0:0|0:0,0:0:0:0:
190,52,143344,2,0,P|198:99|176:145,1,90.9999958343508
115,167,143580,1,8,0:0:0:0:
9,302,143737,6,0,L|119:293,1,90.9999958343508,2|8,0:0|0:0,0:0:0:0:
170,280,143972,2,0,P|188:334|237:349,1,90.9999958343508
288,351,144208,1,8,0:0:0:0:
481,352,144365,6,0,L|473:251,1,90.9999958343508,2|8,0:0|0:0,0:0:0:0:
462,188,144601,2,0,P|423:164|364:165,1,90.9999958343508
314,194,144836,1,8,0:0:0:0:
192,50,144993,6,0,P|170:92|179:149,1,90.9999958343508,2|8,0:0|0:0,0:0:0:0:
238,322,145307,2,0,P|240:277|218:237,1,90.9999958343508,2|8,0:0|0:0,0:0:0:0:
257,106,145622,2,0,P|319:83|369:99,1,90.9999958343508,2|8,0:0|0:0,0:0:0:0:
410,63,145857,2,0,P|403:117|429:159,1,90.9999958343508
475,194,146093,1,8,0:0:0:0:
309,288,146250,6,0,L|210:283,1,90.9999958343508,2|8,0:0|0:0,0:0:0:0:
147,269,146485,2,0,P|155:214|131:166,1,90.9999958343508
76,151,146721,1,8,0:0:0:0:
16,48,146878,2,0,L|117:43,1,90.9999958343508,2|8,0:0|0:0,0:0:0:0:
254,49,147192,1,2,0:0:0:0:
254,49,147349,1,8,0:0:0:0:
122,214,147506,6,0,P|110:152|134:106,1,90.9999958343508,2|8,0:0|0:0,0:0:0:0:
330,11,147821,2,0,P|339:54|326:97,1,90.9999958343508,2|8,0:0|0:0,0:0:0:0:
195,168,148135,2,0,P|238:186|289:181,1,90.9999958343508,2|8,0:0|0:0,0:0:0:0:
352,172,148370,2,0,L|359:278,1,90.9999958343508
360,336,148606,1,8,0:0:0:0:
484,108,148763,6,0,P|431:111|381:82,1,90.9999958343508,2|8,0:0|0:0,0:0:0:0:
353,37,148999,2,0,P|312:24|243:37,1,90.9999958343508
206,70,149234,1,8,0:0:0:0:
27,35,149391,2,0,P|49:78|44:125,1,90.9999958343508,2|8,0:0|0:0,0:0:0:0:
33,191,149627,2,0,P|85:217|135:213,1,90.9999958343508
181,185,149862,1,8,0:0:0:0:
277,77,150019,6,0,P|291:123|277:180,1,90.9999958343508,2|8,0:0|0:0,0:0:0:0:
258,351,150334,2,0,P|244:305|258:248,1,90.9999958343508,2|8,0:0|0:0,0:0:0:0:
212,127,150648,2,0,L|114:118,1,90.9999958343508,2|8,0:0|0:0,0:0:0:0:
49,107,150883,2,0,P|36:168|44:201,1,90.9999958343508
70,262,151119,1,8,0:0:0:0:
182,338,151276,6,0,P|232:321|285:335,1,90.9999958343508,0|8,0:0|0:0,0:0:0:0:
339,344,151512,2,0,P|372:297|369:251,1,90.9999958343508
367,192,151747,1,8,0:0:0:0:
447,83,151904,2,0,B|403:57|373:75|373:75|358:59|358:59|324:82|263:73,1,181.999991668702
81,30,152533,6,0,L|76:130,1,90.9999958343508,6|8,0:0|0:0,0:0:0:0:
195,53,152847,2,0,L|190:153,1,90.9999958343508,2|8,0:0|0:0,0:0:0:0:
104,249,153161,2,0,P|159:242|197:264,1,90.9999958343508,2|8,0:0|0:0,0:0:0:0:
219,323,153396,2,0,P|259:343|313:335,1,90.9999958343508
366,301,153632,1,8,0:0:0:0:
500,282,153789,6,0,L|489:181,1,90.9999958343508,2|8,0:0|0:0,0:0:0:0:
355,215,154103,2,0,L|344:114,1,90.9999958343508,2|8,0:0|0:0,0:0:0:0:
457,46,154417,2,0,P|396:31|358:41,1,90.9999958343508,2|8,0:0|0:0,0:0:0:0:
298,53,154653,2,0,P|241:62|187:48,1,90.9999958343508
139,33,154889,1,8,0:0:0:0:
75,150,155046,6,0,L|65:258,1,90.9999958343508,2|8,0:0|0:0,0:0:0:0:
186,174,155360,2,0,L|176:282,1,90.9999958343508,2|8,0:0|0:0,0:0:0:0:
437,150,155674,6,0,L|447:258,1,90.9999958343508,2|8,0:0|0:0,0:0:0:0:
326,174,155988,2,0,L|336:282,1,90.9999958343508,2|8,0:0|0:0,0:0:0:0:
480,312,156302,6,0,P|432:333|380:323,1,90.9999958343508,2|8,0:0|0:0,0:0:0:0:
296,97,156616,2,0,P|340:94|381:114,1,90.9999958343508,2|8,0:0|0:0,0:0:0:0:
423,250,156930,1,2,0:0:0:0:
263,207,157088,1,8,0:0:0:0:
394,329,157245,1,2,0:0:0:0:
235,283,157403,1,8,0:0:0:0:
357,175,157559,6,0,L|346:76,1,90.9999958343508,2|8,0:0|0:0,0:0:0:0:
233,160,157873,2,0,L|222:61,1,90.9999958343508,2|8,0:0|0:0,0:0:0:0:
162,243,158187,2,0,P|206:264|265:255,1,90.9999958343508,2|8,0:0|0:0,0:0:0:0:
315,236,158423,2,0,P|324:310|353:334,1,90.9999958343508
400,345,158658,1,8,0:0:0:0:
428,140,158815,6,0,L|321:150,1,90.9999958343508,2|8,0:0|0:0,0:0:0:0:
417,38,159129,2,0,L|310:48,1,90.9999958343508,2|8,0:0|0:0,0:0:0:0:
189,37,159444,2,0,P|200:84|187:133,1,90.9999958343508,2|8,0:0|0:0,0:0:0:0:
121,145,159679,2,0,P|100:202|113:251,1,90.9999958343508
137,296,159915,1,8,0:0:0:0:
296,207,160072,6,0,L|197:207,1,90.9999958343508,2|8,0:0|0:0,0:0:0:0:
303,301,160386,2,0,L|204:301,1,90.9999958343508,2|8,0:0|0:0,0:0:0:0:
296,177,160700,6,0,L|205:177,1,90.9999958343508,2|8,0:0|0:0,0:0:0:0:
303,83,161014,2,0,L|204:83,1,90.9999958343508,2|8,0:0|0:0,0:0:0:0:
141,138,161328,6,0,P|124:93|132:39,1,90.9999958343508,2|8,0:0|0:0,0:0:0:0:
385,56,161643,2,0,P|388:101|371:143,1,90.9999958343508,2|8,0:0|0:0,0:0:0:0:
446,276,161957,2,0,B|415:266|393:277|393:277|382:292|382:292|362:281|362:281|331:312|271:301,1,181.999991668702
140,270,162428,1,8,0:0:0:0:
301,223,162585,6,0,B|315:177|315:177|300:125,1,90.9999958343508,6|8,0:0|0:0,0:0:0:0:
71,231,162899,2,0,B|59:272|59:272|73:318,1,90.9999958343508,2|8,0:0|0:0,0:0:0:0:
234,174,163213,1,2,0:0:0:0:
46,145,163370,1,8,0:0:0:0:
237,97,163527,1,2,0:0:0:0:
49,68,163684,1,8,0:0:0:0:
127,221,163841,6,0,P|161:263|213:279,1,90.9999958343508,2|8,0:0|0:0,0:0:0:0:
317,139,164156,2,0,L|137:117,1,181.999991668702,2|8,0:0|0:0,0:0:0:0:
194,276,164627,1,0,0:0:0:0:
134,79,164784,1,2,0:0:0:0:
317,139,164941,1,8,0:0:0:0:
105,279,165098,6,0,P|96:226|108:178,1,90.9999958343508,2|8,0:0|0:0,0:0:0:0:
218,18,165412,2,0,P|225:62|216:107,1,90.9999958343508,2|8,0:0|0:0,0:0:0:0:
103,189,165726,1,2,0:0:0:0:
143,60,165883,1,8,0:0:0:0:
181,210,166040,1,2,0:0:0:0:
59,50,166198,1,8,0:0:0:0:
283,128,166355,6,0,L|379:126,1,90.9999958343508,2|8,0:0|0:0,0:0:0:0:
128,135,166669,2,0,L|32:133,1,90.9999958343508,2|8,0:0|0:0,0:0:0:0:
210,342,166983,2,0,B|189:310|203:267|203:267|194:255|194:255|225:208|202:171,1,181.999991668702,2|2,0:0|0:0,0:0:0:0:
96,239,167454,1,8,0:0:0:0:
281,302,167611,6,0,P|340:311|380:286,1,90.9999958343508,6|8,0:0|0:0,0:0:0:0:
248,111,167925,2,0,P|205:96|162:107,1,90.9999958343508,2|8,0:0|0:0,0:0:0:0:
96,239,168239,1,2,0:0:0:0:
202,171,168396,1,8,0:0:0:0:
139,332,168554,1,2,0:0:0:0:
97,155,168711,1,8,0:0:0:0:
270,230,168868,6,0,P|226:257|170:259,1,90.9999958343508,2|8,0:0|0:0,0:0:0:0:
273,83,169182,2,0,B|269:155|269:155|287:155|320:165|333:179|342:202|347:227|344:245,1,181.999991668702,2|2,0:0|0:0,0:0:0:0:
187,261,169653,1,8,0:0:0:0:
416,210,169810,2,0,P|397:155|363:117,1,90.9999958343508,2|8,0:0|0:0,0:0:0:0:
181,76,170124,6,0,B|187:113|163:144|163:144|189:157|189:157|154:230|203:283,1,210.000008010865
87,343,170595,1,8,0:0:0:0:
265,215,170752,2,0,P|310:190|361:199,1,105.000004005432,0|8,0:0|0:0,0:0:0:0:
225,333,171067,2,0,P|173:342|121:308,1,105.000004005432,0|8,0:0|0:0,0:0:0:0:
72,69,171381,5,0,0:0:0:0:
64,286,171538,1,8,0:0:0:0:
139,125,171695,1,0,0:0:0:0:
193,255,171852,1,8,0:0:0:0:
112,201,172009,1,0,0:0:0:0:
282,213,172166,1,8,0:0:0:0:
45,145,172323,2,0,P|27:179|48:258,1,105.000004005432,0|8,0:0|0:0,0:0:0:0:
256,64,172637,5,4,0:0:0:0:
